osu file format v14

[General]
AudioFilename: audio.mp3
AudioLeadIn: 0
PreviewTime: 28318
Countdown: 0
SampleSet: Normal
StackLeniency: 0.7
Mode: 1
LetterboxInBreaks: 0
WidescreenStoryboard: 0

[Editor]
DistanceSpacing: 1
BeatDivisor: 4
GridSize: 4
TimelineZoom: 1.6

[Metadata]
Title:Kimi ni Todoke (TV Size)
TitleUnicode:きみにとどけ (TV Size)
Artist:Tanizawa Tomofumi
ArtistUnicode:タニザワトモフミ
Creator:radar
Version:Oni
Source:君に届け
Tags:谷澤智文 jrock jpop j-rock j-pop anime japanese rock pop opening op 1 one
BeatmapID:4427212
BeatmapSetID:2109246

[Difficulty]
HPDrainRate:8
CircleSize:5
OverallDifficulty:5
ApproachRate:5
SliderMultiplier:1.4
SliderTickRate:1

[Events]
//Background and Video events
0,0,"qq111111111.png",0,60
//Break Periods
//Storyboard Layer 0 (Background)
//Storyboard Layer 1 (Fail)
//Storyboard Layer 2 (Pass)
//Storyboard Layer 3 (Foreground)
//Storyboard Layer 4 (Overlay)
//Storyboard Sound Samples

[TimingPoints]
4440,476.190476190476,4,1,0,90,1,0
4440,-100,4,1,0,90,0,0
19678,478.08764940239,4,1,0,90,1,0
19678,-99.6031746031747,4,1,0,90,0,0
26828,476.190476190476,4,1,0,90,1,8
26828,-100,4,1,0,90,0,0
27304,476.190476190476,4,1,0,90,1,0
27304,-100,4,1,0,90,0,0
28732,476.190476190476,4,1,0,90,1,8
28732,-100,4,1,0,90,0,8
29220,476.092234935648,4,1,0,90,1,0
29220,-100.020634920635,4,1,0,90,0,1
43719,476.092234935648,4,1,0,90,1,9
43719,-100.020634920635,4,1,0,90,0,9
44440,476.092234935648,4,1,0,90,1,1
44440,-100.020634920635,4,1,0,90,0,1
53016,454.545454545455,4,1,0,90,1,9
53016,-104.761904761905,4,1,0,90,0,9
53489,476.092234935648,4,1,0,90,1,9
53489,-100.020634920635,4,1,0,90,0,9
53965,476.092234935648,4,1,0,90,1,1
53965,-100.020634920635,4,1,0,90,0,1
55869,-100.020634920635,4,1,0,90,0,0

[HitObjects]
117,94,4439,5,12,0:0:0:0:
156,288,4797,1,0,0:0:0:0:
156,288,4916,1,8,0:0:0:0:
156,288,5154,1,8,0:0:0:0:
156,288,5392,1,0,0:0:0:0:
156,288,5630,1,8,0:0:0:0:
161,271,6106,1,0,0:0:0:0:
161,271,6344,1,8,0:0:0:0:
161,271,6582,1,8,0:0:0:0:
161,271,6820,1,0,0:0:0:0:
161,271,7059,1,8,0:0:0:0:
161,271,7297,1,0,0:0:0:0:
161,271,7535,1,0,0:0:0:0:
161,271,7773,1,8,0:0:0:0:
161,271,8011,1,0,0:0:0:0:
161,271,8249,1,0,0:0:0:0:
161,271,8725,1,8,0:0:0:0:
161,271,8963,1,0,0:0:0:0:
163,264,9439,1,0,0:0:0:0:
167,264,9678,1,8,0:0:0:0:
163,264,10154,1,0,0:0:0:0:
171,256,10392,1,8,0:0:0:0:
171,256,10630,1,8,0:0:0:0:
171,256,10868,1,0,0:0:0:0:
171,254,11106,1,8,0:0:0:0:
171,256,11582,1,8,0:0:0:0:
128,269,12059,1,0,0:0:0:0:
152,260,12297,1,8,0:0:0:0:
152,260,12535,1,8,0:0:0:0:
152,260,12773,1,0,0:0:0:0:
152,260,13011,1,8,0:0:0:0:
152,260,13249,1,8,0:0:0:0:
142,243,13725,1,0,0:0:0:0:
142,243,13963,1,8,0:0:0:0:
142,243,14201,1,0,0:0:0:0:
142,243,14439,1,8,0:0:0:0:
142,243,14678,1,8,0:0:0:0:
142,243,14916,1,0,0:0:0:0:
142,243,15154,1,0,0:0:0:0:
156,236,15392,1,8,0:0:0:0:
156,236,15630,1,0,0:0:0:0:
154,228,16106,1,8,0:0:0:0:
154,228,16582,1,0,0:0:0:0:
155,234,17059,1,0,0:0:0:0:
155,234,17297,1,8,0:0:0:0:
154,257,17773,1,0,0:0:0:0:
154,257,18011,1,8,0:0:0:0:
154,257,18249,1,8,0:0:0:0:
154,257,18487,1,0,0:0:0:0:
173,274,18725,1,8,0:0:0:0:
172,274,19201,1,0,0:0:0:0:
106,91,19678,1,12,0:0:0:0:
140,265,19917,1,0,0:0:0:0:
140,265,20156,1,8,0:0:0:0:
140,265,20395,1,8,0:0:0:0:
140,265,20634,1,0,0:0:0:0:
140,265,20873,1,0,0:0:0:0:
140,265,21112,1,8,0:0:0:0:
148,275,21351,1,0,0:0:0:0:
148,275,21470,1,0,0:0:0:0:
148,275,21590,1,8,0:0:0:0:
149,277,21948,1,0,0:0:0:0:
149,277,22068,1,0,0:0:0:0:
148,275,22307,1,8,0:0:0:0:
148,275,22546,1,8,0:0:0:0:
149,277,22785,1,0,0:0:0:0:
149,277,23024,1,8,0:0:0:0:
93,267,23502,1,0,0:0:0:0:
93,267,23741,1,0,0:0:0:0:
75,49,23980,1,12,0:0:0:0:
110,277,24219,1,0,0:0:0:0:
113,277,24339,1,0,0:0:0:0:
114,277,24458,1,8,0:0:0:0:
114,277,24697,1,8,0:0:0:0:
110,277,24936,1,8,0:0:0:0:
81,32,25176,1,12,0:0:0:0:
73,282,26828,1,8,0:0:0:0:
75,100,27304,1,12,0:0:0:0:
143,288,27542,1,0,0:0:0:0:
143,288,27780,1,8,0:0:0:0:
143,288,28018,1,0,0:0:0:0:
143,288,28137,1,8,0:0:0:0:
143,288,28256,1,8,0:0:0:0:
132,288,28375,1,0,0:0:0:0:
143,288,28494,1,0,0:0:0:0:
139,292,28732,1,8,0:0:0:0:
139,292,28851,1,0,0:0:0:0:
125,101,29220,1,12,0:0:0:0:
100,113,29696,1,12,0:0:0:0:
159,290,29934,1,0,0:0:0:0:
159,290,30053,1,0,0:0:0:0:
159,290,30172,1,8,0:0:0:0:
159,290,30410,1,8,0:0:0:0:
159,290,30648,1,0,0:0:0:0:
159,290,30886,1,8,0:0:0:0:
127,279,31362,1,8,0:0:0:0:
146,265,31600,1,0,0:0:0:0:
144,256,31838,1,8,0:0:0:0:
144,256,32076,1,8,0:0:0:0:
144,256,32314,1,0,0:0:0:0:
155,246,32433,1,0,0:0:0:0:
155,246,32671,1,8,0:0:0:0:
144,256,32790,1,0,0:0:0:0:
135,255,33028,1,8,0:0:0:0:
148,251,33266,1,0,0:0:0:0:
148,251,33504,1,8,0:0:0:0:
149,250,33742,1,8,0:0:0:0:
149,250,33980,1,0,0:0:0:0:
148,251,34218,1,0,0:0:0:0:
142,254,34457,1,8,0:0:0:0:
148,255,34695,1,0,0:0:0:0:
149,250,34933,1,8,0:0:0:0:
146,249,35171,1,0,0:0:0:0:
149,238,35647,1,8,0:0:0:0:
149,238,35885,1,0,0:0:0:0:
149,238,36123,1,0,0:0:0:0:
52,27,36361,1,12,0:0:0:0:
128,70,36837,1,12,0:0:0:0:
153,256,37075,1,0,0:0:0:0:
156,261,37194,1,0,0:0:0:0:
159,261,37313,1,8,0:0:0:0:
108,278,37551,1,0,0:0:0:0:
111,274,38027,1,8,0:0:0:0:
111,274,38265,1,0,0:0:0:0:
111,274,38503,1,8,0:0:0:0:
104,270,38979,1,0,0:0:0:0:
104,270,39217,1,8,0:0:0:0:
104,270,39455,1,8,0:0:0:0:
104,270,39694,1,0,0:0:0:0:
104,270,39932,1,0,0:0:0:0:
104,270,40170,1,8,0:0:0:0:
105,262,40646,1,8,0:0:0:0:
105,262,40884,1,0,0:0:0:0:
128,264,41003,1,0,0:0:0:0:
105,262,41122,1,8,0:0:0:0:
119,264,41360,1,8,0:0:0:0:
119,264,41598,1,0,0:0:0:0:
132,258,41836,1,0,0:0:0:0:
132,258,42074,1,8,0:0:0:0:
132,257,42312,1,0,0:0:0:0:
131,272,42788,1,0,0:0:0:0:
95,101,43026,1,12,0:0:0:0:
137,292,43383,1,8,0:0:0:0:
137,292,43502,1,0,0:0:0:0:
149,248,43719,1,0,0:0:0:0:
160,274,43957,1,8,0:0:0:0:
165,266,44195,1,8,0:0:0:0:
91,57,44440,1,4,0:0:0:0:
111,284,44916,1,0,0:0:0:0:
111,284,45154,1,8,0:0:0:0:
111,284,45273,1,8,0:0:0:0:
111,284,45392,1,0,0:0:0:0:
111,284,45630,1,0,0:0:0:0:
128,278,45868,1,8,0:0:0:0:
141,279,46106,1,0,0:0:0:0:
129,278,46225,1,8,0:0:0:0:
141,279,46463,1,8,0:0:0:0:
143,293,46582,1,0,0:0:0:0:
143,292,46820,1,8,0:0:0:0:
146,300,47058,1,0,0:0:0:0:
146,300,47296,1,8,0:0:0:0:
137,300,47534,1,0,0:0:0:0:
146,288,47653,1,0,0:0:0:0:
146,288,47891,1,8,0:0:0:0:
161,282,48010,1,8,0:0:0:0:
161,282,48248,1,0,0:0:0:0:
161,282,48486,1,0,0:0:0:0:
161,282,48724,1,8,0:0:0:0:
161,282,48962,1,0,0:0:0:0:
174,294,49200,1,8,0:0:0:0:
174,294,49438,1,8,0:0:0:0:
176,280,49677,1,0,0:0:0:0:
181,280,49915,1,8,0:0:0:0:
191,281,50391,1,8,0:0:0:0:
191,280,50629,1,0,0:0:0:0:
192,252,50867,1,0,0:0:0:0:
189,280,51105,1,8,0:0:0:0:
191,280,51581,1,8,0:0:0:0:
189,280,51819,1,8,0:0:0:0:
130,52,52057,1,4,0:0:0:0:
125,294,52533,1,0,0:0:0:0:
125,294,52771,1,8,0:0:0:0:
125,294,52890,1,8,0:0:0:0:
141,298,53016,1,0,0:0:0:0:
144,293,53243,1,8,0:0:0:0:
144,293,53727,1,0,0:0:0:0:
111,93,53965,1,12,0:0:0:0:
111,93,54203,1,4,0:0:0:0:
111,93,54441,1,4,0:0:0:0:
127,315,54679,1,8,0:0:0:0:
127,315,54798,1,8,0:0:0:0:
127,315,54917,1,0,0:0:0:0:
127,315,55155,1,0,0:0:0:0:
150,297,55393,1,0,0:0:0:0:
125,60,55869,1,12,0:0:0:0:
