osu file format v14

[General]
AudioFilename: audio.mp3
AudioLeadIn: 0
PreviewTime: 48485
Countdown: 0
SampleSet: Soft
StackLeniency: 0.7
Mode: 0
LetterboxInBreaks: 0
WidescreenStoryboard: 1

[Editor]
Bookmarks: 5860,16527,27193,37860,48527
DistanceSpacing: 1
BeatDivisor: 8
GridSize: 16
TimelineZoom: 1.7

[Metadata]
Title:Tsunagi Ai (TV Size)
TitleUnicode:つなぎあい (TV Size)
Artist:Tanimoto Takayoshi
ArtistUnicode:谷本貴義
Creator:Ascended
Version:Normal
Source:ただいま、おかえり
Tags:繋ぎ愛 つなぎ愛 connecting love tsunagiai tadaima, okaeri tadaoka I'm im home, welcome home back ただいま, おかえり ただおか 我回来啦,欢迎回来 pop j-pop jpop japanese anime animation きたみうみ kitamiumi kitami umi bl boys boys' love shounen shonen ai 少年愛 gay yaoi やおい homosexual lgbtq+ omegaverse abo a/b/o alpha beta omega ICHIKAWA Ichi -ascended- -_ascended_- ed ending
BeatmapID:4564784
BeatmapSetID:2164125

[Difficulty]
HPDrainRate:3
CircleSize:3
OverallDifficulty:4
ApproachRate:5
SliderMultiplier:2.19999990463257
SliderTickRate:1

[Events]
//Background and Video events
0,0,"omegaverse anime.jpg",0,0
Video,5027,"yoooooo omegaverse anime.mp4"
//Break Periods
2,27393,36660
//Storyboard Layer 0 (Background)
//Storyboard Layer 1 (Fail)
//Storyboard Layer 2 (Pass)
//Storyboard Layer 3 (Foreground)
//Storyboard Layer 4 (Overlay)
//Storyboard Sound Samples

[TimingPoints]
527,666.666666666667,4,2,0,60,1,0
5860,-111.111111111111,4,2,0,60,0,0
16527,-100,4,2,0,70,0,0
27193,-111.111111111111,4,2,0,60,0,0
37860,-111.111111111111,4,2,0,70,0,0
43193,-100,4,2,0,70,0,0
48527,-90.9090909090909,4,2,0,80,0,0
93860,-90.9090909090909,4,2,0,5,0,0

[Colours]
Combo1 : 250,180,240
Combo2 : 120,200,230
Combo3 : 255,230,130
Combo4 : 160,230,150

[HitObjects]
369,346,5860,6,0,P|437:359|507:316,2,148.499989030838,6|2|2,1:2|0:0|1:2,0:0:0:0:
175,302,7527,1,0,1:0:0:0:
94,358,7860,2,0,P|88:308|88:254,1,98.9999926872256,10|2,0:0|0:0,0:0:0:0:
133,171,8527,6,0,P|70:133|-1:146,2,148.499989030838,2|2|2,1:2|0:0|1:2,0:0:0:0:
264,22,10194,1,0,1:0:0:0:
323,101,10527,2,0,P|317:150|316:199,1,98.9999926872256,10|2,0:0|0:0,0:0:0:0:
261,281,11193,6,0,L|424:299,1,148.499989030838,2|2,1:2|0:0,0:0:0:0:
489,172,12193,2,0,P|481:84|430:48,1,148.499989030838,2|0,1:2|0:0,0:0:0:0:
392,72,12860,1,0,1:0:0:0:
306,22,13193,2,0,P|262:35|229:81,1,98.9999926872256,10|2,0:0|0:0,0:0:0:0:
139,37,13860,6,0,P|142:95|140:146,1,98.9999926872256,2|0,1:2|0:0,0:0:0:0:
98,161,14360,2,0,L|88:320,1,148.499989030838,2|2,0:0|1:2,0:0:0:0:
226,378,15360,1,0,1:0:0:0:
226,378,15527,1,0,1:0:0:0:
230,279,15860,2,0,P|233:228|237:174,1,98.9999926872256,8|0,0:0|0:0,0:0:0:0:
192,79,16527,6,0,P|244:71|305:56,1,109.999995231628,6|0,1:2|0:0,0:0:0:0:
345,27,17027,2,0,P|397:35|458:50,1,109.999995231628,2|0,1:2|0:0,0:0:0:0:
495,83,17527,2,0,P|517:145|489:249,1,164.999992847443,2|0,1:2|0:0,0:0:0:0:
451,272,18193,1,2,1:2:0:0:
377,190,18527,1,10,0:0:0:0:
272,223,18860,1,0,0:0:0:0:
192,147,19193,6,0,P|132:172|108:207,1,109.999995231628,2|0,1:2|0:0,0:0:0:0:
54,222,19693,2,0,P|45:286|63:324,1,109.999995231628,2|0,1:2|0:0,0:0:0:0:
115,337,20193,2,0,B|193:317|193:368|285:347,1,164.999992847443,2|0,1:2|0:0,0:0:0:0:
324,321,20860,1,2,1:2:0:0:
422,368,21193,1,10,0:0:0:0:
448,261,21527,1,2,0:0:0:0:
356,200,21860,6,0,P|307:210|232:204,1,109.999995231628,2|0,1:2|0:0,0:0:0:0:
194,192,22360,1,2,1:2:0:0:
107,258,22693,1,0,0:0:0:0:
107,258,22860,2,0,P|46:218|33:129,1,164.999992847443,2|0,1:2|0:0,0:0:0:0:
78,102,23527,1,0,1:0:0:0:
185,67,23860,1,8,0:0:0:0:
185,67,24027,2,0,P|182:29|176:-4,2,54.9999976158142,2|2|2,0:0|0:0|0:0,0:0:0:0:
230,97,24527,6,0,L|341:83,1,109.999995231628,2|0,1:2|0:0,0:0:0:0:
384,52,25027,1,2,1:2:0:0:
485,182,25527,2,0,P|410:194|377:284,1,164.999992847443,2|0,1:2|0:0,0:0:0:0:
334,306,26193,2,0,L|269:297,1,54.9999976158142,0|0,1:0|0:0,0:0:0:0:
236,333,26527,2,0,P|161:321|142:182,1,219.999990463257,8|4,0:0|1:2,0:0:0:0:
18,239,37860,6,0,P|21:350|120:304,1,247.499981718064,2|0,1:2|0:0,0:0:0:0:
156,287,38860,2,0,P|207:293|303:290,1,148.499989030838,2|0,1:2|0:0,0:0:0:0:
327,334,39527,1,0,1:0:0:0:
424,350,39860,2,0,P|434:301|430:252,1,98.9999926872256,10|2,0:0|0:0,0:0:0:0:
469,161,40527,6,0,P|456:82|352:109,1,197.999985374451,2|2,1:2|0:0,0:0:0:0:
366,194,41527,2,0,B|259:166|265:250|163:223,1,197.999985374451,2|0,1:2|1:0,0:0:0:0:
94,280,42527,1,10,0:0:0:0:
17,217,42860,2,0,P|19:183|19:162,1,49.4999963436128,2|2,0:0|0:0,0:0:0:0:
7,113,43193,6,0,P|60:110|123:99,1,109.999995231628,6|0,1:2|0:0,0:0:0:0:
149,56,43693,2,0,P|202:53|265:42,1,109.999995231628,2|0,1:2|0:0,0:0:0:0:
294,84,44193,2,0,B|325:210|231:181|261:296,1,219.999990463257,2|2,1:2|1:2,0:0:0:0:
347,359,45193,1,8,0:0:0:0:
438,297,45527,1,4,1:2:0:0:
466,79,46193,2,0,P|414:73|351:60,1,109.999995231628,0|0,1:0|1:0,0:0:0:0:
249,83,46860,6,0,L|243:21,2,54.9999976158142,2|2|2,1:2|0:0|0:0,0:0:0:0:
292,184,47527,1,2,0:0:0:0:
292,184,47693,1,2,0:0:0:0:
198,241,48027,2,0,P|141:244|26:214,1,164.999992847443,2|4,0:0|1:1,0:0:0:0:
13,100,48860,5,2,0:0:0:0:
115,36,49193,2,0,P|160:46|242:44,1,120.999998447418,8|2,0:0|1:2,0:0:0:0:
269,101,49693,1,2,0:0:0:0:
269,101,49860,1,2,0:0:0:0:
374,41,50193,2,0,L|431:89,1,60.4999992237091,2|0,1:2|0:0,0:0:0:0:
481,81,50527,2,0,P|494:147|482:213,1,120.999998447418,10|2,0:0|0:0,0:0:0:0:
450,249,51027,5,2,0:0:0:0:
450,249,51193,1,0,1:0:0:0:
341,194,51527,2,0,L|204:211,1,120.999998447418,2|8,0:0|0:0,0:0:0:0:
130,128,52193,2,2,P|47:126|2:225,1,181.499997671127,0|0,1:0|0:0,0:1:0:0:
15,261,52860,2,0,P|75:265|134:275,1,120.999998447418,0|10,1:0|0:0,0:0:0:0:
162,329,53360,1,2,1:2:0:0:
286,327,53693,5,2,0:0:0:0:
286,327,53860,1,0,1:0:0:0:
400,364,54193,2,0,L|405:298,1,60.4999992237091,2|0,0:0|1:0,0:0:0:0:
454,269,54527,1,8,0:0:0:0:
462,148,54860,2,0,P|369:148|271:104,1,181.499997671127,0|0,1:0|0:0,0:0:0:0:
269,57,55527,1,2,1:2:0:0:
177,135,55860,1,10,0:0:0:0:
257,225,56193,2,0,L|274:355,1,120.999998447418,2|0,0:0|1:0,0:0:0:0:
155,374,56860,5,2,0:2:0:0:
37,345,57193,1,10,0:0:0:0:
23,224,57527,2,0,P|24:185|22:150,1,60.4999992237091,2|2,1:3|0:3,0:0:0:0:
21,102,57860,1,2,0:3:0:0:
120,31,58193,1,0,1:0:0:0:
120,31,58360,2,0,P|154:36|192:34,1,60.4999992237091,2|8,0:3|0:0,0:0:0:0:
221,80,58693,2,0,P|255:75|293:77,1,60.4999992237091,2|0,1:3|0:0,0:0:0:0:
344,66,59027,5,0,0:0:0:0:
344,66,59193,1,4,1:2:0:0:
441,138,59527,1,2,0:0:0:0:
357,225,59860,2,0,P|317:216|271:211,1,60.4999992237091,10|2,0:0|0:0,0:0:0:0:
252,173,60193,2,0,P|222:177|192:184,1,60.4999992237091,2|2,1:2|0:0,0:0:0:0:
147,225,60527,2,0,P|117:220|87:213,2,60.4999992237091,2|2|2,0:0|0:0|1:2,0:0:0:0:
159,289,61027,1,2,0:0:0:0:
159,289,61193,1,8,0:0:0:0:
246,372,61527,5,0,0:0:0:0:
246,372,61693,2,0,P|304:358|369:356,1,120.999998447418,2|2,0:0|0:0,0:0:0:0:
425,347,62193,2,0,L|418:285,1,60.4999992237091,2|0,0:0|1:0,0:0:0:0:
464,246,62527,1,8,0:0:0:0:
475,125,62860,6,0,P|437:123|406:120,1,60.4999992237091,2|2,1:3|0:3,0:0:0:0:
361,91,63193,1,2,0:3:0:0:
259,24,63527,2,0,P|221:22|190:19,1,60.4999992237091,2|0,1:3|0:0,0:0:0:0:
153,60,63860,1,8,0:0:0:0:
153,60,64027,2,0,P|92:57|32:51,1,120.999998447418,0|0,1:0|0:0,0:0:0:0:
20,111,64527,1,0,1:0:0:0:
119,179,64860,6,0,L|110:250,1,60.4999992237091,2|2,0:2|1:2,0:0:0:0:
106,299,65193,1,10,0:0:0:0:
221,261,65527,2,0,L|212:332,1,60.4999992237091,2|2,1:2|0:2,0:0:0:0:
205,380,65860,1,2,0:0:0:0:
318,337,66193,2,0,L|389:346,1,60.4999992237091,2|2,1:2|0:2,0:0:0:0:
437,353,66526,1,10,0:0:0:0:
490,244,66860,2,0,P|484:191|487:114,1,120.999998447418,2|0,0:0|0:0,0:0:0:0:
383,188,67527,6,0,P|320:205|241:206,1,120.999998447418,2|0,1:2|0:0,0:0:0:0:
221,250,68027,2,0,P|158:267|79:268,1,120.999998447418,0|0,1:0|0:0,0:0:0:0:
42,258,68527,1,4,1:2:0:0:
63,138,68860,2,0,P|24:134|1:127,2,60.4999992237091,2|2|8,3:3|3:3|1:2,0:0:0:0:
114,105,69360,1,2,0:0:0:0:
214,37,69693,5,0,0:0:0:0:
214,37,69860,2,0,P|243:73|244:155,1,120.999998447418,6|0,1:2|0:0,0:0:0:0:
210,193,70360,1,2,1:0:0:0:
210,193,70527,1,8,0:0:0:0:
285,287,70860,2,0,P|249:316|167:317,1,120.999998447418,2|0,1:1|0:0,0:0:0:0:
134,285,71360,1,2,0:0:0:0:
134,285,71527,1,0,1:0:0:0:
20,242,71860,2,2,L|3:384,2,120.999998447418,8|2|0,0:2|0:0|1:0,0:1:0:0:
105,155,72860,6,0,P|143:159|181:161,1,60.4999992237091,2|2,0:3|0:3,0:0:0:0:
225,163,73193,2,0,P|229:125|231:87,2,60.4999992237091,8|0|2,0:0|0:0|1:3,0:0:0:0:
213,283,73860,2,0,P|251:287|289:289,1,60.4999992237091,2|2,0:3|0:0,0:0:0:0:
324,320,74193,2,0,P|362:316|400:314,1,60.4999992237091,2|2,1:3|0:0,0:0:0:0:
444,313,74526,2,0,P|448:351|450:389,2,60.4999992237091,8|0|0,0:0|1:0|0:0,0:0:0:0:
464,258,75027,5,2,0:0:0:0:
464,258,75194,2,0,P|493:222|494:140,1,120.999998447418,2|0,1:2|0:0,0:0:0:0:
459,110,75694,1,2,1:1:0:0:
459,110,75861,1,8,0:0:0:0:
373,25,76193,2,0,P|327:17|255:58,1,120.999998447418,2|0,1:1|0:0,0:0:0:0:
235,107,76694,1,2,0:0:0:0:
235,107,76861,1,0,1:0:0:0:
167,205,77194,2,2,L|46:190,2,120.999998447418,10|0|0,0:2|0:0|1:0,0:1:0:0:
286,188,78193,6,0,P|324:194|346:193,1,60.4999992237091,2|2,0:3|1:2,0:0:0:0:
385,239,78527,2,0,P|423:231|450:230,2,60.4999992237091,8|2|0,0:2|0:0|1:0,0:0:0:0:
353,290,79027,1,0,0:0:0:0:
353,290,79193,2,0,L|285:302,1,60.4999992237091,2|2,0:3|0:0,0:0:0:0:
256,349,79527,1,2,1:3:0:0:
139,351,79860,1,8,0:0:0:0:
139,351,80027,2,0,P|105:291|113:230,1,120.999998447418,0|2,1:0|0:0,0:0:0:0:
128,183,80527,6,0,P|59:174|-12:155,1,120.999998447418,6|0,1:2|0:0,0:0:0:0:
10,105,81027,1,2,1:2:0:0:
10,105,81193,1,8,0:0:0:0:
98,23,81527,2,0,P|167:32|238:51,1,120.999998447418,2|0,1:2|0:0,0:0:0:0:
217,108,82027,1,2,0:0:0:0:
217,108,82193,1,0,1:0:0:0:
274,212,82527,1,8,0:2:0:0:
235,326,82860,2,0,P|267:332|303:325,1,60.4999992237091,2|2,0:0|0:0,0:0:0:0:
343,363,83193,5,2,1:2:0:0:
464,370,83527,1,2,0:0:0:0:
497,253,83860,1,10,0:0:0:0:
396,186,84193,2,0,B|283:145|269:254|151:214,1,241.999996894836,4|0,1:2|1:0,0:0:0:0:
56,273,85193,2,0,P|49:224|50:196,1,60.4999992237091,10|2,0:0|1:2,0:0:0:0:
4,171,85527,1,2,0:0:0:0:
15,50,85860,5,0,1:0:0:0:
129,88,86193,2,0,P|166:82|206:76,1,60.4999992237091,2|2,0:0|1:2,0:0:0:0:
227,31,86527,2,0,L|352:45,1,120.999998447418,10|2,0:0|1:2,0:0:0:0:
464,13,87193,2,0,P|477:71|470:136,1,120.999998447418,2|2,0:0|1:2,0:0:0:0:
426,172,87693,1,2,0:0:0:0:
426,172,87860,1,8,0:0:0:0:
481,279,88193,2,0,L|413:288,1,60.4999992237091,2|2,0:0|0:0,0:0:0:0:
371,323,88527,6,0,P|311:346|244:337,1,120.999998447418,2|2,1:2|0:0,0:0:0:0:
208,302,89027,1,2,0:0:0:0:
208,302,89193,1,8,0:0:0:0:
269,197,89527,2,0,P|272:153|275:129,1,60.4999992237091,2|2,0:0|1:2,0:0:0:0:
242,84,89860,2,0,L|120:106,1,120.999998447418,2|2,1:2|1:2,0:0:0:0:
67,129,90360,2,0,P|70:159|71:189,1,60.4999992237091,2|8,0:0|0:0,0:0:0:0:
33,236,90693,1,2,0:0:0:0:
33,236,90860,1,4,1:1:0:0:
256,192,91027,12,0,93860,0:0:0:0:
