osu file format v14

[General]
AudioFilename: audio.mp3
AudioLeadIn: 0
PreviewTime: 48485
Countdown: 0
SampleSet: Soft
StackLeniency: 0.7
Mode: 0
LetterboxInBreaks: 0
WidescreenStoryboard: 1

[Editor]
Bookmarks: 5860,16527,22360,27193,37860,46860,48527
DistanceSpacing: 1
BeatDivisor: 8
GridSize: 16
TimelineZoom: 1.7

[Metadata]
Title:Tsunagi Ai (TV Size)
TitleUnicode:つなぎあい (TV Size)
Artist:Tanimoto Takayoshi
ArtistUnicode:谷本貴義
Creator:Ascended
Version:Hard
Source:ただいま、おかえり
Tags:繋ぎ愛 つなぎ愛 connecting love tsunagiai tadaima, okaeri tadaoka I'm im home, welcome home back ただいま, おかえり ただおか 我回来啦,欢迎回来 pop j-pop jpop japanese anime animation きたみうみ kitamiumi kitami umi bl boys boys' love shounen shonen ai 少年愛 gay yaoi やおい homosexual lgbtq+ omegaverse abo a/b/o alpha beta omega ICHIKAWA Ichi -ascended- -_ascended_- ed ending
BeatmapID:4564783
BeatmapSetID:2164125

[Difficulty]
HPDrainRate:4
CircleSize:3.5
OverallDifficulty:6
ApproachRate:7
SliderMultiplier:2.79999990463257
SliderTickRate:1

[Events]
//Background and Video events
0,0,"omegaverse anime.jpg",0,0
Video,5027,"yoooooo omegaverse anime.mp4"
//Break Periods
2,27393,36960
//Storyboard Layer 0 (Background)
//Storyboard Layer 1 (Fail)
//Storyboard Layer 2 (Pass)
//Storyboard Layer 3 (Foreground)
//Storyboard Layer 4 (Overlay)
//Storyboard Sound Samples

[TimingPoints]
527,666.666666666667,4,2,0,60,1,0
5860,-125,4,2,0,60,0,0
16527,-100,4,2,0,70,0,0
27193,-100,4,2,0,60,0,0
37860,-133.333333333333,4,2,0,70,0,0
48527,-90.9090909090909,4,2,0,80,0,0
93860,-90.9090909090909,4,2,0,5,0,0

[Colours]
Combo1 : 250,180,240
Combo2 : 120,200,230
Combo3 : 255,230,130
Combo4 : 160,230,150

[HitObjects]
184,85,5860,6,0,P|132:40|24:61,2,167.999994277954,6|2|2,1:2|0:0|1:2,0:0:0:0:
271,334,7527,1,0,1:0:0:0:
445,296,7860,2,0,P|454:249|463:172,1,111.999996185303,10|2,0:0|0:0,0:0:0:0:
364,79,8527,6,0,P|444:92|509:43,2,167.999994277954,2|2|2,1:2|0:0|1:2,0:0:0:0:
202,195,10027,1,0,0:0:0:0:
202,195,10193,1,0,1:0:0:0:
49,132,10527,2,0,P|58:190|56:250,1,111.999996185303,10|2,0:0|0:0,0:0:0:0:
0,360,11193,6,0,L|182:344,1,167.999994277954,2|2,1:2|0:0,0:0:0:0:
319,260,12027,1,0,0:0:0:0:
319,260,12193,2,0,P|259:271|174:213,1,167.999994277954,2|0,1:2|0:0,0:0:0:0:
85,262,12860,1,0,1:0:0:0:
5,99,13193,2,0,P|32:97|60:93,1,55.9999980926514,10|0,0:0|0:0,0:0:0:0:
160,15,13527,2,0,P|132:10|104:8,1,55.9999980926514,2|0,0:0|0:0,0:0:0:0:
217,97,13860,6,0,P|275:69|327:75,1,111.999996185303,2|0,1:2|0:0,0:0:0:0:
401,15,14360,2,0,P|454:51|475:99,1,111.999996185303,2|0,0:0|0:0,0:0:0:0:
487,195,14860,2,0,B|397:175|400:232|319:216,1,167.999994277954,2|0,1:2|1:0,0:0:0:0:
373,305,15527,1,0,1:0:0:0:
232,142,15860,2,0,P|157:148|108:239,1,167.999994277954,8|0,0:0|0:0,0:0:0:0:
18,194,16527,6,0,P|14:248|22:336,1,139.999995231629,6|0,1:2|0:0,0:0:0:0:
116,381,17027,2,0,P|118:325|110:234,1,139.999995231629,2|0,1:2|0:0,0:0:0:0:
210,230,17527,2,0,B|307:203|288:295|414:267,1,209.999992847443,2|0,1:2|0:0,0:0:0:0:
344,357,18193,1,2,1:2:0:0:
498,304,18527,6,0,L|504:222,1,69.9999976158143,10|0,0:0|0:0,0:0:0:0:
408,193,18860,2,0,L|414:263,1,69.9999976158143
501,152,19193,6,0,P|510:100|493:6,1,139.999995231629,2|0,1:2|0:0,0:0:0:0:
386,28,19693,2,0,P|377:80|394:174,1,139.999995231629,2|0,1:2|0:0,0:0:0:0:
394,274,20193,2,0,P|312:261|285:146,1,209.999992847443,2|0,1:2|0:0,0:0:0:0:
284,60,20860,1,2,1:2:0:0:
97,135,21193,2,0,L|19:123,1,69.9999976158143,10|0,0:0|0:0,0:0:0:0:
99,47,21527,2,0,L|173:37,1,69.9999976158143,2|0,0:0|0:0,0:0:0:0:
207,116,21860,6,0,P|217:179|207:263,1,139.999995231629,2|0,1:2|0:0,0:0:0:0:
121,322,22360,2,0,P|111:259|121:175,1,139.999995231629,2|0,1:2|0:0,0:0:0:0:
226,242,22860,2,0,P|298:187|413:209,1,209.999992847443,2|0,1:2|0:0,0:0:0:0:
490,308,23527,2,0,L|407:293,1,69.9999976158143,0|0,1:0|0:0,0:0:0:0:
318,348,23860,1,8,0:0:0:0:
318,348,24027,2,0,L|330:275,2,69.9999976158143,2|2|2,0:0|0:0|0:0,0:0:0:0:
240,271,24527,6,0,P|180:289|99:293,1,139.999995231629,2|0,1:2|0:0,0:0:0:0:
0,220,25027,2,0,P|60:202|141:198,1,139.999995231629,2|0,1:2|0:0,0:0:0:0:
233,166,25527,2,0,P|195:72|86:86,1,209.999992847443,2|0,1:2|0:0,0:0:0:0:
53,153,26193,1,0,1:0:0:0:
53,153,26360,1,0,0:0:0:0:
137,198,26527,6,0,B|288:169|257:290|408:260,1,279.999990463257,8|4,0:0|1:2,0:0:0:0:
109,25,37860,6,0,P|53:18|15:117,1,157.50000064373,2|0,1:2|1:0,0:0:0:0:
99,129,38527,2,0,L|159:123,1,52.5000002145768
238,56,38860,2,0,P|235:126|244:228,1,157.50000064373,2|0,1:2|0:0,0:0:0:0:
321,146,39527,1,0,1:0:0:0:
174,274,39860,2,0,P|143:279|119:276,1,52.5000002145768,10|0,0:0|0:0,0:0:0:0:
238,354,40193,2,0,P|264:351|289:356,1,52.5000002145768,2|0,0:0|0:0,0:0:0:0:
359,287,40527,6,0,L|463:273,1,105.000000429154,2|0,1:2|0:0,0:0:0:0:
485,369,41027,1,0,1:0:0:0:
485,369,41193,2,0,P|458:371|433:366,1,52.5000002145768,2|0,0:0|0:0,0:0:0:0:
346,280,41527,2,0,P|364:211|493:197,1,210.000000858307,2|0,1:2|1:0,0:0:0:0:
413,27,42527,2,0,P|340:38|286:40,1,105.000000429154,10|2,0:0|0:0,0:0:0:0:
199,29,43027,5,2,0:0:0:0:
199,29,43193,2,0,P|210:69|220:143,1,105.000000429154,6|0,1:2|0:0,0:0:0:0:
313,185,43693,2,0,P|302:225|292:299,1,105.000000429154,2|0,1:2|0:0,0:0:0:0:
226,351,44193,2,0,B|124:315|125:400|15:364,1,210.000000858307,2|2,1:2|1:2,0:0:0:0:
17,152,45193,2,0,P|42:148|68:143,1,52.5000002145768,8|0,0:0|0:0,0:0:0:0:
147,208,45527,6,0,L|167:39,1,157.50000064373,4|0,1:2|0:0,0:0:0:0:
248,9,46193,2,0,P|251:34|254:61,1,52.5000002145768,0|0,1:0|0:0,0:0:0:0:
245,148,46527,1,0,1:0:0:0:
222,338,46860,5,2,1:2:0:0:
222,338,47027,1,2,0:0:0:0:
298,296,47193,2,0,P|341:299|369:305,1,52.5000002145768,2|0,0:0|0:0,0:0:0:0:
441,260,47527,5,2,0:0:0:0:
373,190,47693,2,0,P|287:184|251:174,1,105.000000429154,2|2,0:0|0:0,0:0:0:0:
44,10,48527,5,4,1:1:0:0:
135,198,48860,2,0,P|138:156|136:113,1,76.9999997272492,2|0,0:0|1:0,0:0:0:0:
46,164,49193,2,0,P|44:202|47:240,1,76.9999997272492,8|0,0:0|0:0,0:0:0:0:
119,311,49527,1,2,1:2:0:0:
204,268,49693,1,2,0:0:0:0:
284,325,49860,6,0,P|341:340|409:332,1,115.499999590874,2|0,0:0|0:0,0:0:0:0:
413,310,50193,2,0,L|494:297,1,76.9999997272492,2|0,1:2|0:0,0:0:0:0:
494,216,50527,2,0,L|417:203,1,76.9999997272492,10|0,0:0|0:0,0:0:0:0:
329,245,50860,1,2,0:0:0:0:
329,245,51027,1,2,0:0:0:0:
257,181,51193,6,0,P|251:111|263:19,1,153.999999454498,0|2,1:0|0:0,0:0:0:0:
344,84,51693,1,0,1:0:0:0:
344,84,51860,1,8,0:0:0:0:
234,276,52193,6,2,B|135:242|126:348|8:310,1,230.999999181748,0|0,1:0|0:0,0:1:0:0:
21,204,52860,2,0,P|66:200|108:185,1,76.9999997272492,0|0,1:0|0:0,0:0:0:0:
163,106,53193,1,10,0:0:0:0:
254,138,53360,2,0,P|260:192|250:301,1,153.999999454498,2|2,1:2|0:0,0:0:0:0:
159,328,53860,1,0,1:0:0:0:
354,365,54193,6,0,L|344:278,1,76.9999997272492,2|0,0:0|1:0,0:0:0:0:
444,235,54527,2,0,L|435:311,1,76.9999997272492,8|0,0:0|0:0,0:0:0:0:
362,197,54860,2,0,P|353:120|360:43,1,153.999999454498,0|0,1:0|0:0,0:0:0:0:
438,12,55360,1,0,0:0:0:0:
480,108,55527,6,0,L|399:120,1,76.9999997272492,2|0,1:2|0:0,0:0:0:0:
357,202,55860,2,0,L|276:190,1,76.9999997272492,10|0,0:0|0:0,0:0:0:0:
203,142,56193,2,0,P|211:106|215:61,1,76.9999997272492,2|0,0:0|0:0,0:0:0:0:
142,5,56527,1,0,1:0:0:0:
19,177,56860,6,0,P|23:217|25:258,1,76.9999997272492,2|0,0:2|1:0,0:0:0:0:
109,336,57193,2,0,P|111:297|114:259,1,76.9999997272492,10|0,0:0|0:0,0:0:0:0:
206,238,57527,1,2,1:3:0:0:
206,238,57693,1,2,0:3:0:0:
274,297,57860,2,0,P|335:301|410:239,1,153.999999454498,2|0,0:3|1:0,0:0:0:0:
507,257,58360,2,0,P|501:214|474:173,1,76.9999997272492,2|8,0:3|0:0,0:0:0:0:
493,88,58693,2,0,P|450:94|409:121,1,76.9999997272492,2|0,1:3|0:0,0:0:0:0:
345,159,59027,1,0,0:0:0:0:
283,75,59193,5,4,1:2:0:0:
331,278,59527,2,0,P|273:264|241:260,1,76.9999997272492,2|0,0:0|1:0,0:0:0:0:
213,345,59860,1,10,0:0:0:0:
213,345,60027,1,2,0:0:0:0:
122,318,60193,2,0,P|117:279|126:225,1,76.9999997272492,2|2,1:2|0:0,0:0:0:0:
77,144,60527,6,0,P|39:152|1:158,2,76.9999997272492,2|2|2,0:0|0:0|1:2,0:0:0:0:
160,86,61027,1,2,0:0:0:0:
208,170,61193,2,0,P|217:262|211:334,1,153.999999454498,8|0,0:0|0:0,0:0:0:0:
317,372,61693,2,0,L|308:282,1,76.9999997272492,2|0,0:0|1:0,0:0:0:0:
415,237,62027,1,2,0:0:0:0:
415,237,62193,2,0,L|406:327,1,76.9999997272492,2|0,0:0|1:0,0:0:0:0:
488,361,62527,1,8,0:0:0:0:
318,184,62860,5,2,1:3:0:0:
318,184,63027,1,2,0:3:0:0:
249,233,63193,2,0,P|210:227|173:216,1,76.9999997272492,2|0,0:3|0:0,0:0:0:0:
85,245,63527,2,0,P|90:206|101:169,1,76.9999997272492,2|0,1:3|0:0,0:0:0:0:
20,110,63860,1,8,0:0:0:0:
63,28,64027,2,0,P|123:12|198:79,1,153.999999454498,0|0,1:0|0:0,0:0:0:0:
237,142,64527,1,0,1:0:0:0:
174,333,64860,5,2,0:2:0:0:
174,333,65027,1,2,1:2:0:0:
267,359,65193,2,0,L|255:278,1,76.9999997272492,10|0,0:0|0:0,0:0:0:0:
353,312,65527,5,2,1:2:0:0:
353,312,65694,1,2,0:2:0:0:
446,338,65860,2,0,L|434:257,1,76.9999997272492,2|0,0:0|0:0,0:0:0:0:
407,177,66193,5,2,1:2:0:0:
407,177,66360,1,2,0:2:0:0:
314,203,66526,2,0,L|326:122,1,76.9999997272492,10|0,0:0|0:0,0:0:0:0:
245,69,66860,2,0,P|199:86|171:86,2,76.9999997272492,2|0|0,0:0|0:0|0:0,0:0:0:0:
94,0,67527,6,0,P|60:65|73:145,1,153.999999454498,2|0,1:2|0:0,0:0:0:0:
7,219,68027,2,0,P|46:280|122:309,1,153.999999454498,0|0,1:0|0:0,0:0:0:0:
223,209,68527,2,0,P|177:215|145:216,1,76.9999997272492,4|0,1:2|0:0,0:0:0:0:
276,288,68860,1,2,3:3:0:0:
276,288,69027,1,2,3:3:0:0:
322,201,69193,1,8,1:2:0:0:
322,201,69360,2,0,P|399:194|459:242,1,153.999999454498,2|0,0:0|0:0,0:0:0:0:
484,350,69860,6,0,B|401:326|408:387|334:370,1,153.999999454498,6|0,1:2|0:0,0:0:0:0:
260,316,70360,1,2,1:0:0:0:
180,345,70527,1,8,0:0:0:0:
32,197,70860,2,0,B|114:173|107:234|181:217,1,153.999999454498,2|0,1:1|0:0,0:0:0:0:
256,163,71360,1,2,0:0:0:0:
336,192,71527,1,0,1:0:0:0:
461,10,71860,2,2,P|367:23|273:24,2,153.999999454498,8|2|0,0:2|0:0|1:0,0:1:0:0:
500,217,72860,6,0,P|500:262|498:305,1,76.9999997272492,2|2,0:3|0:3,0:0:0:0:
415,343,73193,1,8,0:0:0:0:
415,343,73360,1,0,0:0:0:0:
349,277,73527,2,0,L|272:290,1,76.9999997272492,2|2,1:3|0:0,0:0:0:0:
210,224,73860,5,2,0:3:0:0:
210,224,74027,1,2,0:0:0:0:
294,158,74193,1,2,1:3:0:0:
294,158,74360,1,2,0:0:0:0:
237,85,74527,2,0,L|250:8,2,76.9999997272492,8|0|0,0:0|1:0|0:0,0:0:0:0:
144,39,75027,5,2,0:0:0:0:
144,39,75193,2,0,P|64:49|17:130,1,153.999999454498,2|0,1:2|0:0,0:0:0:0:
70,184,75693,1,2,1:1:0:0:
70,184,75860,1,8,0:0:0:0:
244,104,76193,2,0,P|254:184|335:231,1,153.999999454498,2|0,1:1|0:0,0:0:0:0:
389,178,76693,1,2,0:0:0:0:
389,178,76860,1,0,1:0:0:0:
351,372,77193,2,2,P|428:357|514:349,2,153.999999454498,10|0|0,0:2|0:0|1:0,0:1:0:0:
182,286,78193,6,0,L|92:304,1,76.9999997272492,2|2,0:3|1:2,0:0:0:0:
43,227,78527,1,8,0:2:0:0:
43,227,78693,1,2,0:0:0:0:
110,158,78860,2,0,P|110:117|106:75,1,76.9999997272492,0|0,1:0|0:0,0:0:0:0:
174,14,79193,5,2,0:3:0:0:
262,58,79360,1,2,0:0:0:0:
351,36,79527,2,0,P|390:36|441:19,1,76.9999997272492,2|0,1:3|0:0,0:0:0:0:
481,120,79860,1,8,0:0:0:0:
481,120,80027,2,0,L|313:134,1,153.999999454498,0|2,1:0|0:0,0:0:0:0:
282,208,80527,6,0,B|298:286|240:287|262:376,1,153.999999454498,6|0,1:2|0:0,0:0:0:0:
176,286,81027,2,0,P|188:243|193:199,1,76.9999997272492,2|8,1:2|0:0,0:0:0:0:
151,32,81527,2,0,B|73:16|72:74|-17:52,1,153.999999454498,2|0,1:2|0:0,0:0:0:0:
67,140,82027,2,0,P|110:128|154:123,1,76.9999997272492,2|0,0:0|1:0,0:0:0:0:
113,347,82527,2,0,P|74:341|37:330,1,76.9999997272492,8|0,0:2|0:0,0:0:0:0:
211,306,82860,1,2,0:0:0:0:
211,306,83027,1,2,0:0:0:0:
301,356,83193,6,0,L|312:271,1,76.9999997272492,2|0,1:2|0:0,0:0:0:0:
394,214,83527,2,0,L|409:289,1,76.9999997272492,2|0,0:0|1:0,0:0:0:0:
276,183,83860,2,0,L|291:107,1,76.9999997272492,10|0,0:0|0:0,0:0:0:0:
399,50,84193,6,0,B|288:24|295:110|177:84,1,230.999999181748,4|0,1:2|0:0,0:0:0:0:
87,22,84860,2,0,P|83:66|82:107,1,76.9999997272492,0|0,1:0|0:0,0:0:0:0:
130,177,85193,1,10,0:0:0:0:
53,240,85360,1,2,1:2:0:0:
106,311,85527,2,0,P|151:297|195:297,1,76.9999997272492,2|0,0:0|0:0,0:0:0:0:
240,370,85860,1,0,1:0:0:0:
427,291,86193,5,2,0:0:0:0:
427,291,86360,1,2,1:2:0:0:
338,240,86527,2,0,P|331:286|330:331,1,76.9999997272492,10|0,0:0|0:0,0:0:0:0:
420,200,86860,2,0,P|418:162|412:124,1,76.9999997272492,2|0,1:2|0:0,0:0:0:0:
318,90,87193,2,0,L|157:115,1,153.999999454498,2|2,0:0|1:2,0:0:0:0:
83,76,87693,1,2,0:0:0:0:
12,145,87860,2,0,P|14:189|26:240,1,76.9999997272492,8|0,0:0|0:0,0:0:0:0:
68,297,88193,1,2,0:0:0:0:
68,297,88360,1,2,0:0:0:0:
155,274,88527,6,0,P|218:259|253:167,1,153.999999454498,2|2,1:2|0:0,0:0:0:0:
185,124,89027,1,2,0:0:0:0:
261,62,89193,2,0,P|306:69|349:67,1,76.9999997272492,8|0,0:0|0:0,0:0:0:0:
423,21,89527,1,2,0:0:0:0:
423,21,89693,1,2,1:2:0:0:
493,90,89860,6,0,L|476:260,1,153.999999454498,2|2,1:2|1:2,0:0:0:0:
385,304,90360,2,0,P|380:262|381:211,1,76.9999997272492,2|8,0:0|0:0,0:0:0:0:
285,193,90693,1,2,0:0:0:0:
235,278,90860,1,4,1:1:0:0:
256,192,91027,12,0,93860,0:0:0:0:
