osu file format v14

[General]
AudioFilename: audio.mp3
AudioLeadIn: 0
PreviewTime: 56700
Countdown: 0
SampleSet: Soft
StackLeniency: 0.4
Mode: 0
LetterboxInBreaks: 0
WidescreenStoryboard: 1

[Editor]
Bookmarks: 59371
DistanceSpacing: 0.8
BeatDivisor: 4
GridSize: 32
TimelineZoom: 1.8

[Metadata]
Title:Mikakunin Hikousen (TV Size)
TitleUnicode:未確認飛行船 (TV Size)
Artist:Tanimoto Takayoshi
ArtistUnicode:谷本貴義
Creator:Xandit
Version:Normal!
Source:デジモンアドベンチャー:
Tags:Digimon Adventure: 2020 anime japanese opening male vocals j-rock jrock rock
BeatmapID:2494267
BeatmapSetID:1146886

[Difficulty]
HPDrainRate:4
CircleSize:3.2
OverallDifficulty:4.5
ApproachRate:5.5
SliderMultiplier:1.2
SliderTickRate:1

[Events]
//Background and Video events
0,0,"2049b4b9e6aeed0e4a4be6a465786a737321f1bd_s1_n2.jpg",0,0
Video,-774,"DigimonAdventure2020-OP1video.mp4"
//Break Periods
2,51295,52496
//Storyboard Layer 0 (Background)
//Storyboard Layer 1 (Fail)
//Storyboard Layer 2 (Pass)
//Storyboard Layer 3 (Foreground)
//Storyboard Layer 4 (Overlay)
//Storyboard Sound Samples

[TimingPoints]
2463,315.789473684211,4,2,1,50,1,0
3095,315.789473684211,4,2,1,50,1,0
3095,-111.111111111111,4,2,1,50,0,0
8147,-111.111111111111,4,2,1,65,0,0
10674,-100,4,2,1,80,0,0
23147,-111.111111111111,4,2,1,80,0,0
25832,-111.111111111111,4,2,1,60,0,0
46042,-111.111111111111,4,2,1,65,0,0
51095,-111.111111111111,4,2,1,50,0,0
53621,-100,4,2,1,80,0,0
56779,-100,4,2,1,55,0,0
57410,-100,4,2,1,90,0,1
81252,-100,4,2,1,90,0,0
82516,-100,4,2,1,5,0,0

[Colours]
Combo1 : 228,116,217
Combo2 : 43,165,174
Combo3 : 227,55,55
Combo4 : 120,216,33
Combo5 : 141,141,141
Combo6 : 223,183,45

[HitObjects]
392,269,3095,6,0,L|401:381,2,107.999996704102,2|2|2,0:0|0:0|0:0,0:0:0:0:
324,214,4042,2,0,L|332:106,2,107.999996704102,2|2|2,0:0|0:0|0:0,0:0:0:0:
252,263,4990,2,0,P|188:269|142:245,1,107.999996704102,2|2,0:0|0:0,0:0:0:0:
97,182,5621,6,0,B|115:128|115:128|101:68,2,107.999996704102,2|2|2,0:0|0:0|0:0,0:0:0:0:
15,211,6569,1,2,0:0:0:0:
54,287,6884,2,0,P|150:318|214:280,1,161.999995056153,2|2,0:0|0:0,0:0:0:0:
227,259,7516,2,0,L|393:281,1,161.999995056153,2|2,0:0|0:0,0:0:0:0:
430,287,8147,5,6,1:0:0:0:
510,255,8463,2,0,L|502:192,1,53.9999983520508,8|10,0:0|0:0,0:0:0:0:
477,166,8779,2,0,L|485:103,1,53.9999983520508,10|8,0:0|0:0,0:0:0:0:
512,79,9095,1,10,0:0:0:0:
443,25,9411,6,0,L|370:41,1,53.9999983520508,10|8,0:0|0:0,0:0:0:0:
74,180,10674,6,0,P|134:200|212:181,1,120,14|2,0:0|1:0,0:0:0:0:
230,167,11147,2,0,P|287:160|354:186,1,120,14|2,0:0|1:0,0:0:0:0:
378,215,11621,2,0,L|356:361,1,120,14|2,0:0|1:0,0:0:0:0:
344,379,12095,2,0,B|293:350|293:350|231:369,1,120,14|2,0:0|1:0,0:0:0:0:
194,339,12569,1,14,0:0:0:0:
117,384,12884,1,14,0:0:0:0:
40,326,13200,6,0,L|57:189,1,120,14|2,0:0|1:0,0:0:0:0:
18,175,13674,2,0,P|0:107|40:46,1,120,14|2,0:0|1:0,0:0:0:0:
56,32,14147,2,0,P|123:14|184:54,1,120,14|2,0:0|1:0,0:0:0:0:
195,73,14621,2,0,P|249:91|323:60,1,120,14|2,0:0|1:0,0:0:0:0:
332,35,15095,1,14,0:0:0:0:
332,35,15253,1,14,0:0:0:0:
413,85,15569,6,0,P|372:136|356:220,1,120,6|2,1:0|0:0,0:0:0:0:
390,221,16042,1,10,0:0:0:0:
369,314,16358,2,0,L|300:302,1,60,2|2,1:0|0:0,0:0:0:0:
266,281,16674,1,8,0:0:0:0:
224,304,16832,6,0,P|149:311|87:264,1,120,2|2,0:0|0:0,0:0:0:0:
81,200,17463,2,0,L|102:65,1,120,2|2,0:0|0:0,0:0:0:0:
171,16,18095,1,2,0:0:0:0:
204,50,18253,6,0,L|184:183,1,120,0|8,1:0|0:0,0:0:0:0:
247,249,18884,1,0,1:0:0:0:
247,249,19042,2,0,L|233:333,1,60,2|8,0:0|0:0,0:0:0:0:
230,356,19358,6,0,P|169:326|73:347,1,120,2|2,0:0|0:0,0:0:0:0:
21,318,19990,2,0,B|23:284|41:260|41:260|26:235|26:205,1,120,2|10,0:0|1:3,0:0:0:0:
41,159,20463,2,0,P|75:140|107:137,1,60,8|8,0:0|0:0,0:0:0:0:
136,163,20779,6,0,L|207:150,1,60,14|2,0:0|1:0,0:0:0:0:
222,112,21095,1,10,0:0:0:0:
305,64,21411,2,0,L|318:-7,2,60,10|2|10,0:0|1:0|0:0,0:0:0:0:
325,107,21884,6,0,P|397:96|426:59,1,120,2|2,1:0|1:0,0:0:0:0:
457,26,22358,1,10,0:0:0:0:
457,26,22516,2,0,L|438:190,1,120,2|0,1:0|1:0,0:0:0:0:
495,213,23147,6,0,P|468:269|467:395,1,161.999995056153,6|12,1:0|0:0,0:0:0:0:
376,348,23937,1,12,0:0:0:0:
294,340,24253,1,10,0:0:0:0:
294,340,24411,2,0,L|151:317,2,107.999996704102,6|6|6,1:0|1:0|1:0,0:0:0:0:
444,163,25832,6,0,P|372:139|319:154,1,107.999996704102,6|2,1:0|1:0,0:0:0:0:
310,173,26305,2,0,L|325:283,1,107.999996704102,2|2,0:0|0:0,0:0:0:0:
266,344,26937,1,2,0:0:0:0:
266,344,27095,2,0,P|192:349|154:316,1,107.999996704102,0|0,1:0|1:0,0:0:0:0:
140,249,27726,2,0,L|161:126,1,107.999996704102,2|2,1:0|1:0,0:0:0:0:
180,58,28358,6,0,P|242:93|298:74,1,107.999996704102,2|2,1:0|1:0,0:0:0:0:
306,57,28832,2,0,L|424:79,1,107.999996704102,2|2,0:0|0:0,0:0:0:0:
384,161,29463,1,2,0:0:0:0:
384,161,29621,2,0,P|356:218|373:274,1,107.999996704102,0|0,1:0|1:0,0:0:0:0:
411,332,30253,2,0,L|395:398,2,53.9999983520508,2|2|2,1:0|0:0|1:0,0:0:0:0:
489,295,30884,6,0,L|475:178,1,107.999996704102,2|2,1:0|1:0,0:0:0:0:
484,145,31358,1,2,0:0:0:0:
397,48,31832,1,2,1:0:0:0:
331,105,32147,6,0,L|184:81,1,107.999996704102,2|2,1:0|1:0,0:0:0:0:
181,79,32621,1,2,0:0:0:0:
104,39,32937,1,2,0:0:0:0:
33,88,33253,1,2,0:0:0:0:
33,88,33411,6,0,L|51:207,1,107.999996704102,0|0,1:0|1:0,0:0:0:0:
123,239,34042,2,0,L|105:358,1,107.999996704102,0|0,1:0|1:0,0:0:0:0:
193,353,34674,5,8,0:0:0:0:
193,353,34832,1,8,0:0:0:0:
319,314,35305,5,10,0:0:0:0:
319,314,35463,1,8,0:0:0:0:
434,254,35937,6,0,P|380:204|305:205,1,107.999996704102,6|10,1:0|0:0,0:0:0:0:
306,208,36411,2,0,L|167:194,1,107.999996704102,2|2,0:0|0:0,0:0:0:0:
167,116,37042,2,0,P|76:118|25:214,1,161.999995056153,2|8,0:0|0:0,0:0:0:0:
81,238,37832,2,0,L|64:360,1,107.999996704102,2|10,0:0|0:0,0:0:0:0:
113,353,38305,5,0,1:0:0:0:
113,353,38463,2,0,L|235:362,1,107.999996704102,2|10,1:0|0:0,0:0:0:0:
245,324,38937,2,0,P|330:286|380:306,1,107.999996704102,2|2,0:0|0:0,0:0:0:0:
404,345,39569,2,0,B|373:290|373:290|395:160,1,161.999995056153,2|8,0:0|0:0,0:0:0:0:
403,107,40358,1,2,0:0:0:0:
347,41,40674,1,10,0:0:0:0:
266,71,40990,6,0,P|185:95|104:49,1,161.999995056153,6|2,1:0|0:0,0:0:0:0:
78,35,41621,2,0,L|93:154,1,107.999996704102,2|8,0:0|0:0,0:0:0:0:
125,169,42095,1,2,1:0:0:0:
125,169,42253,6,0,P|145:225|107:301,1,107.999996704102,2|10,1:0|0:0,0:0:0:0:
102,300,42726,2,0,B|202:281|145:353|295:332,1,161.999995056153,2|10,0:0|0:0,0:0:0:0:
330,294,43516,6,0,P|380:276|449:303,2,107.999996704102,2|8|0,1:0|0:0|0:0,0:0:0:0:
264,237,44463,2,0,L|254:170,1,53.9999983520508,10|2,0:0|0:0,0:0:0:0:
252,140,44779,6,0,P|189:144|139:194,1,107.999996704102,0|8,1:0|1:3,0:0:0:0:
111,93,45411,2,0,L|47:106,1,53.9999983520508,10|8,0:0|0:0,0:0:0:0:
15,113,45726,2,0,P|11:141|19:166,1,53.9999983520508,10|8,0:0|0:0,0:0:0:0:
52,192,46042,6,0,P|66:289|17:363,1,161.999995056153,6|2,1:0|1:0,0:0:0:0:
9,375,46674,2,0,L|156:348,1,107.999996704102,10|2,0:0|0:0,0:0:0:0:
157,364,47147,1,2,1:0:0:0:
213,298,47463,2,0,L|278:308,1,53.9999983520508,8|0,0:0|1:0,0:0:0:0:
333,361,47937,2,0,B|361:316|361:316|348:262,1,107.999996704102,10|2,0:0|0:0,0:0:0:0:
273,212,48569,6,0,L|302:42,1,161.999995056153,6|2,1:0|1:0,0:0:0:0:
310,10,49200,2,0,P|386:-7|450:19,1,107.999996704102,10|2,0:0|0:0,0:0:0:0:
446,28,49674,1,2,1:0:0:0:
398,100,49990,1,8,0:0:0:0:
453,172,50305,1,0,0:0:0:0:
453,172,50463,2,0,L|435:288,1,107.999996704102,8|6,0:0|1:3,0:0:0:0:
371,335,51095,5,6,1:0:0:0:
49,102,53621,6,0,L|170:88,1,120,14|8,0:0|0:0,0:0:0:0:
222,167,54253,2,0,P|225:199|215:248,2,60,8|10|10,0:0|1:3|1:3,0:0:0:0:
250,128,54726,2,0,B|329:107|329:107|406:144,1,120,14|0,0:0|1:0,0:0:0:0:
401,153,55200,2,0,P|414:82|364:12,2,120,12|8|8,0:0|0:0|0:0,0:0:0:0:
374,193,55990,5,4,1:0:0:0:
436,265,56305,1,4,1:0:0:0:
436,265,56463,1,4,1:0:0:0:
250,350,57095,5,10,1:3:0:0:
250,350,57411,6,0,P|196:363|121:328,1,120,6|10,1:0|0:0,0:0:0:0:
87,259,58042,2,0,L|100:182,1,60,2|0,1:0|1:0,0:0:0:0:
105,152,58358,1,10,0:0:0:0:
184,205,58674,1,2,1:0:0:0:
237,124,58990,1,10,0:0:0:0:
308,187,59305,2,0,L|372:170,1,60,2|0,1:0|1:0,0:0:0:0:
394,132,59621,1,10,0:0:0:0:
459,61,59937,6,0,P|487:112|475:170,1,120,6|10,1:0|0:0,0:0:0:0:
445,262,60569,2,0,L|364:258,1,60,2|0,1:0|1:0,0:0:0:0:
343,282,60884,1,10,0:0:0:0:
268,221,61200,2,0,P|194:240|133:211,1,120,0|8,1:0|0:0,0:0:0:0:
133,189,61674,1,2,0:0:0:0:
133,189,61832,2,0,L|151:100,2,60,2|2|10,1:0|1:0|0:0,0:0:0:0:
38,208,62463,6,0,L|16:82,1,120,6|8,1:0|0:0,0:0:0:0:
10,42,62937,2,0,P|80:24|140:59,1,120,2|0,0:0|1:0,0:0:0:0:
166,23,63411,1,10,0:0:0:0:
235,84,63726,2,0,L|368:62,1,120,6|10,1:0|0:0,0:0:0:0:
405,62,64200,1,0,0:0:0:0:
405,62,64358,2,0,P|420:39|423:-11,2,60,2|0|10,1:0|1:0|0:0,0:0:0:0:
424,156,64990,6,0,B|404:212|404:212|421:270,1,120,6|8,1:0|0:0,0:0:0:0:
463,356,65621,2,0,L|392:362,1,60,0|0,1:0|1:0,0:0:0:0:
355,368,65937,1,10,0:0:0:0:
258,366,66253,6,0,P|247:307|269:252,1,120,0|12,1:0|0:0,0:0:0:0:
266,156,66884,2,0,L|250:73,2,60,10|8|10,0:0|0:0|0:0,0:0:0:0:
314,172,67358,1,8,0:0:0:0:
314,172,67516,6,0,L|415:190,1,60,14|2,0:0|0:0,0:0:0:0:
420,193,67832,2,0,P|450:130|434:58,1,120,10|14,0:0|0:0,0:0:0:0:
394,0,68463,2,0,L|326:6,1,60,10|0,0:0|1:0,0:0:0:0:
304,44,68779,2,0,P|229:22|165:64,1,120,14|10,0:0|0:0,0:0:0:0:
171,74,69253,1,0,1:0:0:0:
171,74,69411,2,0,L|186:161,1,60,14|0,0:0|1:0,0:0:0:0:
189,181,69726,1,10,0:0:0:0:
112,239,70042,6,0,P|181:230|232:267,1,120,6|10,1:0|0:0,0:0:0:0:
294,190,70674,2,0,L|360:177,1,60,6|0,1:0|1:0,0:0:0:0:
400,167,70990,1,10,0:0:0:0:
467,234,71305,6,0,P|433:293|443:369,1,120,4|8,1:0|0:0,0:0:0:0:
476,376,71779,1,2,0:0:0:0:
476,376,71937,2,0,P|395:350|332:380,1,120,2|10,1:0|0:0,0:0:0:0:
320,354,72411,1,10,0:0:0:0:
320,354,72569,6,0,B|258:374|258:374|198:344,1,120,4|10,1:0|0:0,0:0:0:0:
181,309,73042,2,0,P|111:251|67:264,1,120,2|0,0:0|1:0,0:0:0:0:
43,268,73516,1,10,0:0:0:0:
12,176,73832,6,0,P|11:114|61:62,1,120,6|8,1:0|0:0,0:0:0:0:
87,45,74305,1,2,0:0:0:0:
87,45,74463,2,0,L|-12:15,2,90,2|2|2,1:0|0:0|0:0,0:0:0:0:
122,78,75095,6,0,P|191:36|240:36,1,120,6|8,1:0|0:0,0:0:0:0:
309,82,75726,2,0,L|433:60,1,120,2|10,1:0|0:0,0:0:0:0:
479,61,76200,1,2,0:0:0:0:
479,61,76358,6,0,L|465:132,1,60,4|8,1:0|0:0,0:0:0:0:
459,167,76674,1,8,0:0:0:0:
417,253,76990,2,0,P|454:264|487:259,2,60,8|4|6,1:3|1:3|1:3,0:0:0:0:
355,179,77621,5,14,0:0:0:0:
275,124,77937,2,0,L|206:118,1,60,10|2,0:0|1:0,0:0:0:0:
166,117,78253,1,8,0:0:0:0:
184,211,78569,2,0,L|167:291,1,60,8|2,0:0|1:0,0:0:0:0:
128,291,78884,5,10,0:0:0:0:
172,376,79200,2,0,L|237:369,1,60,10|2,0:0|1:0,0:0:0:0:
258,329,79516,2,0,L|323:336,1,60,8|2,0:0|1:0,0:0:0:0:
355,365,79832,2,0,L|420:358,1,60,8|2,0:0|1:0,0:0:0:0:
448,324,80147,5,10,0:0:0:0:
412,235,80463,1,14,0:0:0:0:
454,148,80779,2,0,L|518:157,2,60,10|10|6,0:0|1:3|1:3,0:0:0:0:
419,113,81253,5,6,1:0:0:0:
256,192,81332,12,0,82516,0:0:0:0:
