osu file format v14

[General]
AudioFilename: Mie Nai Tsubasa.mp3
AudioLeadIn: 0
PreviewTime: 47500
Countdown: 0
SampleSet: Soft
StackLeniency: 0.7
Mode: 0
LetterboxInBreaks: 0
WidescreenStoryboard: 0

[Editor]
DistanceSpacing: 1.2
BeatDivisor: 4
GridSize: 4
TimelineZoom: 1

[Metadata]
Title:Mienai Tsubasa (TV Size)
TitleUnicode:見えない翼 (TV Size)
Artist:Tanimoto Takayoshi
ArtistUnicode:谷本貴義
Creator:bossandy
Version:Insane
Source:金色のガッシュベル!!
Tags:Konjiki no Gash Bell!! Zatch Bell! 太田美知彦 Michihiko Ohta 雷句誠 Makoto Raiku boss CookieBite HabiHolic
BeatmapID:1484846
BeatmapSetID:701601

[Difficulty]
HPDrainRate:7
CircleSize:4
OverallDifficulty:8
ApproachRate:9
SliderMultiplier:1.8
SliderTickRate:1

[Events]
//Background and Video events
0,0,"BG.jpg",0,0
Video,500,"video.avi"
//Break Periods
//Storyboard Layer 0 (Background)
//Storyboard Layer 1 (Fail)
//Storyboard Layer 2 (Pass)
//Storyboard Layer 3 (Foreground)
//Storyboard Sound Samples

[TimingPoints]
912,352.941176470588,4,2,1,40,1,0
1795,352.941176470588,4,2,1,60,1,0
48030,-100,4,2,1,20,0,0
48206,-100,4,2,1,30,0,0
48383,-100,4,2,1,60,0,0
48736,-100,4,2,1,20,0,0
48912,-100,4,2,1,30,0,0
49089,-100,4,2,1,60,0,0
49442,-100,4,2,1,20,0,0
49618,-100,4,2,1,30,0,0
49794,-100,4,2,1,80,0,1
59677,-100,4,2,1,80,0,0
61089,-100,4,2,1,80,0,1
75206,-100,4,2,1,60,0,0

[Colours]
Combo1 : 113,184,255
Combo2 : 255,81,81
Combo3 : 255,255,128
Combo4 : 255,146,36

[HitObjects]
484,304,911,6,0,B|421:270|354:304|354:304|288:337|225:304,1,270,0|4,0:0|3:0,0:0:0:0:
60,188,1795,5,6,0:0:0:0:
152,40,1971,1,0,0:0:0:0:
272,168,2147,2,0,P|313:183|358:179,1,90,8|0,0:0|0:0,0:0:0:0:
428,96,2500,1,2,0:0:0:0:
336,36,2677,1,2,0:0:0:0:
184,136,2853,2,0,L|200:224,1,90,8|0,0:0|0:0,0:0:0:0:
67,302,3206,6,0,B|108:279|153:302|153:302|196:323|238:302,1,180,2|8,0:0|0:0,0:0:0:0:
328,236,3736,1,0,0:0:0:0:
308,128,3912,2,0,P|307:83|326:42,1,90,2|2,0:0|0:0,0:0:0:0:
428,72,4265,2,0,P|428:116|409:157,1,90,8|0,0:0|0:0,0:0:0:0:
239,300,4618,6,0,P|192:240|200:140,1,180,2|8,0:0|0:0,0:0:0:0:
252,44,5147,1,0,0:0:0:0:
308,128,5324,2,0,P|352:129|395:116,2,90,2|2|8,0:0|0:0|0:0,0:0:0:0:
130,56,5853,2,0,P|87:132|123:210,1,180,2|2,0:0|0:0,0:0:0:0:
200,140,6383,5,8,0:0:0:0:
254,61,6559,1,0,0:0:0:0:
420,156,6736,1,2,0:0:0:0:
289,191,6912,1,8,0:0:0:0:
254,61,7089,1,10,0:0:0:0:
385,26,7265,1,8,0:0:0:0:
289,191,7442,6,0,P|333:265|419:281,2,180,6|2|2,0:0|0:0|0:0,0:0:0:0:
396,176,8324,1,0,0:0:0:0:
396,176,8500,1,2,0:0:0:0:
468,360,8677,6,0,B|500:308|500:308|500:189,1,180,8|2,0:0|0:0,0:0:0:0:
483,83,9206,2,0,P|448:57|403:52,1,90,2|0,0:0|0:0,0:0:0:0:
307,104,9559,2,0,P|261:111|222:96,1,90,2|8,0:0|0:0,0:0:0:0:
221,95,9824,1,0,0:0:0:0:
221,95,9912,1,0,0:0:0:0:
132,32,10089,1,8,0:0:0:0:
68,120,10265,6,0,P|78:208|41:289,1,180,2|2,0:0|0:0,0:0:0:0:
41,289,10971,1,2,0:0:0:0:
256,252,11147,2,0,L|335:295,1,90
175,307,11500,6,0,P|155:224|216:162,1,180,8|0,0:0|0:0,0:0:0:0:
296,88,12030,2,0,P|296:48|272:4,1,90,2|0,0:0|0:0,0:0:0:0:
392,128,12383,2,0,P|392:168|416:212,1,90,2|0,0:0|0:0,0:0:0:0:
504,252,12647,1,8,0:0:0:0:
504,252,12736,2,0,P|504:292|480:336,1,90,2|8,0:0|0:0,0:0:0:0:
384,325,13000,1,8,0:0:0:0:
384,325,13089,6,0,P|297:313|219:356,1,180,6|8,0:0|0:0,0:0:0:0:
239,247,13618,2,0,P|230:204|204:167,1,90,2|0,0:0|0:0,0:0:0:0:
108,116,13971,1,2,0:0:0:0:
111,224,14147,2,0,P|96:265|64:296,1,90,8|0,0:0|0:0,0:0:0:0:
204,166,14500,6,0,P|248:170|288:190,1,90,2|2,0:0|0:0,0:0:0:0:
348,284,14853,1,8,0:0:0:0:
448,324,15030,2,0,B|480:220|400:260|436:152,1,180,2|0,0:0|0:0,0:0:0:0:
511,75,15559,2,0,P|428:48|396:52,1,90,8|2,0:0|0:0,0:0:0:0:
336,168,15912,5,2,0:0:0:0:
320,276,16089,1,0,0:0:0:0:
220,320,16265,1,8,0:0:0:0:
116,292,16442,2,0,B|96:236|128:200|128:200|91:126,1,180,2|2,0:0|0:0,0:0:0:0:
20,60,16971,2,0,P|64:32|120:36,1,90,8|2,0:0|0:0,0:0:0:0:
196,60,17324,1,2,0:0:0:0:
268,128,17500,6,0,P|310:141|354:135,1,90,2|8,0:0|0:0,0:0:0:0:
448,84,17853,1,2,0:0:0:0:
448,84,18206,1,2,0:0:0:0:
312,72,18383,1,8,0:0:0:0:
301,206,18559,1,0,0:0:0:0:
435,218,18736,6,4,P|400:299|323:341,1,180,2|8,0:0|0:0,0:0:0:0:
236,292,19265,1,2,0:0:0:0:
148,336,19442,2,0,P|137:294|147:250,2,90,0|0|8,0:0|0:0|0:0,0:0:0:0:
244,176,19971,1,0,0:0:0:0:
320,252,20147,6,0,P|358:276|403:275,1,90,2|2,0:0|0:0,0:0:0:0:
325,143,20500,2,0,P|281:152|244:175,1,90,8|2,0:0|0:0,0:0:0:0:
36,248,20853,1,0,0:0:0:0:
107,164,21030,1,2,0:0:0:0:
252,288,21206,1,8,0:0:0:0:
144,268,21383,1,0,0:0:0:0:
324,208,21559,6,0,P|365:281|329:365,1,180,2|8,0:0|0:0,0:0:0:0:
252,288,22089,1,2,0:0:0:0:
324,208,22265,2,0,P|406:215|455:292,1,180,0|8,0:0|0:0,0:0:0:0:
504,196,22794,1,0,0:0:0:0:
484,88,22971,6,0,L|460:0,1,90,2|2,0:0|0:0,0:0:0:0:
334,181,23324,2,0,L|356:268,1,90,8|2,0:0|0:0,0:0:0:0:
484,88,23677,1,0,0:0:0:0:
334,181,23853,1,2,0:0:0:0:
460,212,24030,1,8,0:0:0:0:
364,64,24206,1,2,0:0:0:0:
263,106,24383,6,0,P|220:119|176:110,1,90,6|0,0:1|0:0,0:0:0:0:
24,192,24736,2,0,P|67:205|111:196,1,90,8|0,0:0|0:0,0:0:0:0:
177,111,25089,1,2,0:0:0:0:
110,196,25265,1,2,0:0:0:0:
283,301,25442,1,8,0:0:0:0:
216,216,25618,1,0,0:0:0:0:
376,240,25794,6,0,P|405:211|417:159,1,90,2|0,0:0|0:0,0:0:0:0:
309,155,26147,1,8,0:0:0:0:
424,312,26324,2,0,P|485:247|506:161,1,180,0|2,0:0|0:0,0:0:0:0:
452,68,26853,1,8,0:0:0:0:
344,64,27030,1,0,0:0:0:0:
272,143,27206,6,0,P|186:152|132:85,2,180,2|8|2,0:0|0:0|0:0,0:0:0:0:
344,64,28089,1,2,0:0:0:0:
236,52,28265,1,8,0:0:0:0:
372,184,28442,6,0,L|301:349,1,180,2|2,0:0|0:0,0:0:0:0:
191,351,28971,2,0,P|151:332|129:294,1,90,8|2,0:0|0:0,0:0:0:0:
32,247,29324,2,0,P|51:208|89:185,1,90,0|2,0:0|0:0,0:0:0:0:
128,84,29677,2,0,P|168:103|190:141,1,90,8|0,0:0|0:0,0:0:0:0:
129,294,30030,5,6,0:0:0:0:
383,90,30383,1,4,0:0:0:0:
56,120,30736,5,2,0:0:0:0:
56,120,30912,1,2,0:0:0:0:
180,224,31089,1,8,0:0:0:0:
328,163,31265,2,0,P|400:172|351:226,1,180,2|0,0:0|0:0,0:0:0:0:
252,151,31794,6,0,P|269:111|312:84,1,90,8|2,0:0|0:0,0:0:0:0:
283,275,32147,2,0,P|319:302|364:308,1,90,2|2,0:0|0:0,0:0:0:0:
252,151,32500,1,8,0:0:0:0:
283,275,32677,1,2,0:0:0:0:
128,188,32853,6,0,L|164:12,2,180,4|4|2,0:0|0:0|0:0,0:0:0:0:
104,296,33736,1,2,0:0:0:0:
24,224,33912,1,8,0:0:0:0:
216,264,34089,1,2,0:0:0:0:
216,264,34442,6,0,P|263:271|304:296,1,90,2|8,0:0|0:0,0:0:0:0:
372,360,34794,1,2,0:0:0:0:
456,304,34971,2,0,P|475:264|472:208,1,90,8|8,0:0|0:0,0:0:0:0:
364,80,35324,1,2,3:2:0:0:
372,240,35500,1,2,3:2:0:0:
444,87,35677,6,0,P|406:10|320:7,1,180,6|8,3:2|0:0,0:0:0:0:
240,76,36206,1,0,0:0:0:0:
163,151,36383,2,0,P|135:117|127:74,2,90,2|0|8,0:0|0:0|0:0,0:0:0:0:
300,228,36912,6,0,B|196:196|236:276|128:240,1,180,2|2,0:0|0:0,0:0:0:0:
288,320,37442,2,0,P|332:317|366:289,1,90,8|0,0:0|0:0,0:0:0:0:
440,367,37794,2,0,P|469:334|473:290,1,90,2|0,0:0|0:0,0:0:0:0:
428,196,38147,1,8,0:0:0:0:
464,96,38324,1,0,0:0:0:0:
372,40,38500,6,0,L|285:65,1,90,2|0,0:0|0:0,0:0:0:0:
148,96,38853,2,0,L|234:121,1,90,8|0,0:0|0:0,0:0:0:0:
427,195,39206,2,0,P|340:201|276:263,1,180,2|8,0:0|0:0,0:0:0:0:
216,356,39736,6,0,B|120:344|120:344|67:278,1,180,2|2,0:0|0:0,0:0:0:0:
136,196,40265,1,8,0:0:0:0:
96,96,40442,1,2,0:0:0:0:
224,176,40618,1,2,0:0:0:0:
176,304,40794,1,2,0:0:0:0:
312,192,40971,1,8,0:0:0:0:
276,32,41147,1,2,0:0:0:0:
394,169,41324,6,0,P|472:134|471:48,2,180,6|8|2,0:0|0:0|0:0,0:0:0:0:
359,70,42206,2,0,L|271:91,1,90,2|8,0:0|0:0,0:0:0:0:
232,216,42559,6,0,L|63:153,1,180,2|2,0:0|0:0,0:0:0:0:
95,256,43089,2,0,P|73:294|75:338,1,90,8|2,0:0|0:0,0:0:0:0:
319,304,43442,2,0,P|249:352|169:318,1,180,2|8,0:0|0:0,0:0:0:0:
388,96,44147,5,6,0:0:0:0:
356,200,44324,1,0,0:0:0:0:
432,276,44500,1,8,0:0:0:0:
460,172,44677,1,0,0:0:0:0:
356,200,44853,2,0,B|248:236|288:156|184:188,1,180,2|8,0:0|0:0,0:0:0:0:
80,240,45383,1,0,0:0:0:0:
32,144,45559,6,0,L|63:59,2,90,6|0|8,0:0|0:0|0:0,0:0:0:0:
80,240,46089,1,0,0:0:0:0:
44,340,46265,1,2,0:0:0:0:
152,320,46442,5,0,0:0:0:0:
181,326,46530,1,8,0:0:0:0:
210,330,46618,1,8,0:0:0:0:
238,319,46706,1,2,0:0:0:0:
266,309,46794,1,2,0:0:0:0:
295,313,46883,1,2,0:0:0:0:
324,320,46971,1,10,0:0:0:0:
200,172,47677,6,0,B|169:87|14:120|89:259|172:228,1,270,6|0,0:0|0:0,0:0:0:0:
312,172,48383,2,0,B|342:87|497:120|422:259|339:228,1,270,6|0,0:0|0:0,0:0:0:0:
144,52,49089,2,0,B|224:48|256:112|256:112|288:48|366:51,1,270,6|0,0:0|0:0,0:0:0:0:
328,240,49794,6,0,B|304:288|256:296|208:288|184:240,1,180,6|8,0:0|0:0,0:0:0:0:
204,132,50324,2,0,P|160:133|119:151,1,90,0|2,0:0|0:0,0:0:0:0:
284,180,50677,1,2,0:0:0:0:
284,180,50853,2,0,P|328:179|369:161,1,90,8|0,0:0|0:0,0:0:0:0:
459,96,51206,6,0,P|412:169|429:255,1,180,2|8,0:0|0:0,0:0:0:0:
504,336,51736,1,0,0:0:0:0:
400,368,51912,2,0,P|356:348|328:312,1,90,2|2,0:0|0:0,0:0:0:0:
256,236,52265,2,0,P|212:256|184:292,1,90,8|0,0:0|0:0,0:0:0:0:
192,108,52618,6,0,P|272:156|352:132,1,180,2|8,0:0|0:0,0:0:0:0:
284,48,53147,1,0,0:0:0:0:
179,23,53324,2,0,P|131:43|111:73,1,90,2|2,0:0|0:0,0:0:0:0:
108,180,53677,1,8,0:0:0:0:
284,48,53853,1,0,0:0:0:0:
319,263,54030,6,0,P|401:295|476:252,1,180,2|8,0:0|0:0,0:0:0:0:
504,148,54559,1,0,0:0:0:0:
504,148,54647,1,0,0:0:0:0:
504,148,54736,1,2,0:0:0:0:
344,116,54912,1,2,0:0:0:0:
496,64,55089,1,8,0:0:0:0:
392,188,55265,1,0,0:0:0:0:
263,79,55442,6,0,P|219:71|175:78,1,90,6|0,3:2|3:0,0:0:0:0:
80,128,55794,1,8,3:2:0:0:
88,20,55971,1,0,3:0:0:0:
68,236,56147,2,0,P|112:228|156:235,1,90,0|0,3:0|3:0,0:0:0:0:
252,284,56500,1,8,3:2:0:0:
244,176,56677,1,0,3:0:0:0:
356,352,56853,6,0,P|442:344|488:270,1,180,0|8,3:2|3:2,0:0:0:0:
296,104,57383,1,0,3:2:0:0:
296,104,57471,1,0,3:0:0:0:
296,104,57559,2,0,B|276:56|291:15,1,90,0|0,3:2|3:2,0:0:0:0:
388,168,57912,2,0,B|408:216|392:256,1,90,8|0,3:2|3:2,0:0:0:0:
248,352,58265,6,0,L|426:332,2,180,0|8|0,3:2|3:2|3:2,0:0:0:0:
112,368,59147,1,0,3:0:0:0:
64,240,59324,1,8,3:2:0:0:
168,152,59500,1,0,3:2:0:0:
282,221,59677,5,0,3:2:0:0:
282,221,59853,1,0,3:0:0:0:
324,120,60030,2,0,L|359:37,1,90,8|0,0:0|0:0,0:0:0:0:
228,148,60383,2,0,L|281:220,1,90,2|0,3:2|0:0,0:0:0:0:
256,44,60736,1,8,0:0:0:0:
233,46,60824,1,8,0:0:0:0:
211,49,60912,1,8,0:0:0:0:
188,51,61000,1,8,0:0:0:0:
166,54,61089,6,0,B|80:129|170:134|90:208,1,180,6|8,0:0|0:0,0:0:0:0:
24,124,61618,1,0,0:0:0:0:
3,271,61794,2,0,P|33:304|77:314,1,90,2|2,0:0|0:0,0:0:0:0:
180,276,62147,2,0,P|224:264|268:268,1,90,8|0,0:0|0:0,0:0:0:0:
444,364,62500,6,0,P|500:300|488:196,1,180,2|8,0:0|0:0,0:0:0:0:
420,128,63030,1,0,0:0:0:0:
312,132,63206,2,0,P|292:72|296:32,1,90,2|0,0:0|0:0,0:0:0:0:
240,204,63559,2,0,P|186:170|163:137,1,90,8|0,0:0|0:0,0:0:0:0:
312,132,63912,6,0,P|332:252|272:304,1,180,2|8,0:0|0:0,0:0:0:0:
192,292,64442,1,0,0:0:0:0:
100,236,64618,2,0,P|56:249|8:292,2,90,2|2|8,0:0|0:0|0:0,0:0:0:0:
192,292,65147,1,0,0:0:0:0:
356,172,65324,5,2,0:0:0:0:
225,207,65500,1,2,0:0:0:0:
190,77,65677,1,8,0:0:0:0:
321,42,65853,1,2,0:0:0:0:
225,207,66030,1,2,0:0:0:0:
244,20,66206,1,2,0:0:0:0:
396,128,66383,1,8,0:0:0:0:
116,256,66736,5,8,0:0:0:0:
152,312,67265,1,8,0:0:0:0:
188,368,67794,1,8,0:0:0:0:
188,368,68324,6,0,B|294:390|247:314|358:341,1,180,8|8,0:0|0:0,0:0:0:0:
380,234,68853,1,8,0:0:0:0:
470,298,69030,1,8,0:0:0:0:
396,128,69206,1,8,0:0:0:0:
116,256,69559,5,8,0:0:0:0:
35,286,70089,1,8,0:0:0:0:
50,200,70618,1,8,0:0:0:0:
50,200,71147,6,0,L|84:24,1,180,8|8,0:0|0:0,0:0:0:0:
184,68,71677,1,8,0:0:0:0:
292,68,71853,1,8,0:0:0:0:
392,28,72030,1,8,0:0:0:0:
256,296,72383,5,8,0:0:0:0:
328,212,72912,1,8,0:0:0:0:
216,192,73442,1,8,0:0:0:0:
180,376,73618,5,0,3:0:0:0:
180,376,73706,1,0,3:0:0:0:
180,376,73794,1,4,0:0:0:0:
256,192,73883,12,4,75206,0:0:0:0:
316,188,75559,5,8,0:0:0:0:
240,264,75736,1,0,0:0:0:0:
340,300,75912,2,0,L|428:284,2,90,2|2|8,0:0|0:0|0:0,0:0:0:0:
204,163,76442,6,0,P|120:181|68:114,1,180,4|0,0:0|0:0,0:0:0:0:
288,80,76971,2,0,P|332:79|373:98,1,90,8|0,0:0|0:0,0:0:0:0:
392,208,77324,2,0,P|370:246|333:272,1,90,2|0,0:0|0:0,0:0:0:0:
230,245,77677,2,0,P|207:207|204:163,1,90,8|2,0:0|0:0,0:0:0:0:
300,180,78030,5,12,0:0:0:0:
333,272,78206,1,2,0:0:0:0:
260,340,78383,1,2,0:0:0:0:
392,208,78559,5,12,0:0:0:0:
230,245,78735,1,2,0:0:0:0:
344,368,78912,1,2,0:0:0:0:
373,98,79089,5,12,0:0:0:0:
