osu file format v14

[General]
AudioFilename: audio.mp3
AudioLeadIn: 0
PreviewTime: 30073
Countdown: 0
SampleSet: Soft
StackLeniency: 0.5
Mode: 0
LetterboxInBreaks: 0
WidescreenStoryboard: 0

[Editor]
Bookmarks: 14407,54995,71539,85657
DistanceSpacing: 1.5
BeatDivisor: 4
GridSize: 32
TimelineZoom: 1

[Metadata]
Title:E Zuo Ju
TitleUnicode:惡作劇
Artist:Tangerine
ArtistUnicode:王藍茵
Creator:gary00737
Version:Walao's Hard
Source:惡作劇之吻
Tags:It Started with a Kiss Wang Lan Yin Practical Joke walaowey
BeatmapID:1392097
BeatmapSetID:652255

[Difficulty]
HPDrainRate:5
CircleSize:3.5
OverallDifficulty:6
ApproachRate:7
SliderMultiplier:1.4
SliderTickRate:1

[Events]
//Background and Video events
0,0,"592131.jpg",0,0
//Break Periods
//Storyboard Layer 0 (Background)
//Storyboard Layer 1 (Fail)
//Storyboard Layer 2 (Pass)
//Storyboard Layer 3 (Foreground)
//Storyboard Sound Samples

[TimingPoints]
294,441.176470588235,4,2,1,30,1,0
294,-133.333333333333,4,2,1,30,0,0
14411,-133.333333333333,4,2,1,35,0,0
30293,-100,4,2,1,40,0,0
54999,-100,4,2,1,50,0,0
58970,-100,4,2,1,40,0,0
70882,-100,4,2,1,50,0,0
72646,-100,4,2,1,60,0,1
84999,-100,4,2,1,70,0,0
86764,-100,4,2,1,60,0,1
104411,-100,4,2,1,60,0,0

[Colours]
Combo1 : 255,213,191
Combo2 : 255,128,255
Combo3 : 74,255,255

[HitObjects]
135,93,294,6,0,L|252:71,1,105.000004005432,0|2,0:0|0:0,0:0:0:0:
323,206,1176,2,0,L|206:228,1,105.000004005432,8|2,0:0|0:0,0:0:0:0:
142,242,1838,1,0,0:0:0:0:
95,305,2058,6,0,P|148:320|193:301,1,105.000004005432,0|2,0:0|0:0,0:0:0:0:
271,292,2720,1,0,0:0:0:0:
280,294,2941,2,0,P|309:296|347:315,1,52.5000020027161,8|0,0:0|0:0,0:0:0:0:
399,341,3382,2,0,P|408:312|401:273,1,52.5000020027161,2|0,0:0|0:0,0:0:0:0:
356,229,3823,6,0,P|344:166|368:123,1,105.000004005432,0|2,0:0|0:0,0:0:0:0:
216,64,4705,2,0,P|228:127|204:170,1,105.000004005432,8|2,0:0|0:0,0:0:0:0:
136,185,5367,1,0,0:0:0:0:
150,110,5588,6,0,P|96:120|64:159,1,105.000004005432,0|2,0:0|0:0,0:0:0:0:
69,235,6249,1,0,0:0:0:0:
70,242,6470,2,0,L|71:303,1,52.5000020027161,8|0,0:0|0:0,0:0:0:0:
146,270,6911,2,0,L|147:330,1,52.5000020027161,2|0,0:0|0:0,0:0:0:0:
222,301,7352,6,0,P|276:313|337:286,1,105.000004005432,0|2,0:0|0:0,0:0:0:0:
366,146,8235,2,0,P|312:134|251:161,1,105.000004005432,8|2,0:0|0:0,0:0:0:0:
201,193,8896,1,0,0:0:0:0:
195,114,9117,6,0,L|241:3,1,105.000004005432,0|2,0:0|0:0,0:0:0:0:
308,45,9779,1,0,0:0:0:0:
315,51,9999,2,0,P|352:57|384:51,1,52.5000020027161,8|0,0:0|0:0,0:0:0:0:
445,53,10441,2,0,P|441:81|419:113,1,52.5000020027161,2|0,0:0|0:0,0:0:0:0:
374,158,10882,6,0,L|374:268,1,105.000004005432,0|2,0:0|0:0,0:0:0:0:
253,364,11764,1,8,0:0:0:0:
220,209,12205,2,0,P|198:171|179:157,1,52.5000020027161,2|0,0:0|0:0,0:0:0:0:
143,227,12646,5,2,0:0:0:0:
115,78,14411,6,0,B|49:174,1,105.000004005432,0|2,0:0|0:0,0:0:0:0:
77,320,15293,1,8,0:0:0:0:
198,219,15735,2,0,L|239:161,1,52.5000020027161,2|0,0:0|0:0,0:0:0:0:
273,111,16176,6,0,P|269:158|315:211,1,105.000004005432,0|2,0:0|0:0,0:0:0:0:
344,140,16838,1,0,0:0:0:0:
351,135,17058,2,0,P|379:127|422:135,1,52.5000020027161,8|0,0:0|0:0,0:0:0:0:
464,176,17499,2,0,P|479:144|476:105,1,52.5000020027161,2|0,0:0|0:0,0:0:0:0:
440,58,17941,6,0,P|387:41|336:0,1,105.000004005432,0|2,0:0|0:0,0:0:0:0:
191,36,18823,1,8,0:0:0:0:
275,169,19264,2,0,P|267:192|246:225,1,52.5000020027161,2|0,0:0|0:0,0:0:0:0:
185,257,19705,6,0,P|144:226|78:238,1,105.000004005432,0|2,0:0|0:0,0:0:0:0:
122,302,20367,1,0,0:0:0:0:
124,309,20588,2,0,L|166:344,1,52.5000020027161,8|0,0:0|0:0,0:0:0:0:
240,322,21029,2,0,L|289:362,1,52.5000020027161,2|0,0:0|0:0,0:0:0:0:
345,310,21470,6,0,P|385:262|385:204,1,105.000004005432,0|2,0:0|0:0,0:0:0:0:
331,74,22352,1,8,0:0:0:0:
486,98,22793,2,0,L|423:125,1,52.5000020027161,2|0,0:0|0:0,0:0:0:0:
364,149,23235,6,0,P|297:149|258:108,1,105.000004005432,0|2,0:0|0:0,0:0:0:0:
197,95,23896,1,0,0:0:0:0:
193,100,24117,2,0,P|172:109|141:107,1,52.5000020027161,8|0,0:0|0:0,0:0:0:0:
85,162,24558,2,0,P|103:175|117:203,1,52.5000020027161,2|0,0:0|0:0,0:0:0:0:
191,228,24999,6,0,P|195:206|210:178,1,52.5000020027161
269,126,25441,1,2,0:0:0:0:
418,176,25882,1,8,0:0:0:0:
262,225,26323,1,2,0:0:0:0:
326,271,26543,1,0,0:0:0:0:
333,276,26764,6,0,L|392:313,1,52.5000020027161,2|0,0:0|0:0,0:0:0:0:
336,371,27205,2,0,L|286:339,1,52.5000020027161,2|0,0:0|0:0,0:0:0:0:
212,343,27646,1,8,0:0:0:0:
187,267,27867,1,0,0:0:0:0:
252,222,28088,1,2,0:0:0:0:
317,265,28308,6,0,P|368:278|421:247,1,105.000004005432
482,218,28970,1,2,0:0:0:0:
471,139,29191,1,0,0:0:0:0:
393,127,29411,1,8,0:0:0:0:
358,198,29632,1,0,0:0:0:0:
280,188,29852,2,0,P|252:183|226:168,1,52.5000020027161,2|0,0:0|0:0,0:0:0:0:
211,49,30293,6,0,P|146:71|107:128,2,140,4|2|8,0:0|0:0|0:0,0:0:0:0:
147,210,31617,2,0,P|112:218|74:211,1,70,2|0,0:0|0:0,0:0:0:0:
24,148,32058,6,0,L|40:300,1,140,0|2,0:0|0:0,0:0:0:0:
95,349,32720,2,0,P|134:364|171:357,1,70,0|8,0:0|0:0,0:0:0:0:
229,311,33161,2,0,P|263:308|295:322,1,70,0|2,0:0|0:0,0:0:0:0:
372,357,33602,1,0,0:0:0:0:
366,273,33823,6,0,L|421:140,2,140,0|2|8,0:0|0:0|0:0,0:0:0:0:
223,184,35146,2,0,L|254:111,1,70,2|0,0:0|0:0,0:0:0:0:
285,42,35588,6,0,P|217:42|167:101,1,140,0|2,0:0|0:0,0:0:0:0:
115,154,36249,1,0,0:0:0:0:
107,159,36470,2,0,P|82:120|80:85,1,70,8|0,0:0|0:0,0:0:0:0:
10,47,36911,1,2,0:0:0:0:
2,132,37132,1,0,0:0:0:0:
37,207,37352,6,0,P|84:240|172:212,2,140,0|2|8,0:0|0:0|0:0,0:0:0:0:
202,143,38676,2,0,L|255:195,1,70,2|0,0:0|0:0,0:0:0:0:
335,199,39117,6,0,P|375:193|406:200,2,70,0|0|2,0:0|0:0|0:0,0:0:0:0:
278,261,39779,1,0,0:0:0:0:
286,267,39999,2,0,L|286:353,1,70,8|0,0:0|0:0,0:0:0:0:
201,337,40441,2,0,L|202:259,1,70,2|0,0:0|0:0,0:0:0:0:
133,217,40882,5,0,0:0:0:0:
119,299,41102,2,0,P|76:277|59:253,1,70,0|2,0:0|0:0,0:0:0:0:
50,178,41543,1,0,0:0:0:0:
59,176,41764,2,0,P|105:123|88:43,1,140,8|2,0:0|0:0,0:0:0:0:
182,56,42426,1,0,0:0:0:0:
187,141,42646,6,0,L|267:145,1,70
380,147,43088,1,2,0:0:0:0:
319,87,43308,1,0,0:0:0:0:
317,204,43529,1,8,0:0:0:0:
317,204,43970,2,0,P|291:222|226:226,1,70,2|0,0:0|0:0,0:0:0:0:
124,170,44411,6,0,P|108:233|136:317,2,140,4|2|8,0:0|0:0|0:0,0:0:0:0:
255,65,45735,2,0,L|348:54,1,70,2|0,0:0|0:0,0:0:0:0:
408,48,46176,6,0,P|353:79|341:164,1,140,0|2,0:0|0:0,0:0:0:0:
419,132,46838,2,0,P|418:171|401:204,1,70,0|8,0:0|0:0,0:0:0:0:
328,234,47279,2,0,P|291:232|251:242,1,70,0|2,0:0|0:0,0:0:0:0:
202,301,47720,1,0,0:0:0:0:
264,356,47941,6,0,P|337:336|427:366,2,140,0|2|8,0:0|0:0|0:0,0:0:0:0:
96,339,49264,2,0,P|88:303|94:262,1,70,2|0,0:0|0:0,0:0:0:0:
129,195,49705,6,0,P|162:173|181:138,1,70
177,63,50146,1,2,0:0:0:0:
186,64,50367,2,0,P|219:74|252:108,1,70,0|8,0:0|0:0,0:0:0:0:
256,180,50808,2,0,L|345:196,1,70,0|2,0:0|0:0,0:0:0:0:
380,128,51249,1,0,0:0:0:0:
322,66,51470,6,0,P|383:44|454:88,1,140,0|2,0:0|0:0,0:0:0:0:
459,159,52132,1,0,0:0:0:0:
465,166,52352,2,0,P|476:203|509:241,1,70,8|0,0:0|0:0,0:0:0:0:
435,287,52793,2,0,P|397:278|348:287,1,70,2|0,0:0|0:0,0:0:0:0:
288,314,53235,5,0,0:0:0:0:
212,277,53455,2,0,P|188:235|184:198,1,70,0|2,0:0|0:0,0:0:0:0:
224,140,53896,1,0,0:0:0:0:
216,136,54117,2,0,P|175:131|139:143,1,70,8|0,0:0|0:0,0:0:0:0:
99,207,54558,2,0,P|65:214|30:209,1,70,2|0,0:0|0:0,0:0:0:0:
1,130,54999,6,0,L|90:13,1,140,0|2,0:0|0:0,0:0:0:0:
253,25,55882,2,0,L|167:136,1,140,8|2,0:0|0:0,0:0:0:0:
192,216,56543,1,0,0:0:0:0:
254,159,56764,6,0,L|308:89,1,70
363,154,57205,2,0,L|320:209,1,70,2|0,0:0|0:0,0:0:0:0:
327,349,57646,1,8,0:0:0:0:
402,231,57867,1,0,0:0:0:0:
272,279,58088,1,10,0:3:0:0:
406,317,58308,1,0,0:0:0:0:
320,209,58529,1,4,0:0:0:0:
320,209,58970,5,2,0:0:0:0:
236,197,59191,2,0,P|203:222|186:258,1,70,0|8,0:0|0:0,0:0:0:0:
208,328,59632,1,0,0:0:0:0:
199,330,59852,2,0,P|163:325|130:304,1,70,2|0,0:0|0:0,0:0:0:0:
107,228,60293,6,0,P|97:298|34:337,1,140,0|2,0:0|0:0,0:0:0:0:
26,252,60955,2,0,P|23:213|43:171,1,70,0|8,0:0|0:0,0:0:0:0:
101,136,61396,1,0,0:0:0:0:
106,142,61617,2,0,P|155:133|183:115,1,70,2|0,0:0|0:0,0:0:0:0:
243,78,62058,5,0,0:0:0:0:
243,78,62499,1,2,0:0:0:0:
249,161,62720,2,0,L|254:235,1,70,0|8,0:0|0:0,0:0:0:0:
286,308,63161,1,0,0:0:0:0:
292,305,63382,2,0,P|321:279|337:244,1,70,2|0,0:0|0:0,0:0:0:0:
394,191,63823,5,0,0:0:0:0:
417,271,64043,2,0,P|433:301|459:324,1,70,8|2,0:0|0:0,0:0:0:0:
497,248,64485,1,0,0:0:0:0:
474,167,64705,2,0,P|446:126|416:110,1,70,8|0,0:0|0:0,0:0:0:0:
345,121,65146,1,2,0:0:0:0:
394,191,65367,1,0,0:0:0:0:
262,161,65588,1,0,0:0:0:0:
262,161,66029,6,0,P|226:169|188:207,1,70,2|0,0:0|0:0,0:0:0:0:
128,232,66470,2,0,P|152:259|204:273,1,70,8|0,0:0|0:0,0:0:0:0:
256,312,66911,2,0,P|267:276|253:224,1,70,2|0,0:0|0:0,0:0:0:0:
200,188,67352,5,0,0:0:0:0:
128,232,67573,2,0,P|94:248|37:238,1,70,0|2,0:0|0:0,0:0:0:0:
77,165,68014,1,0,0:0:0:0:
75,157,68235,2,0,P|79:89|153:21,1,140,8|2,0:0|0:0,0:0:0:0:
208,38,68896,1,0,0:0:0:0:
286,69,69117,6,0,L|286:173,2,105
368,86,69999,2,0,L|368:161,1,70,8|0,0:0|0:0,0:0:0:0:
389,237,70441,2,0,P|421:258|473:261,1,70,2|0,0:0|0:0,0:0:0:0:
448,179,70882,5,0,0:0:0:0:
368,156,71102,1,8,0:0:0:0:
308,257,71323,2,0,P|322:288|364:316,1,70,2|0,0:0|0:0,0:0:0:0:
480,336,71764,1,8,0:0:0:0:
389,237,71985,1,8,0:3:0:0:
405,368,72205,1,10,0:3:0:0:
473,248,72426,1,8,0:3:0:0:
349,310,72646,1,4,0:0:0:0:
349,310,73088,6,0,L|286:344,1,70,2|0,0:0|0:0,0:0:0:0:
203,352,73529,1,8,0:0:0:0:
203,344,73749,2,0,P|210:309|234:278,1,70,0|2,0:0|0:0,0:0:0:0:
270,207,74191,1,0,0:0:0:0:
186,208,74411,6,0,L|95:89,1,140,0|2,0:0|0:0,0:0:0:0:
168,46,75073,2,0,L|219:113,1,70,0|8,0:0|0:0,0:0:0:0:
294,96,75514,2,0,P|336:106|368:132,1,70,0|2,0:0|0:0,0:0:0:0:
379,202,75955,1,0,0:0:0:0:
297,182,76176,6,0,P|249:198|195:282,1,140,0|2,0:0|0:0,0:0:0:0:
207,351,76838,1,0,0:0:0:0:
130,317,77058,2,0,P|115:272|124:229,1,70,8|0,0:0|0:0,0:0:0:0:
106,164,77499,2,0,P|75:187|22:194,1,70,2|0,0:0|0:0,0:0:0:0:
40,109,77941,6,0,P|100:79|181:122,1,140,0|2,0:0|0:0,0:0:0:0:
188,182,78602,2,0,L|271:168,1,70,0|8,0:0|0:0,0:0:0:0:
340,152,79043,2,0,P|374:157|405:174,1,70,0|2,0:0|0:0,0:0:0:0:
428,255,79485,1,0,0:0:0:0:
487,195,79705,6,0,B|504:146|450:108|481:43,2,140,0|2|8,0:0|0:0|0:0,0:0:0:0:
405,174,80808,1,0,0:0:0:0:
397,180,81029,2,0,L|335:225,1,70,2|0,0:0|0:0,0:0:0:0:
262,190,81470,6,0,P|257:234|277:278,1,70
332,306,81911,2,0,P|308:328|263:341,1,70,2|0,0:0|0:0,0:0:0:0:
195,307,82352,2,0,P|139:315|78:392,1,140,8|2,0:0|0:0,0:0:0:0:
33,306,83014,1,0,0:0:0:0:
90,244,83235,6,0,P|115:174|67:106,2,140,0|2|8,0:0|0:0|0:0,0:0:0:0:
31,183,84338,1,0,0:0:0:0:
24,184,84558,2,0,L|-8:91,1,70,2|0,0:0|0:0,0:0:0:0:
8,34,84999,5,0,0:0:0:0:
86,119,85220,1,8,0:0:0:0:
94,35,85441,2,0,P|128:46|161:82,1,70,2|0,0:0|0:0,0:0:0:0:
166,221,85882,2,0,P|158:186|176:138,1,70,8|0,0:0|0:0,0:0:0:0:
295,64,86323,2,0,P|268:87|218:96,1,70,2|0,0:0|0:0,0:0:0:0:
86,119,86764,5,4,0:0:0:0:
86,119,87206,2,0,L|45:188,1,70,2|0,0:0|0:0,0:0:0:0:
63,263,87647,1,8,0:0:0:0:
72,260,87867,2,0,P|112:256|151:262,1,70,0|2,0:0|0:0,0:0:0:0:
218,293,88309,1,0,0:0:0:0:
287,245,88529,6,0,P|282:182|340:126,1,140,0|2,0:0|0:0,0:0:0:0:
362,207,89191,2,0,L|444:233,1,70,0|8,0:0|0:0,0:0:0:0:
425,312,89632,2,0,L|358:290,1,70,0|2,0:0|0:0,0:0:0:0:
287,245,90073,1,0,0:0:0:0:
217,292,90294,6,0,P|174:315|81:297,1,140,0|2,0:0|0:0,0:0:0:0:
58,222,90956,1,0,0:0:0:0:
65,219,91176,2,0,P|74:186|74:139,1,70,8|0,0:0|0:0,0:0:0:0:
34,76,91617,2,0,P|67:66|104:71,1,70,2|0,0:0|0:0,0:0:0:0:
156,134,92059,6,0,P|214:101|225:21,1,140,0|2,0:0|0:0,0:0:0:0:
311,30,92720,2,0,L|391:47,1,70,0|8,0:0|0:0,0:0:0:0:
427,113,93161,2,0,P|420:155|383:202,1,70,0|2,0:0|0:0,0:0:0:0:
324,198,93603,1,8,0:0:0:0:
380,260,93823,6,0,P|453:250|490:190,2,140,0|2|8,0:0|0:0|0:0,0:0:0:0:
296,270,94926,1,0,0:0:0:0:
297,277,95146,2,0,P|272:300|255:342,1,70,2|0,0:0|0:0,0:0:0:0:
182,372,95588,5,0,0:0:0:0:
185,288,95808,2,0,L|115:236,1,70,0|2,0:0|0:0,0:0:0:0:
43,224,96249,2,0,P|58:193|85:171,1,70,0|8,0:0|0:0,0:0:0:0:
160,132,96691,1,0,0:0:0:0:
204,204,96911,2,0,L|275:256,1,70,2|0,0:0|0:0,0:0:0:0:
326,193,97352,6,0,L|258:143,2,70,0|0|2,0:0|0:0|0:0,0:0:0:0:
399,236,98014,1,0,0:0:0:0:
402,228,98235,2,0,P|445:210|471:175,1,70,8|0,0:0|0:0,0:0:0:0:
451,109,98676,2,0,P|408:127|382:162,1,70,2|0,0:0|0:0,0:0:0:0:
326,193,99117,5,0,0:0:0:0:
328,277,99338,1,8,0:0:0:0:
253,238,99558,2,0,P|240:196|252:149,1,70,2|0,0:0|0:0,0:0:0:0:
371,120,99999,1,8,0:0:0:0:
326,193,100220,1,0,0:0:0:0:
243,83,100441,2,0,L|321:52,1,70,2|0,0:0|0:0,0:0:0:0:
242,170,100882,5,4,0:0:0:0:
166,133,101102,1,0,0:0:0:0:
157,49,101323,2,0,P|119:61|88:107,1,70,2|0,0:0|0:0,0:0:0:0:
30,131,101764,2,0,P|56:155|115:166,1,70,8|0,0:0|0:0,0:0:0:0:
164,201,102205,2,0,P|171:166|151:109,1,70,2|0,0:0|0:0,0:0:0:0:
295,213,102646,6,0,P|261:223|235:245,1,70,8|0,0:0|0:0,0:0:0:0:
239,96,103088,2,0,P|265:119|324:130,1,70,8|0,0:0|0:0,0:0:0:0:
434,101,103529,1,8,0:0:0:0:
306,47,103749,1,8,0:3:0:0:
378,167,103970,1,8,0:3:0:0:
388,25,104191,1,8,0:3:0:0:
297,131,104411,1,4,0:0:0:0:
