osu file format v14

[General]
AudioFilename: audio.mp3
AudioLeadIn: 0
PreviewTime: 30073
Countdown: 0
SampleSet: Soft
StackLeniency: 0.5
Mode: 0
LetterboxInBreaks: 0
WidescreenStoryboard: 0

[Editor]
Bookmarks: 58525
DistanceSpacing: 1
BeatDivisor: 2
GridSize: 8
TimelineZoom: 1

[Metadata]
Title:E Zuo Ju
TitleUnicode:惡作劇
Artist:Tangerine
ArtistUnicode:王藍茵
Creator:gary00737
Version:Normal
Source:惡作劇之吻
Tags:It Started with a Kiss Wang Lan Yin Practical Joke walaowey
BeatmapID:1383928
BeatmapSetID:652255

[Difficulty]
HPDrainRate:3
CircleSize:3
OverallDifficulty:3
ApproachRate:4
SliderMultiplier:1.02
SliderTickRate:1

[Events]
//Background and Video events
0,0,"592131.jpg",0,0
//Break Periods
//Storyboard Layer 0 (Background)
//Storyboard Layer 1 (Fail)
//Storyboard Layer 2 (Pass)
//Storyboard Layer 3 (Foreground)
//Storyboard Sound Samples

[TimingPoints]
294,441.176470588235,4,2,1,30,1,0
72646,-100,4,2,1,30,0,1
84999,-100,4,2,1,30,0,0
86764,-100,4,2,1,30,0,1
104411,-100,4,2,1,30,0,0

[Colours]
Combo1 : 255,213,191
Combo2 : 255,128,255
Combo3 : 74,255,255

[HitObjects]
468,319,294,6,0,P|484:271|484:207,2,102,0|2|8,1:0|1:2|0:0,0:0:0:0:
378,368,1617,1,2,0:0:0:0:
286,323,2058,2,0,P|238:307|174:307,1,102,0|2,1:2|1:2,0:0:0:0:
102,361,2941,2,0,P|131:287|126:203,1,153,8|0,0:0|0:0,0:0:0:0:
100,172,3823,6,0,P|101:121|117:72,1,102,0|2,1:2|1:2,0:0:0:0:
208,26,4705,1,8,0:0:0:0:
309,26,5146,1,2,0:0:0:0:
399,73,5588,2,0,P|415:121|416:172,1,102,0|2,1:2|1:2,0:0:0:0:
400,220,6249,1,0,0:0:0:0:
400,220,6470,2,0,B|377:192|331:185|331:185|299:210|289:245,1,153,8|0,0:0|0:0,0:0:0:0:
280,295,7352,6,0,P|231:278|180:277,1,102,0|2,1:2|1:2,0:0:0:0:
84,309,8235,1,8,0:0:0:0:
52,212,8676,1,2,0:0:0:0:
148,180,9117,2,0,P|197:163|248:162,1,102,0|2,1:2|1:2,0:0:0:0:
332,219,9999,2,0,P|349:143|292:73,1,153,8|0,0:0|0:0,0:0:0:0:
269,51,10882,6,0,P|218:52|169:68,1,102,0|2,1:2|1:2,0:0:0:0:
72,99,11764,1,8,0:0:0:0:
104,196,12205,1,2,0:0:0:0:
201,164,12646,1,0,1:2:0:0:
201,164,14411,5,0,1:2:0:0:
301,153,14852,2,0,P|305:121|299:86,2,51,2|0|8,0:0|0:0|0:0,0:0:0:0:
261,246,15735,1,2,1:2:0:0:
162,262,16176,2,0,P|224:338|321:326,1,204,0|8,1:2|0:0,0:0:0:0:
361,234,17499,1,2,0:0:0:0:
301,153,17941,6,0,P|252:137|201:136,1,102,0|2,1:2|0:0,0:0:0:0:
156,158,18602,1,0,0:0:0:0:
156,158,18823,2,0,P|105:157|56:141,1,102,8|2,0:0|1:2,0:0:0:0:
12,49,19705,2,0,B|29:280,1,204,0|8,1:2|0:0,0:0:0:0:
44,353,21029,1,0,0:0:0:0:
137,311,21470,5,0,1:2:0:0:
238,325,21911,2,0,P|225:354|202:382,2,51,2|0|8,0:0|0:0|0:0,0:0:0:0:
243,224,22793,1,2,1:2:0:0:
158,169,23235,2,0,P|241:122|331:174,1,204,0|8,1:2|0:0,0:0:0:0:
332,270,24558,1,2,0:0:0:0:
415,329,24999,6,0,P|431:280|432:229,1,102,0|2,1:2|0:0,0:0:0:0:
419,180,25660,1,0,0:0:0:0:
419,180,25882,1,8,0:0:0:0:
360,96,26323,1,2,1:2:0:0:
258,88,26764,6,0,L|139:79,1,102,0|2,1:2|0:0,0:0:0:0:
105,75,27426,1,0,0:0:0:0:
105,75,27646,2,0,P|89:124|88:175,1,102,8|0,0:0|0:0,0:0:0:0:
106,221,28308,1,2,0:0:0:0:
123,321,28749,6,0,L|63:316,2,51,2|0|2,0:0|0:0|0:0,0:0:0:0:
171,305,29411,2,0,L|290:314,1,102,4|2,3:0|0:0,0:0:0:0:
321,296,30073,1,2,0:0:0:0:
321,296,30293,6,0,P|337:247|338:196,1,102,4|2,1:2|0:0,0:0:0:0:
239,225,31176,2,0,P|188:223|139:207,1,102,8|2,0:0|0:0,0:0:0:0:
105,170,31838,1,0,0:0:0:0:
105,170,32058,2,0,L|98:62,1,102,0|2,1:2|1:2,0:0:0:0:
193,104,32941,2,0,P|270:105|340:70,1,153,8|0,0:0|0:0,0:0:0:0:
365,30,33823,6,0,L|473:23,1,102,0|2,1:2|0:0,0:0:0:0:
438,121,34705,2,0,P|439:171|455:220,1,102,8|2,0:0|0:0,0:0:0:0:
484,261,35367,1,0,0:0:0:0:
484,261,35588,2,0,L|376:268,1,102,0|2,1:2|1:2,0:0:0:0:
280,278,36470,2,0,B|243:281|207:274|207:274|156:293|132:326,1,153,8|2,0:0|0:0,0:0:0:0:
97,343,37352,6,0,B|114:118,1,204,4|8,1:2|0:0,0:0:0:0:
122,37,38676,2,0,P|144:48|165:62,1,51,2|0,0:0|0:0,0:0:0:0:
196,101,39117,2,0,P|245:118|296:118,1,102,0|2,1:2|1:2,0:0:0:0:
381,78,39999,2,0,P|384:153|333:207,1,153,8|0,0:0|0:0,0:0:0:0:
291,236,40882,6,0,L|499:251,1,204,0|8,1:2|0:0,0:0:0:0:
493,148,42205,2,0,P|484:117|466:85,1,51,2|0,0:0|0:0,0:0:0:0:
431,75,42646,2,0,L|434:21,2,51,0|0|2,1:2|0:0|1:2,0:0:0:0:
345,131,43529,2,0,P|297:109|262:65,1,102,8|2,0:0|0:0,0:0:0:0:
202,152,44411,6,0,P|186:201|185:252,1,102,4|2,1:2|0:0,0:0:0:0:
283,221,45294,2,0,P|334:223|383:239,1,102,8|2,0:0|0:0,0:0:0:0:
417,276,45956,1,0,0:0:0:0:
417,276,46176,2,0,L|410:384,1,102,0|2,1:2|1:2,0:0:0:0:
322,326,47058,2,0,B|287:303|266:301|266:301|170:308,1,153,8|2,0:0|0:0,0:0:0:0:
123,312,47941,6,0,P|124:261|140:212,1,102,0|2,1:2|0:0,0:0:0:0:
201,132,48823,2,0,P|245:107|295:97,1,102,8|0,0:0|0:0,0:0:0:0:
345,104,49485,1,2,0:0:0:0:
345,104,49706,2,0,L|453:111,1,102,0|2,1:2|1:2,0:0:0:0:
414,207,50588,2,0,B|411:244|418:280|418:280|399:331|366:355,1,153,8|2,0:0|0:0,0:0:0:0:
325,354,51470,6,0,B|225:363|225:309|125:352,1,204,4|8,1:2|0:0,0:0:0:0:
41,295,52793,2,0,P|50:264|68:232,1,51,2|2,0:0|0:0,0:0:0:0:
96,213,53235,2,0,P|144:197|195:196,1,102,0|2,1:2|1:2,0:0:0:0:
244,285,54117,2,0,B|257:113,1,153,8|2,0:0|0:0,0:0:0:0:
261,81,55000,6,0,P|353:69|446:142,1,204,0|8,1:2|0:0,0:0:0:0:
435,232,56323,1,2,0:0:0:0:
340,269,56764,2,0,P|289:268|240:252,1,102,0|2,1:2|1:2,0:0:0:0:
212,209,57426,1,2,0:0:0:0:
212,209,57646,2,0,L|204:107,1,102,8|2,0:0|1:2,0:0:0:0:
201,56,58308,1,2,0:0:0:0:
201,56,58529,6,0,B|301:65|301:11|401:54,1,204,4|8,1:2|0:0,0:0:0:0:
466,130,59852,1,2,0:0:0:0:
374,174,60293,2,0,P|358:222|357:273,1,102,0|2,1:2|1:2,0:0:0:0:
368,322,60955,2,0,B|319:301|319:301|274:313|199:304,1,153,0|2,0:0|0:0,0:0:0:0:
123,271,62058,6,0,P|111:179|184:86,1,204,0|8,1:2|0:0,0:0:0:0:
272,70,63382,1,2,0:0:0:0:
364,113,63823,2,0,P|395:117|430:111,2,51,0|8|2,1:2|0:0|1:2,0:0:0:0:
273,159,64705,2,0,L|276:212,1,51,8|0,0:0|0:0,0:0:0:0:
312,245,65146,2,0,L|315:298,1,51,2|2,0:0|0:0,0:0:0:0:
319,347,65588,6,0,B|219:338|219:392|119:349,1,204,4|8,1:2|0:0,0:0:0:0:
89,307,66691,2,0,L|81:210,1,51,0|2,0:0|0:0,0:0:0:0:
77,155,67352,2,0,B|126:134|126:134|171:146|246:137,1,153,0|0,1:2|0:0,0:0:0:0:
219,190,68235,2,0,P|217:240|231:289,1,102,8|2,0:0|0:0,0:0:0:0:
331,311,69117,6,0,B|374:211|320:211|329:111,1,204,0|8,1:2|0:0,0:0:0:0:
429,96,70441,2,0,L|432:149,1,51,2|2,0:0|1:2,0:0:0:0:
436,197,70882,2,0,P|467:201|502:195,2,51,0|8|2,0:0|0:0|1:2,0:0:0:0:
339,163,71764,2,0,L|286:166,1,51,8|2,0:0|0:0,0:0:0:0:
254,204,72205,2,0,L|201:207,1,51,0|0,1:2|1:0,0:0:0:0:
152,212,72646,6,0,P|136:261|135:312,1,102,4|2,1:2|0:0,0:0:0:0:
216,372,73529,2,0,L|359:361,1,102,8|0,0:0|0:0,0:0:0:0:
368,361,74191,1,0,0:0:0:0:
368,361,74411,1,0,1:2:0:0:
392,261,74852,1,2,1:2:0:0:
317,193,75293,2,0,P|301:144|300:93,1,102,8|2,0:0|0:0,0:0:0:0:
321,47,75955,1,2,0:0:0:0:
321,47,76176,6,0,L|82:63,1,204,0|8,1:2|0:0,0:0:0:0:
75,154,77499,2,0,L|128:151,1,51,2|0,0:0|0:0,0:0:0:0:
177,150,77941,1,0,1:2:0:0:
239,231,78382,1,2,1:2:0:0:
138,249,78823,2,0,P|122:298|121:349,1,102,8|2,0:0|0:0,0:0:0:0:
164,374,79485,1,2,0:0:0:0:
164,374,79705,6,0,L|283:365,1,102,4|2,1:2|0:0,0:0:0:0:
334,291,80588,2,0,L|453:282,1,102,8|2,0:0|0:0,0:0:0:0:
486,278,81249,1,0,0:0:0:0:
486,278,81470,1,0,1:2:0:0:
507,178,81911,1,2,1:2:0:0:
416,130,82352,2,0,P|367:114|316:113,1,102,8|2,0:0|0:0,0:0:0:0:
269,133,83014,1,2,0:0:0:0:
269,133,83235,6,0,L|260:14,1,102,0|2,1:2|0:0,0:0:0:0:
167,71,84117,2,0,L|176:190,1,102,8|2,0:0|0:0,0:0:0:0:
184,274,84999,2,0,L|125:279,2,51,0|8|2,1:2|0:0|1:2,0:0:0:0:
274,227,85882,2,0,L|333:232,1,51,8|2,0:0|0:0,0:0:0:0:
359,269,86323,2,0,L|418:274,1,51,2|0,0:0|1:2,0:0:0:0:
460,281,86764,6,0,P|476:232|477:181,2,102,4|2|8,1:2|0:0|0:0,0:0:0:0:
383,348,88088,2,0,P|352:344|317:350,1,51,0|0,0:0|0:0,0:0:0:0:
285,365,88529,2,0,L|166:356,1,102,0|2,1:2|1:2,0:0:0:0:
81,352,89411,1,8,0:0:0:0:
135,265,89852,2,0,P|139:234|133:199,1,51,2|0,0:0|0:0,0:0:0:0:
115,169,90293,6,0,L|216:177,1,102,0|2,1:2|0:0,0:0:0:0:
318,187,91176,1,8,0:0:0:0:
395,121,91617,2,0,P|399:90|393:55,1,51,2|0,0:0|0:0,0:0:0:0:
356,39,92058,2,0,P|307:23|256:22,1,102,0|2,1:2|1:2,0:0:0:0:
168,73,92941,2,0,P|152:122|151:173,1,102,8|2,0:0|0:0,0:0:0:0:
174,217,93602,1,2,0:0:0:0:
174,217,93823,6,0,L|275:225,1,102,4|2,1:2|1:2,0:0:0:0:
300,323,94705,2,0,L|199:315,1,102,8|2,0:0|0:0,0:0:0:0:
96,308,95588,2,0,P|80:259|79:208,1,102,0|2,1:2|1:2,0:0:0:0:
107,111,96470,2,0,P|141:72|185:46,1,102,8|2,0:0|0:0,0:0:0:0:
285,40,97352,6,0,L|386:48,1,102,0|2,1:2|0:0,0:0:0:0:
437,56,98014,1,0,0:0:0:0:
437,56,98235,2,0,P|452:104|454:155,1,102,8|2,0:0|0:0,0:0:0:0:
409,247,99117,2,0,L|404:306,1,51,0|8,1:2|0:0,0:0:0:0:
398,348,99558,1,2,1:2:0:0:
296,344,99999,2,0,L|195:336,1,102,8|2,0:0|0:0,0:0:0:0:
143,331,100661,1,0,0:0:0:0:
143,331,100882,6,0,P|141:280|126:231,1,102,4|2,1:2|0:0,0:0:0:0:
59,154,101764,2,0,L|183:143,1,102,8|2,0:0|0:0,0:0:0:0:
255,108,102646,2,0,L|314:103,1,51,0|0,1:2|0:0,0:0:0:0:
350,78,103088,2,0,L|409:73,1,51,2|0,1:2|0:0,0:0:0:0:
449,57,103529,6,0,B|485:72|497:98|497:98|480:267,1,204,8|4,0:0|1:1,0:0:0:0:
