osu file format v14

[General]
AudioFilename: audio.mp3
AudioLeadIn: 0
PreviewTime: 15592
Countdown: 0
SampleSet: Normal
StackLeniency: 0.7
Mode: 1
LetterboxInBreaks: 0
WidescreenStoryboard: 1

[Editor]
Bookmarks: 15640,24783,79640,88783
DistanceSpacing: 1
BeatDivisor: 8
GridSize: 32
TimelineZoom: 3.5

[Metadata]
Title:BIKE
TitleUnicode:BIKE
Artist:Tanger
ArtistUnicode:Tanger
Creator:Invisible O
Version:ONI
Source:
Tags:Geometry Dash iSpyWithMyLittleEye i Spy With My Little Eye Phonk aggressive instrumental electronic bonus ep
BeatmapID:4213321
BeatmapSetID:2022527

[Difficulty]
HPDrainRate:5
CircleSize:5
OverallDifficulty:6
ApproachRate:5
SliderMultiplier:1.4
SliderTickRate:1

[Events]
//Background and Video events
0,0,"6v98TpTscaw-HD.jpg",0,0
//Break Periods
//Storyboard Layer 0 (Background)
//Storyboard Layer 1 (Fail)
//Storyboard Layer 2 (Pass)
//Storyboard Layer 3 (Foreground)
//Storyboard Layer 4 (Overlay)
//Storyboard Sound Samples

[TimingPoints]
791,285.714285714286,4,1,0,80,1,0
6505,285.714285714286,4,1,0,80,1,0
6505,-100,4,1,0,80,0,0
6642,-100,4,1,0,80,0,0
6785,-100,4,1,0,80,0,0
6928,-100,4,1,0,80,0,0
7071,-100,4,1,0,80,0,0
7214,-100,4,1,0,80,0,0
7357,-100,4,1,0,80,0,0
7499,-100,4,1,0,80,0,0
7642,-100,4,1,0,80,0,0
7785,-100,4,1,0,80,0,0
7928,-100,4,1,0,80,0,0
8071,-100,4,1,0,80,0,0
8214,-100,4,1,0,80,0,0
8357,-100,4,1,0,80,0,0
8499,-100,4,1,0,80,0,0
8642,-100,4,1,0,80,0,0
8785,-100,4,1,0,80,0,0
8928,-100,4,1,0,80,0,0
9000,-100,4,1,0,80,0,0
9071,-100,4,1,0,80,0,0
9214,-100,4,1,0,80,0,0
9357,-100,4,1,0,80,0,0
9500,-100,4,1,0,80,0,0
9642,-100,4,1,0,80,0,0
9785,-100,4,1,0,80,0,0
9928,-100,4,1,0,80,0,0
10071,-100,4,1,0,80,0,0
10214,-100,4,1,0,80,0,0
10357,-100,4,1,0,80,0,0
10500,-100,4,1,0,80,0,0
10642,-100,4,1,0,80,0,0
10785,-100,4,1,0,80,0,0
10928,-100,4,1,0,80,0,0
11071,-100,4,1,0,80,0,0
11214,-100,4,1,0,80,0,0
11357,-100,4,1,0,80,0,0
11500,-100,4,1,0,80,0,0
11642,-100,4,1,0,80,0,0
11785,-100,4,1,0,80,0,0
11928,-100,4,1,0,80,0,0
12071,-100,4,1,0,80,0,0
12214,-100,4,1,0,80,0,0
12357,-100,4,1,0,80,0,0
12500,-100,4,1,0,80,0,0
12642,-100,4,1,0,80,0,0
12785,-100,4,1,0,80,0,0
12928,-100,4,1,0,80,0,0
13071,-100,4,1,0,80,0,0
13214,-100,4,1,0,80,0,0
13357,-100,4,1,0,80,0,0
13500,-100,4,1,0,80,0,0
13571,-100,4,1,0,80,0,0
13642,-100,4,1,0,80,0,0
13785,-100,4,1,0,80,0,0
13928,-100,4,1,0,80,0,0
14071,-100,4,1,0,80,0,0
14214,-100,4,1,0,80,0,0
14357,-100,4,1,0,80,0,0
14500,-100,4,1,0,80,0,0
14642,-100,4,1,0,80,0,0
14785,-100,4,1,0,80,0,0
14928,-100,4,1,0,80,0,0
15071,-100,4,1,0,80,0,0
15119,-100,4,1,0,80,0,0
15166,-100,4,1,0,80,0,0
15214,-100,4,1,0,80,0,0
15352,-100,4,1,0,80,0,0
15400,-100,4,1,0,80,0,0
15447,-100,4,1,0,80,0,0
15495,-100,4,1,0,80,0,0
15612,-100,4,1,0,100,0,0
15647,-100,4,1,0,100,0,1
24219,-100,4,1,0,100,0,0
24790,-100,4,1,0,100,0,1
31647,-100,4,1,0,100,0,0
31785,-100,4,1,0,100,0,0
32071,-100,4,1,0,100,0,0
32214,-100,4,1,0,100,0,0
32500,-100,4,1,0,100,0,0
32642,-100,4,1,0,100,0,0
32785,-100,4,1,0,100,0,0
32928,-100,4,1,0,100,0,0
33071,-100,4,1,0,100,0,0
33214,-100,4,1,0,100,0,0
33357,-100,4,1,0,100,0,0
33642,-100,4,1,0,100,0,0
33785,-100,4,1,0,100,0,0
33897,-100,4,1,0,80,0,0
33929,-100,4,1,0,80,0,0
40755,-100,4,1,0,100,0,0
40785,-100,4,1,0,100,0,0
40857,-100,4,1,0,100,0,0
40928,-100,4,1,0,100,0,0
41000,-100,4,1,0,100,0,0
41071,-100,4,1,0,100,0,0
41142,-100,4,1,0,100,0,0
41214,-100,4,1,0,100,0,0
41285,-100,4,1,0,100,0,0
41357,-100,4,1,0,100,0,0
41428,-100,4,1,0,100,0,0
41500,-100,4,1,0,100,0,0
41571,-100,4,1,0,100,0,0
41642,-100,4,1,0,100,0,0
41714,-100,4,1,0,100,0,0
41785,-100,4,1,0,100,0,0
41857,-100,4,1,0,100,0,0
41928,-100,4,1,0,100,0,0
42000,-100,4,1,0,100,0,0
42071,-100,4,1,0,100,0,0
42142,-100,4,1,0,100,0,0
42214,-100,4,1,0,100,0,0
42285,-100,4,1,0,100,0,0
42357,-100,4,1,0,100,0,0
42500,-100,4,1,0,100,0,0
42642,-100,4,1,0,100,0,0
42714,-100,4,1,0,100,0,0
42785,-100,4,1,0,100,0,0
42928,-100,4,1,0,100,0,0
43076,-100,4,1,0,100,0,1
49933,-100,4,1,0,100,0,0
50071,-100,4,1,0,100,0,0
50214,-100,4,1,0,100,0,0
50357,-100,4,1,0,100,0,0
50500,-100,4,1,0,100,0,0
50642,-100,4,1,0,100,0,0
50785,-100,4,1,0,100,0,0
50928,-100,4,1,0,100,0,0
51071,-100,4,1,0,100,0,0
51214,-100,4,1,0,100,0,0
51357,-100,4,1,0,100,0,0
51500,-100,4,1,0,100,0,0
51642,-100,4,1,0,100,0,0
51928,-100,4,1,0,100,0,0
52071,-100,4,1,0,100,0,0
52215,-100,4,1,0,100,0,0
52255,-100,4,1,0,80,0,0
56755,-100,4,1,0,80,0,0
56785,-100,4,1,0,80,0,0
56928,-100,4,1,0,80,0,0
57071,-100,4,1,0,80,0,0
57214,-100,4,1,0,80,0,0
57357,-100,4,1,0,80,0,0
57500,-100,4,1,0,80,0,0
57642,-100,4,1,0,80,0,0
57785,-100,4,1,0,80,0,0
57928,-100,4,1,0,80,0,0
58071,-100,4,1,0,80,0,0
58214,-100,4,1,0,80,0,0
58357,-100,4,1,0,80,0,0
58500,-100,4,1,0,80,0,0
58642,-100,4,1,0,80,0,0
58785,-100,4,1,0,80,0,0
58928,-100,4,1,0,80,0,0
59071,-100,4,1,0,80,0,0
59214,-100,4,1,0,80,0,0
59285,-100,4,1,0,80,0,0
59357,-100,4,1,0,80,0,0
59500,-100,4,1,0,80,0,0
59642,-100,4,1,0,80,0,0
59785,-100,4,1,0,80,0,0
59928,-100,4,1,0,80,0,0
60071,-100,4,1,0,80,0,0
60214,-100,4,1,0,80,0,0
60357,-100,4,1,0,80,0,0
60500,-100,4,1,0,80,0,0
60642,-100,4,1,0,80,0,0
60785,-100,4,1,0,80,0,0
60929,-100,4,1,0,80,0,0
61326,-100,4,1,0,100,0,0
61358,-100,4,1,0,100,0,0
61428,-100,4,1,0,100,0,0
61500,-100,4,1,0,100,0,0
61571,-100,4,1,0,100,0,0
61642,-100,4,1,0,100,0,0
61714,-100,4,1,0,100,0,0
61785,-100,4,1,0,100,0,0
61857,-100,4,1,0,100,0,0
61928,-100,4,1,0,100,0,0
62071,-100,4,1,0,100,0,0
62142,-100,4,1,0,100,0,0
62214,-100,4,1,0,100,0,0
62357,-100,4,1,0,100,0,0
62428,-100,4,1,0,100,0,0
62499,-100,4,1,0,100,0,0
62500,-100,4,1,0,100,0,0
62571,-100,4,1,0,100,0,0
62642,-100,4,1,0,100,0,0
62714,-100,4,1,0,100,0,0
62785,-100,4,1,0,100,0,0
62857,-100,4,1,0,100,0,0
62928,-100,4,1,0,100,0,0
63000,-100,4,1,0,100,0,0
63071,-100,4,1,0,100,0,0
63142,-100,4,1,0,100,0,0
63214,-100,4,1,0,100,0,0
63285,-100,4,1,0,100,0,0
63357,-100,4,1,0,100,0,0
63428,-100,4,1,0,100,0,0
63500,-100,4,1,0,100,0,0
63642,-100,4,1,0,100,0,0
63714,-100,4,1,0,100,0,0
63785,-100,4,1,0,100,0,0
63857,-100,4,1,0,100,0,0
63928,-100,4,1,0,100,0,0
64000,-100,4,1,0,100,0,0
64071,-100,4,1,0,100,0,0
64142,-100,4,1,0,100,0,0
64214,-100,4,1,0,100,0,0
64357,-100,4,1,0,100,0,0
64428,-100,4,1,0,100,0,0
64500,-100,4,1,0,100,0,0
64642,-100,4,1,0,100,0,0
64714,-100,4,1,0,100,0,0
64785,-100,4,1,0,100,0,0
64857,-100,4,1,0,100,0,0
64928,-100,4,1,0,100,0,0
65000,-100,4,1,0,100,0,0
65071,-100,4,1,0,100,0,0
65142,-100,4,1,0,100,0,0
65214,-100,4,1,0,100,0,0
65285,-100,4,1,0,100,0,0
65357,-100,4,1,0,100,0,0
65428,-100,4,1,0,100,0,0
65500,-100,4,1,0,100,0,0
65571,-100,4,1,0,100,0,0
65642,-100,4,1,0,100,0,0
65714,-100,4,1,0,100,0,0
65785,-100,4,1,0,100,0,0
65928,-100,4,1,0,100,0,0
66000,-100,4,1,0,100,0,0
66071,-100,4,1,0,100,0,0
66142,-100,4,1,0,100,0,0
66214,-100,4,1,0,100,0,0
66285,-100,4,1,0,100,0,0
66357,-100,4,1,0,100,0,0
66428,-100,4,1,0,100,0,0
66500,-100,4,1,0,100,0,0
66642,-100,4,1,0,100,0,0
66714,-100,4,1,0,100,0,0
66785,-100,4,1,0,100,0,0
66928,-100,4,1,0,100,0,0
67000,-100,4,1,0,100,0,0
67071,-100,4,1,0,100,0,0
67142,-100,4,1,0,100,0,0
67214,-100,4,1,0,100,0,0
67285,-100,4,1,0,100,0,0
67357,-100,4,1,0,100,0,0
67428,-100,4,1,0,100,0,0
67500,-100,4,1,0,100,0,0
67571,-100,4,1,0,100,0,0
67642,-100,4,1,0,100,0,0
67714,-100,4,1,0,100,0,0
67785,-100,4,1,0,100,0,0
67857,-100,4,1,0,100,0,0
67928,-100,4,1,0,100,0,0
68000,-100,4,1,0,100,0,0
68071,-100,4,1,0,100,0,0
68214,-100,4,1,0,100,0,0
68357,-100,4,1,0,100,0,0
68642,-100,4,1,0,100,0,0
68785,-100,4,1,0,100,0,0
69071,-100,4,1,0,100,0,0
69214,-100,4,1,0,100,0,0
69357,-100,4,1,0,100,0,0
69500,-100,4,1,0,100,0,0
69928,-100,4,1,0,100,0,0
70071,-100,4,1,0,100,0,0
70214,-100,4,1,0,100,0,0
70357,-100,4,1,0,100,0,0
70500,-100,4,1,0,100,0,0
70570,-100,4,1,0,100,0,0
70642,-100,4,1,0,100,0,0
70713,-100,4,1,0,100,0,0
70784,-100,4,1,0,100,0,0
70856,-100,4,1,0,100,0,0
70927,-100,4,1,0,100,0,0
70999,-100,4,1,0,100,0,0
71070,-100,4,1,0,100,0,0
71213,-100,4,1,0,100,0,0
71284,-100,4,1,0,100,0,0
71356,-100,4,1,0,100,0,0
71499,-100,4,1,0,100,0,0
71570,-100,4,1,0,100,0,0
71641,-100,4,1,0,100,0,0
71642,-100,4,1,0,100,0,0
71713,-100,4,1,0,100,0,0
71784,-100,4,1,0,100,0,0
71856,-100,4,1,0,100,0,0
71927,-100,4,1,0,100,0,0
71999,-100,4,1,0,100,0,0
72070,-100,4,1,0,100,0,0
72142,-100,4,1,0,100,0,0
72213,-100,4,1,0,100,0,0
72284,-100,4,1,0,100,0,0
72356,-100,4,1,0,100,0,0
72427,-100,4,1,0,100,0,0
72499,-100,4,1,0,100,0,0
72570,-100,4,1,0,100,0,0
72642,-100,4,1,0,100,0,0
72784,-100,4,1,0,100,0,0
72856,-100,4,1,0,100,0,0
72927,-100,4,1,0,100,0,0
72999,-100,4,1,0,100,0,0
73070,-100,4,1,0,100,0,0
73142,-100,4,1,0,100,0,0
73213,-100,4,1,0,100,0,0
73284,-100,4,1,0,100,0,0
73356,-100,4,1,0,100,0,0
73499,-100,4,1,0,100,0,0
73570,-100,4,1,0,100,0,0
73642,-100,4,1,0,100,0,0
73784,-100,4,1,0,100,0,0
73856,-100,4,1,0,100,0,0
73927,-100,4,1,0,100,0,0
73999,-100,4,1,0,100,0,0
74070,-100,4,1,0,100,0,0
74142,-100,4,1,0,100,0,0
74213,-100,4,1,0,100,0,0
74284,-100,4,1,0,100,0,0
74356,-100,4,1,0,100,0,0
74427,-100,4,1,0,100,0,0
74499,-100,4,1,0,100,0,0
74570,-100,4,1,0,100,0,0
74642,-100,4,1,0,100,0,0
74713,-100,4,1,0,100,0,0
74784,-100,4,1,0,100,0,0
74856,-100,4,1,0,100,0,0
74927,-100,4,1,0,100,0,0
75070,-100,4,1,0,100,0,0
75142,-100,4,1,0,100,0,0
75213,-100,4,1,0,100,0,0
75284,-100,4,1,0,100,0,0
75356,-100,4,1,0,100,0,0
75427,-100,4,1,0,100,0,0
75499,-100,4,1,0,100,0,0
75570,-100,4,1,0,100,0,0
75642,-100,4,1,0,100,0,0
75784,-100,4,1,0,100,0,0
75856,-100,4,1,0,100,0,0
75927,-100,4,1,0,100,0,0
76070,-100,4,1,0,100,0,0
76142,-100,4,1,0,100,0,0
76213,-100,4,1,0,100,0,0
76284,-100,4,1,0,100,0,0
76356,-100,4,1,0,100,0,0
76427,-100,4,1,0,100,0,0
76499,-100,4,1,0,100,0,0
76570,-100,4,1,0,100,0,0
76642,-100,4,1,0,100,0,0
76713,-100,4,1,0,100,0,0
76784,-100,4,1,0,100,0,0
76856,-100,4,1,0,100,0,0
76927,-100,4,1,0,100,0,0
76999,-100,4,1,0,100,0,0
77070,-100,4,1,0,100,0,0
77142,-100,4,1,0,100,0,0
77213,-100,4,1,0,100,0,0
77356,-100,4,1,0,100,0,0
77499,-100,4,1,0,100,0,0
77784,-100,4,1,0,100,0,0
77927,-100,4,1,0,100,0,0
78213,-100,4,1,0,100,0,0
78356,-100,4,1,0,100,0,0
78499,-100,4,1,0,100,0,0
78500,-100,4,1,0,100,0,0
78642,-100,4,1,0,100,0,0
78785,-100,4,1,0,100,0,0
78928,-100,4,1,0,100,0,0
79071,-100,4,1,0,100,0,0
79214,-100,4,1,0,100,0,0
79357,-100,4,1,0,100,0,0
79500,-100,4,1,0,100,0,0
79647,-100,4,1,0,100,0,1
88790,-100,4,1,0,100,0,0
88857,-100,4,1,0,100,0,0
88928,-100,4,1,0,100,0,0
89000,-100,4,1,0,100,0,0
89071,-100,4,1,0,100,0,0
89142,-100,4,1,0,100,0,0
89214,-100,4,1,0,100,0,0
89285,-100,4,1,0,100,0,0
89357,-100,4,1,0,100,0,0
89500,-100,4,1,0,100,0,0
89571,-100,4,1,0,100,0,0
89642,-100,4,1,0,100,0,0
89785,-100,4,1,0,100,0,0
89857,-100,4,1,0,100,0,0
89928,-100,4,1,0,100,0,0
90000,-100,4,1,0,100,0,0
90071,-100,4,1,0,100,0,0
90142,-100,4,1,0,100,0,0
90214,-100,4,1,0,100,0,0
90285,-100,4,1,0,100,0,0
90357,-100,4,1,0,100,0,0
90428,-100,4,1,0,100,0,0
90500,-100,4,1,0,100,0,0
90571,-100,4,1,0,100,0,0
90642,-100,4,1,0,100,0,0
90714,-100,4,1,0,100,0,0
90785,-100,4,1,0,100,0,0
90857,-100,4,1,0,100,0,0
90928,-100,4,1,0,100,0,0
91071,-100,4,1,0,100,0,0
91142,-100,4,1,0,100,0,0
91214,-100,4,1,0,100,0,0
91285,-100,4,1,0,100,0,0
91357,-100,4,1,0,100,0,0
91428,-100,4,1,0,100,0,0
91500,-100,4,1,0,100,0,0
91571,-100,4,1,0,100,0,0
91642,-100,4,1,0,100,0,0
91785,-100,4,1,0,100,0,0
91857,-100,4,1,0,100,0,0
91928,-100,4,1,0,100,0,0
92071,-100,4,1,0,100,0,0
92142,-100,4,1,0,100,0,0
92214,-100,4,1,0,100,0,0
92285,-100,4,1,0,100,0,0
92357,-100,4,1,0,100,0,0
92428,-100,4,1,0,100,0,0
92500,-100,4,1,0,100,0,0
92571,-100,4,1,0,100,0,0
92642,-100,4,1,0,100,0,0
92714,-100,4,1,0,100,0,0
92785,-100,4,1,0,100,0,0
92857,-100,4,1,0,100,0,0
92928,-100,4,1,0,100,0,0
93000,-100,4,1,0,100,0,0
93071,-100,4,1,0,100,0,0
93214,-100,4,1,0,100,0,0
93357,-100,4,1,0,100,0,0
93428,-100,4,1,0,100,0,0
93500,-100,4,1,0,100,0,0
93571,-100,4,1,0,100,0,0
93642,-100,4,1,0,100,0,0
93714,-100,4,1,0,100,0,0
93785,-100,4,1,0,100,0,0
93857,-100,4,1,0,100,0,0
93928,-100,4,1,0,100,0,0
94071,-100,4,1,0,100,0,0
94142,-100,4,1,0,100,0,0
94214,-100,4,1,0,100,0,0
94357,-100,4,1,0,100,0,0
94428,-100,4,1,0,100,0,0
94500,-100,4,1,0,100,0,0
94571,-100,4,1,0,100,0,0
94642,-100,4,1,0,100,0,0
94714,-100,4,1,0,100,0,0
94785,-100,4,1,0,100,0,0
94857,-100,4,1,0,100,0,0
94928,-100,4,1,0,100,0,0
95000,-100,4,1,0,100,0,0
95071,-100,4,1,0,100,0,0
95142,-100,4,1,0,100,0,0
95214,-100,4,1,0,100,0,0
95285,-100,4,1,0,100,0,0
95357,-100,4,1,0,100,0,0
95428,-100,4,1,0,100,0,0
95500,-100,4,1,0,100,0,0
95642,-100,4,1,0,100,0,0
95714,-100,4,1,0,100,0,0
95785,-100,4,1,0,100,0,0
95857,-100,4,1,0,100,0,0
95928,-100,4,1,0,100,0,0
96000,-100,4,1,0,100,0,0
96071,-100,4,1,0,100,0,0
96142,-100,4,1,0,100,0,0
96214,-100,4,1,0,100,0,0
96357,-100,4,1,0,100,0,0
96500,-100,4,1,0,100,0,0
96571,-100,4,1,0,100,0,0
96642,-100,4,1,0,100,0,0
96785,-100,4,1,0,100,0,0
96857,-100,4,1,0,100,0,0
96928,-100,4,1,0,100,0,0
97000,-100,4,1,0,100,0,0
97071,-100,4,1,0,100,0,0
97214,-100,4,1,0,100,0,0
97357,-100,4,1,0,100,0,0
97500,-100,4,1,0,100,0,0
97642,-100,4,1,0,100,0,0
97714,-100,4,1,0,100,0,0
97785,-100,4,1,0,100,0,0
97929,-100,4,1,0,100,0,0

[HitObjects]
256,192,6505,5,0,0:0:0:0:
256,192,6648,1,0,0:0:0:0:
256,192,6791,1,8,0:0:0:0:
256,192,6933,1,0,0:0:0:0:
256,192,7076,1,8,0:0:0:0:
256,192,7219,1,8,0:0:0:0:
256,192,7362,1,0,0:0:0:0:
256,192,7505,1,0,0:0:0:0:
256,192,7648,1,8,0:0:0:0:
256,192,7791,1,0,0:0:0:0:
256,192,7933,1,8,0:0:0:0:
256,192,8076,1,0,0:0:0:0:
256,192,8219,1,0,0:0:0:0:
256,192,8362,1,0,0:0:0:0:
256,192,8505,1,8,0:0:0:0:
256,192,8791,1,0,0:0:0:0:
256,192,8933,1,0,0:0:0:0:
256,192,9005,1,0,0:0:0:0:
256,192,9076,1,8,0:0:0:0:
256,192,9219,1,8,0:0:0:0:
256,192,9362,1,0,0:0:0:0:
256,192,9505,1,8,0:0:0:0:
256,192,9648,1,0,0:0:0:0:
256,192,9791,1,0,0:0:0:0:
256,192,9933,1,8,0:0:0:0:
256,192,10076,1,8,0:0:0:0:
256,192,10219,1,0,0:0:0:0:
256,192,10362,1,8,0:0:0:0:
256,192,10505,1,0,0:0:0:0:
256,192,10648,1,0,0:0:0:0:
256,192,10791,1,8,0:0:0:0:
256,192,11076,1,0,0:0:0:0:
256,192,11219,1,8,0:0:0:0:
256,192,11362,1,0,0:0:0:0:
256,192,11505,1,0,0:0:0:0:
256,192,11648,1,8,0:0:0:0:
256,192,11933,1,8,0:0:0:0:
256,192,12076,1,0,0:0:0:0:
256,192,12362,1,8,0:0:0:0:
256,192,12505,1,0,0:0:0:0:
256,192,12648,1,0,0:0:0:0:
256,192,12791,1,8,0:0:0:0:
256,192,13076,1,8,0:0:0:0:
256,192,13219,1,8,0:0:0:0:
256,192,13362,1,0,0:0:0:0:
256,192,13505,1,8,0:0:0:0:
256,192,13576,1,8,0:0:0:0:
256,192,13648,1,0,0:0:0:0:
256,192,13791,1,0,0:0:0:0:
256,192,13933,5,8,0:0:0:0:
256,192,14219,1,0,0:0:0:0:
256,192,14362,1,8,0:0:0:0:
256,192,14505,1,0,0:0:0:0:
256,192,14648,1,8,0:0:0:0:
256,192,14791,1,0,0:0:0:0:
256,192,14933,1,0,0:0:0:0:
256,192,15648,1,0,0:0:0:0:
256,192,15791,1,8,0:0:0:0:
256,192,15862,1,0,0:0:0:0:
256,192,15933,1,8,0:0:0:0:
256,192,16076,1,0,0:0:0:0:
256,192,16219,1,8,0:0:0:0:
256,192,16291,1,8,0:0:0:0:
256,192,16362,1,0,0:0:0:0:
256,192,16505,1,8,0:0:0:0:
256,192,16648,1,0,0:0:0:0:
256,192,16791,1,8,0:0:0:0:
256,192,16933,1,0,0:0:0:0:
256,192,17005,1,0,0:0:0:0:
256,192,17076,1,8,0:0:0:0:
256,192,17219,1,0,0:0:0:0:
256,192,17362,1,8,0:0:0:0:
256,192,17648,1,8,0:0:0:0:
256,192,17791,1,8,0:0:0:0:
256,192,17933,1,0,0:0:0:0:
256,192,18076,1,8,0:0:0:0:
256,192,18148,1,8,0:0:0:0:
256,192,18219,1,8,0:0:0:0:
256,192,18362,1,0,0:0:0:0:
256,192,18505,1,8,0:0:0:0:
256,192,18576,1,8,0:0:0:0:
256,192,18648,1,0,0:0:0:0:
256,192,18791,1,8,0:0:0:0:
256,192,18933,1,0,0:0:0:0:
256,192,19076,1,8,0:0:0:0:
256,192,19219,1,0,0:0:0:0:
256,192,19291,1,0,0:0:0:0:
256,192,19362,1,8,0:0:0:0:
256,192,19505,1,0,0:0:0:0:
256,192,19648,1,8,0:0:0:0:
256,192,19933,1,8,0:0:0:0:
256,192,20076,1,8,0:0:0:0:
256,192,20219,1,0,0:0:0:0:
256,192,20291,1,0,0:0:0:0:
256,192,20362,1,0,0:0:0:0:
256,192,20433,1,0,0:0:0:0:
256,192,20505,1,8,0:0:0:0:
256,192,20648,1,0,0:0:0:0:
256,192,20791,1,8,0:0:0:0:
256,192,20862,1,8,0:0:0:0:
256,192,20933,1,0,0:0:0:0:
256,192,21005,1,0,0:0:0:0:
256,192,21076,1,8,0:0:0:0:
256,192,21219,1,0,0:0:0:0:
256,192,21362,1,8,0:0:0:0:
256,192,21433,1,8,0:0:0:0:
256,192,21505,1,0,0:0:0:0:
256,192,21648,1,8,0:0:0:0:
256,192,21791,1,0,0:0:0:0:
256,192,21933,1,8,0:0:0:0:
256,192,22219,1,8,0:0:0:0:
256,192,22362,1,8,0:0:0:0:
256,192,22505,1,0,0:0:0:0:
256,192,22648,1,0,0:0:0:0:
256,192,22719,1,0,0:0:0:0:
256,192,22791,1,8,0:0:0:0:
256,192,22862,1,8,0:0:0:0:
256,192,22933,1,0,0:0:0:0:
256,192,23076,1,8,0:0:0:0:
256,192,23219,1,0,0:0:0:0:
256,192,23291,1,0,0:0:0:0:
256,192,23362,1,8,0:0:0:0:
256,192,23505,1,0,0:0:0:0:
256,192,23648,1,8,0:0:0:0:
256,192,23719,1,8,0:0:0:0:
256,192,23791,1,0,0:0:0:0:
256,192,23933,1,8,0:0:0:0:
256,192,24219,1,0,0:0:0:0:
256,192,24362,1,8,0:0:0:0:
256,192,24433,1,8,0:0:0:0:
256,192,24505,1,0,0:0:0:0:
256,192,24648,1,8,0:0:0:0:
256,192,24791,1,0,0:0:0:0:
256,192,24933,1,0,0:0:0:0:
256,192,25005,1,0,0:0:0:0:
256,192,25076,1,8,0:0:0:0:
256,192,25219,1,0,0:0:0:0:
256,192,25362,1,8,0:0:0:0:
256,192,25433,1,8,0:0:0:0:
256,192,25505,1,0,0:0:0:0:
256,192,25648,1,8,0:0:0:0:
256,192,25791,1,0,0:0:0:0:
256,192,25933,1,8,0:0:0:0:
256,192,26076,1,0,0:0:0:0:
256,192,26148,1,0,0:0:0:0:
256,192,26219,1,8,0:0:0:0:
256,192,26362,1,0,0:0:0:0:
256,192,26505,1,8,0:0:0:0:
256,192,26791,1,8,0:0:0:0:
256,192,26933,1,8,0:0:0:0:
256,192,27076,1,0,0:0:0:0:
256,192,27219,1,0,0:0:0:0:
256,192,27291,1,0,0:0:0:0:
256,192,27362,1,8,0:0:0:0:
256,192,27505,1,0,0:0:0:0:
256,192,27648,1,8,0:0:0:0:
256,192,27719,1,8,0:0:0:0:
256,192,27791,1,0,0:0:0:0:
256,192,27933,1,8,0:0:0:0:
256,192,28076,1,0,0:0:0:0:
256,192,28219,1,8,0:0:0:0:
256,192,28362,1,0,0:0:0:0:
256,192,28433,1,0,0:0:0:0:
256,192,28505,1,8,0:0:0:0:
256,192,28648,1,0,0:0:0:0:
256,192,28791,1,8,0:0:0:0:
256,192,29076,1,8,0:0:0:0:
256,192,29219,1,8,0:0:0:0:
256,192,29362,1,0,0:0:0:0:
256,192,29505,1,0,0:0:0:0:
256,192,29576,1,0,0:0:0:0:
256,192,29648,1,8,0:0:0:0:
256,192,29791,1,0,0:0:0:0:
256,192,29933,1,8,0:0:0:0:
256,192,30005,1,8,0:0:0:0:
256,192,30076,1,0,0:0:0:0:
256,192,30219,1,8,0:0:0:0:
256,192,30362,1,0,0:0:0:0:
256,192,30505,1,8,0:0:0:0:
256,192,30648,1,0,0:0:0:0:
256,192,30719,1,0,0:0:0:0:
256,192,30791,1,8,0:0:0:0:
256,192,30933,1,0,0:0:0:0:
256,192,31076,1,8,0:0:0:0:
256,192,31362,1,8,0:0:0:0:
256,192,31505,1,8,0:0:0:0:
256,192,31648,1,0,0:0:0:0:
256,192,31791,1,8,0:0:0:0:
256,192,32076,1,0,0:0:0:0:
256,192,32219,1,8,0:0:0:0:
256,192,32505,1,0,0:0:0:0:
256,192,32648,1,8,0:0:0:0:
256,192,32933,1,8,0:0:0:0:
256,192,33076,1,0,0:0:0:0:
256,192,33219,1,0,0:0:0:0:
256,192,33362,1,8,0:0:0:0:
256,192,33648,1,0,0:0:0:0:
256,192,33791,1,8,0:0:0:0:
256,192,33933,1,0,0:0:0:0:
256,192,34005,1,0,0:0:0:0:
256,192,34076,1,8,0:0:0:0:
256,192,34219,1,0,0:0:0:0:
256,192,34505,1,8,0:0:0:0:
256,192,34576,1,8,0:0:0:0:
256,192,34648,1,0,0:0:0:0:
256,192,34791,1,8,0:0:0:0:
256,192,35076,1,0,0:0:0:0:
256,192,35148,1,0,0:0:0:0:
256,192,35219,1,8,0:0:0:0:
256,192,35362,1,0,0:0:0:0:
256,192,35648,1,8,0:0:0:0:
256,192,35719,1,8,0:0:0:0:
256,192,35791,1,0,0:0:0:0:
256,192,35933,1,8,0:0:0:0:
256,192,36219,1,0,0:0:0:0:
256,192,36291,1,0,0:0:0:0:
256,192,36362,1,8,0:0:0:0:
256,192,36505,1,0,0:0:0:0:
256,192,36791,1,8,0:0:0:0:
256,192,36862,1,8,0:0:0:0:
256,192,36934,1,0,0:0:0:0:
256,192,37077,1,8,0:0:0:0:
256,192,37362,1,0,0:0:0:0:
256,192,37434,1,0,0:0:0:0:
256,192,37505,1,8,0:0:0:0:
256,192,37648,1,0,0:0:0:0:
256,192,37934,1,8,0:0:0:0:
256,192,38005,1,8,0:0:0:0:
256,192,38077,1,0,0:0:0:0:
256,192,38219,1,0,0:0:0:0:
256,192,38505,1,0,0:0:0:0:
256,192,38577,1,0,0:0:0:0:
256,192,38648,1,8,0:0:0:0:
256,192,38791,1,0,0:0:0:0:
256,192,39077,1,8,0:0:0:0:
256,192,39148,1,8,0:0:0:0:
256,192,39220,1,0,0:0:0:0:
256,192,39363,1,8,0:0:0:0:
256,192,39648,1,0,0:0:0:0:
256,192,39720,1,0,0:0:0:0:
256,192,39791,1,8,0:0:0:0:
256,192,39934,1,0,0:0:0:0:
256,192,40220,1,8,0:0:0:0:
256,192,40291,1,8,0:0:0:0:
256,192,40363,1,0,0:0:0:0:
256,192,40505,1,8,0:0:0:0:
256,192,40791,1,0,0:0:0:0:
256,192,40934,1,8,0:0:0:0:
256,192,41005,1,8,0:0:0:0:
256,192,41076,1,0,0:0:0:0:
256,192,41219,1,0,0:0:0:0:
256,192,41362,1,8,0:0:0:0:
256,192,41505,1,0,0:0:0:0:
256,192,41576,1,0,0:0:0:0:
256,192,41648,1,8,0:0:0:0:
256,192,41791,1,0,0:0:0:0:
256,192,41933,1,8,0:0:0:0:
256,192,42005,1,8,0:0:0:0:
256,192,42076,1,0,0:0:0:0:
256,192,42148,1,0,0:0:0:0:
256,192,42219,1,8,0:0:0:0:
256,192,42362,1,0,0:0:0:0:
256,192,42505,1,8,0:0:0:0:
256,192,42648,1,0,0:0:0:0:
256,192,42719,1,0,0:0:0:0:
256,192,42791,1,8,0:0:0:0:
256,192,43076,1,0,0:0:0:0:
256,192,43219,1,0,0:0:0:0:
256,192,43291,1,0,0:0:0:0:
256,192,43362,1,8,0:0:0:0:
256,192,43505,1,0,0:0:0:0:
256,192,43648,1,8,0:0:0:0:
256,192,43719,1,8,0:0:0:0:
256,192,43791,1,0,0:0:0:0:
256,192,43933,1,8,0:0:0:0:
256,192,44076,1,0,0:0:0:0:
256,192,44219,1,8,0:0:0:0:
256,192,44362,1,0,0:0:0:0:
256,192,44433,1,0,0:0:0:0:
256,192,44505,1,8,0:0:0:0:
256,192,44648,1,0,0:0:0:0:
256,192,44791,1,8,0:0:0:0:
256,192,45076,1,8,0:0:0:0:
256,192,45219,1,8,0:0:0:0:
256,192,45362,1,0,0:0:0:0:
256,192,45505,1,0,0:0:0:0:
256,192,45576,1,0,0:0:0:0:
256,192,45648,1,8,0:0:0:0:
256,192,45791,1,0,0:0:0:0:
256,192,45933,1,8,0:0:0:0:
256,192,46005,1,8,0:0:0:0:
256,192,46076,1,0,0:0:0:0:
256,192,46219,1,8,0:0:0:0:
256,192,46362,1,0,0:0:0:0:
256,192,46505,1,8,0:0:0:0:
256,192,46648,1,0,0:0:0:0:
256,192,46719,1,0,0:0:0:0:
256,192,46791,1,8,0:0:0:0:
256,192,46933,1,0,0:0:0:0:
256,192,47076,1,8,0:0:0:0:
256,192,47362,1,8,0:0:0:0:
256,192,47505,1,8,0:0:0:0:
256,192,47648,1,0,0:0:0:0:
256,192,47791,1,0,0:0:0:0:
256,192,47862,1,0,0:0:0:0:
256,192,47933,1,8,0:0:0:0:
256,192,48076,1,0,0:0:0:0:
256,192,48219,1,8,0:0:0:0:
256,192,48291,1,8,0:0:0:0:
256,192,48362,1,0,0:0:0:0:
256,192,48505,1,8,0:0:0:0:
256,192,48648,1,0,0:0:0:0:
256,192,48791,1,8,0:0:0:0:
256,192,48933,1,0,0:0:0:0:
256,192,49005,1,0,0:0:0:0:
256,192,49076,1,8,0:0:0:0:
256,192,49219,1,0,0:0:0:0:
256,192,49362,1,8,0:0:0:0:
256,192,49648,1,8,0:0:0:0:
256,192,49791,1,8,0:0:0:0:
256,192,49933,1,0,0:0:0:0:
256,192,50076,1,8,0:0:0:0:
256,192,50219,1,0,0:0:0:0:
256,192,50362,1,0,0:0:0:0:
256,192,50505,1,8,0:0:0:0:
256,192,50648,1,0,0:0:0:0:
256,192,50791,1,8,0:0:0:0:
256,192,50933,1,8,0:0:0:0:
256,192,51076,1,0,0:0:0:0:
256,192,51219,1,8,0:0:0:0:
256,192,51362,1,0,0:0:0:0:
256,192,51505,1,0,0:0:0:0:
256,192,51648,1,8,0:0:0:0:
256,192,51933,1,0,0:0:0:0:
256,192,52076,1,8,0:0:0:0:
256,192,52219,1,4,0:0:0:0:
256,192,56791,1,0,0:0:0:0:
256,192,57076,1,0,0:0:0:0:
256,192,57362,1,8,0:0:0:0:
256,192,57648,1,0,0:0:0:0:
256,192,57791,1,8,0:0:0:0:
256,192,57933,1,0,0:0:0:0:
256,192,58076,1,8,0:0:0:0:
256,192,58219,1,0,0:0:0:0:
256,192,58362,1,0,0:0:0:0:
256,192,58505,1,8,0:0:0:0:
256,192,58791,1,0,0:0:0:0:
256,192,59076,1,0,0:0:0:0:
256,192,59362,1,0,0:0:0:0:
256,192,59648,1,8,0:0:0:0:
256,192,59933,1,0,0:0:0:0:
256,192,60076,1,8,0:0:0:0:
256,192,60219,1,0,0:0:0:0:
256,192,60362,1,8,0:0:0:0:
256,192,60505,1,0,0:0:0:0:
256,192,60648,1,0,0:0:0:0:
256,192,60791,1,8,0:0:0:0:
256,192,61362,1,0,0:0:0:0:
256,192,61433,1,0,0:0:0:0:
256,192,61505,1,0,0:0:0:0:
256,192,61576,1,0,0:0:0:0:
256,192,61648,1,8,0:0:0:0:
256,192,61791,1,0,0:0:0:0:
256,192,61933,1,8,0:0:0:0:
256,192,62219,1,8,0:0:0:0:
256,192,62362,1,0,0:0:0:0:
256,192,62433,1,0,0:0:0:0:
256,192,62505,1,8,0:0:0:0:
256,192,62576,1,8,0:0:0:0:
256,192,62648,1,0,0:0:0:0:
256,192,62791,1,8,0:0:0:0:
256,192,62862,1,8,0:0:0:0:
256,192,62933,1,0,0:0:0:0:
256,192,63076,1,8,0:0:0:0:
256,192,63219,1,8,0:0:0:0:
256,192,63362,1,0,0:0:0:0:
256,192,63433,1,0,0:0:0:0:
256,192,63505,1,8,0:0:0:0:
256,192,63648,1,0,0:0:0:0:
256,192,63719,1,0,0:0:0:0:
256,192,63791,1,0,0:0:0:0:
256,192,63862,1,0,0:0:0:0:
256,192,63933,1,8,0:0:0:0:
256,192,64076,1,0,0:0:0:0:
256,192,64219,1,8,0:0:0:0:
256,192,64505,1,8,0:0:0:0:
256,192,64648,1,0,0:0:0:0:
256,192,64719,1,0,0:0:0:0:
256,192,64791,1,8,0:0:0:0:
256,192,64862,1,8,0:0:0:0:
256,192,64933,1,0,0:0:0:0:
256,192,65076,1,8,0:0:0:0:
256,192,65148,1,8,0:0:0:0:
256,192,65219,1,0,0:0:0:0:
256,192,65362,1,8,0:0:0:0:
256,192,65505,1,0,0:0:0:0:
256,192,65648,1,8,0:0:0:0:
256,192,65719,1,8,0:0:0:0:
256,192,65791,1,8,0:0:0:0:
256,192,65933,1,0,0:0:0:0:
256,192,66005,1,0,0:0:0:0:
256,192,66076,1,0,0:0:0:0:
256,192,66148,1,0,0:0:0:0:
256,192,66219,1,8,0:0:0:0:
256,192,66362,1,0,0:0:0:0:
256,192,66505,1,8,0:0:0:0:
256,192,66791,1,8,0:0:0:0:
256,192,66933,1,0,0:0:0:0:
256,192,67005,1,0,0:0:0:0:
256,192,67076,1,8,0:0:0:0:
256,192,67148,1,8,0:0:0:0:
256,192,67219,1,0,0:0:0:0:
256,192,67362,1,8,0:0:0:0:
256,192,67433,1,8,0:0:0:0:
256,192,67505,1,8,0:0:0:0:
256,192,67648,1,0,0:0:0:0:
256,192,67791,1,8,0:0:0:0:
256,192,67933,1,0,0:0:0:0:
256,192,68005,1,0,0:0:0:0:
256,192,68076,1,0,0:0:0:0:
256,192,68219,1,8,0:0:0:0:
256,192,68362,1,0,0:0:0:0:
256,192,68648,1,0,0:0:0:0:
256,192,68791,1,8,0:0:0:0:
256,192,69076,1,0,0:0:0:0:
256,192,69219,1,8,0:0:0:0:
256,192,69362,1,8,0:0:0:0:
256,192,69505,1,0,0:0:0:0:
256,192,69933,1,8,0:0:0:0:
256,192,70076,1,0,0:0:0:0:
256,192,70219,1,8,0:0:0:0:
256,192,70362,1,8,0:0:0:0:
256,192,70505,1,0,0:0:0:0:
256,192,70576,1,0,0:0:0:0:
256,192,70648,1,8,0:0:0:0:
256,192,70719,1,8,0:0:0:0:
256,192,70791,1,0,0:0:0:0:
256,192,70934,1,0,0:0:0:0:
256,192,71076,1,8,0:0:0:0:
256,192,71362,1,0,0:0:0:0:
256,192,71505,1,8,0:0:0:0:
256,192,71576,1,8,0:0:0:0:
256,192,71648,1,0,0:0:0:0:
256,192,71719,1,0,0:0:0:0:
256,192,71791,1,8,0:0:0:0:
256,192,71933,1,0,0:0:0:0:
256,192,72005,1,0,0:0:0:0:
256,192,72076,1,0,0:0:0:0:
256,192,72219,1,8,0:0:0:0:
256,192,72362,1,8,0:0:0:0:
256,192,72505,1,0,0:0:0:0:
256,192,72576,1,0,0:0:0:0:
256,192,72648,1,8,0:0:0:0:
256,192,72791,1,0,0:0:0:0:
256,192,72862,1,0,0:0:0:0:
256,192,72934,1,8,0:0:0:0:
256,192,73005,1,8,0:0:0:0:
256,192,73076,1,0,0:0:0:0:
256,192,73219,1,0,0:0:0:0:
256,192,73362,1,8,0:0:0:0:
256,192,73648,1,0,0:0:0:0:
256,192,73791,1,8,0:0:0:0:
256,192,73862,1,8,0:0:0:0:
256,192,73934,1,0,0:0:0:0:
256,192,74005,1,0,0:0:0:0:
256,192,74076,1,8,0:0:0:0:
256,192,74219,1,0,0:0:0:0:
256,192,74291,1,0,0:0:0:0:
256,192,74362,1,8,0:0:0:0:
256,192,74505,1,0,0:0:0:0:
256,192,74648,1,0,0:0:0:0:
256,192,74791,1,8,0:0:0:0:
256,192,74862,1,8,0:0:0:0:
256,192,74934,1,8,0:0:0:0:
256,192,75076,1,0,0:0:0:0:
256,192,75148,1,0,0:0:0:0:
256,192,75219,1,8,0:0:0:0:
256,192,75291,1,8,0:0:0:0:
256,192,75362,1,0,0:0:0:0:
256,192,75505,1,0,0:0:0:0:
256,192,75648,1,8,0:0:0:0:
256,192,75933,1,0,0:0:0:0:
256,192,76076,1,8,0:0:0:0:
256,192,76148,1,8,0:0:0:0:
256,192,76219,1,0,0:0:0:0:
256,192,76291,1,0,0:0:0:0:
256,192,76362,1,8,0:0:0:0:
256,192,76505,1,8,0:0:0:0:
256,192,76576,1,8,0:0:0:0:
256,192,76648,1,8,0:0:0:0:
256,192,76791,1,0,0:0:0:0:
256,192,76934,1,8,0:0:0:0:
256,192,77076,1,0,0:0:0:0:
256,192,77148,1,0,0:0:0:0:
256,192,77219,1,0,0:0:0:0:
256,192,77362,1,8,0:0:0:0:
256,192,77505,1,0,0:0:0:0:
256,192,77791,1,0,0:0:0:0:
256,192,77934,1,8,0:0:0:0:
256,192,78219,1,0,0:0:0:0:
256,192,78362,1,8,0:0:0:0:
256,192,78505,1,8,0:0:0:0:
256,192,78648,1,0,0:0:0:0:
256,192,78791,1,0,0:0:0:0:
256,192,78933,1,0,0:0:0:0:
256,192,79076,1,8,0:0:0:0:
256,192,79219,1,0,0:0:0:0:
256,192,79362,1,8,0:0:0:0:
256,192,79648,1,0,0:0:0:0:
256,192,79791,1,8,0:0:0:0:
256,192,79862,1,0,0:0:0:0:
256,192,79933,1,8,0:0:0:0:
256,192,80076,1,0,0:0:0:0:
256,192,80219,1,8,0:0:0:0:
256,192,80291,1,8,0:0:0:0:
256,192,80362,1,0,0:0:0:0:
256,192,80505,1,8,0:0:0:0:
256,192,80648,1,0,0:0:0:0:
256,192,80791,1,8,0:0:0:0:
256,192,80933,1,0,0:0:0:0:
256,192,81005,1,0,0:0:0:0:
256,192,81076,1,8,0:0:0:0:
256,192,81219,1,0,0:0:0:0:
256,192,81362,1,8,0:0:0:0:
256,192,81648,1,8,0:0:0:0:
256,192,81791,1,8,0:0:0:0:
256,192,81933,1,0,0:0:0:0:
256,192,82076,1,8,0:0:0:0:
256,192,82148,1,8,0:0:0:0:
256,192,82219,1,8,0:0:0:0:
256,192,82362,1,0,0:0:0:0:
256,192,82505,1,8,0:0:0:0:
256,192,82576,1,8,0:0:0:0:
256,192,82648,1,0,0:0:0:0:
256,192,82791,1,8,0:0:0:0:
256,192,82933,1,0,0:0:0:0:
256,192,83076,1,8,0:0:0:0:
256,192,83219,1,0,0:0:0:0:
256,192,83291,1,0,0:0:0:0:
256,192,83362,1,8,0:0:0:0:
256,192,83505,1,0,0:0:0:0:
256,192,83648,1,8,0:0:0:0:
256,192,83933,1,8,0:0:0:0:
256,192,84076,1,8,0:0:0:0:
256,192,84219,1,0,0:0:0:0:
256,192,84291,1,0,0:0:0:0:
256,192,84362,1,0,0:0:0:0:
256,192,84433,1,0,0:0:0:0:
256,192,84505,1,8,0:0:0:0:
256,192,84648,1,0,0:0:0:0:
256,192,84791,1,8,0:0:0:0:
256,192,84862,1,8,0:0:0:0:
256,192,84933,1,0,0:0:0:0:
256,192,85005,1,0,0:0:0:0:
256,192,85076,1,8,0:0:0:0:
256,192,85219,1,0,0:0:0:0:
256,192,85362,1,8,0:0:0:0:
256,192,85433,1,8,0:0:0:0:
256,192,85505,1,0,0:0:0:0:
256,192,85648,1,8,0:0:0:0:
256,192,85791,1,0,0:0:0:0:
256,192,85933,1,8,0:0:0:0:
256,192,86219,1,8,0:0:0:0:
256,192,86362,1,8,0:0:0:0:
256,192,86505,1,0,0:0:0:0:
256,192,86648,1,0,0:0:0:0:
256,192,86719,1,0,0:0:0:0:
256,192,86791,1,8,0:0:0:0:
256,192,86862,1,8,0:0:0:0:
256,192,86933,1,0,0:0:0:0:
256,192,87076,1,8,0:0:0:0:
256,192,87219,1,0,0:0:0:0:
256,192,87291,1,0,0:0:0:0:
256,192,87362,1,8,0:0:0:0:
256,192,87505,1,0,0:0:0:0:
256,192,87648,1,8,0:0:0:0:
256,192,87719,1,8,0:0:0:0:
256,192,87791,1,0,0:0:0:0:
256,192,87933,1,8,0:0:0:0:
256,192,88219,1,0,0:0:0:0:
256,192,88362,1,8,0:0:0:0:
256,192,88433,1,8,0:0:0:0:
256,192,88505,1,0,0:0:0:0:
256,192,88648,1,8,0:0:0:0:
256,192,88791,1,0,0:0:0:0:
256,192,88862,1,0,0:0:0:0:
256,192,88933,1,0,0:0:0:0:
256,192,89005,1,0,0:0:0:0:
256,192,89076,1,8,0:0:0:0:
256,192,89219,1,0,0:0:0:0:
256,192,89362,1,8,0:0:0:0:
256,192,89648,1,8,0:0:0:0:
256,192,89791,1,0,0:0:0:0:
256,192,89862,1,0,0:0:0:0:
256,192,89933,1,8,0:0:0:0:
256,192,90005,1,8,0:0:0:0:
256,192,90076,1,0,0:0:0:0:
256,192,90219,1,8,0:0:0:0:
256,192,90291,1,8,0:0:0:0:
256,192,90362,1,0,0:0:0:0:
256,192,90505,1,8,0:0:0:0:
256,192,90648,1,8,0:0:0:0:
256,192,90791,1,0,0:0:0:0:
256,192,90862,1,0,0:0:0:0:
256,192,90933,1,8,0:0:0:0:
256,192,91076,1,0,0:0:0:0:
256,192,91148,1,0,0:0:0:0:
256,192,91219,1,0,0:0:0:0:
256,192,91291,1,0,0:0:0:0:
256,192,91362,1,8,0:0:0:0:
256,192,91505,1,0,0:0:0:0:
256,192,91648,1,8,0:0:0:0:
256,192,91933,1,8,0:0:0:0:
256,192,92076,1,0,0:0:0:0:
256,192,92148,1,0,0:0:0:0:
256,192,92219,1,8,0:0:0:0:
256,192,92291,1,8,0:0:0:0:
256,192,92362,1,0,0:0:0:0:
256,192,92505,1,8,0:0:0:0:
256,192,92576,1,8,0:0:0:0:
256,192,92648,1,0,0:0:0:0:
256,192,92791,1,8,0:0:0:0:
256,192,92933,1,8,0:0:0:0:
256,192,93076,1,0,0:0:0:0:
256,192,93148,1,0,0:0:0:0:
256,192,93219,1,8,0:0:0:0:
256,192,93362,1,0,0:0:0:0:
256,192,93433,1,0,0:0:0:0:
256,192,93505,1,0,0:0:0:0:
256,192,93576,1,0,0:0:0:0:
256,192,93648,1,8,0:0:0:0:
256,192,93791,1,0,0:0:0:0:
256,192,93933,1,8,0:0:0:0:
256,192,94219,1,8,0:0:0:0:
256,192,94362,1,0,0:0:0:0:
256,192,94433,1,0,0:0:0:0:
256,192,94505,1,8,0:0:0:0:
256,192,94576,1,8,0:0:0:0:
256,192,94648,1,0,0:0:0:0:
256,192,94791,1,8,0:0:0:0:
256,192,94862,1,8,0:0:0:0:
256,192,94933,1,0,0:0:0:0:
256,192,95076,1,8,0:0:0:0:
256,192,95219,1,0,0:0:0:0:
256,192,95362,1,8,0:0:0:0:
256,192,95433,1,0,0:0:0:0:
256,192,95505,1,8,0:0:0:0:
256,192,95648,1,0,0:0:0:0:
256,192,95719,1,0,0:0:0:0:
256,192,95791,1,0,0:0:0:0:
256,192,95862,1,0,0:0:0:0:
256,192,95933,1,8,0:0:0:0:
256,192,96076,1,0,0:0:0:0:
256,192,96219,1,8,0:0:0:0:
256,192,96505,1,0,0:0:0:0:
256,192,96791,1,8,0:0:0:0:
256,192,96862,1,8,0:0:0:0:
256,192,96933,1,0,0:0:0:0:
256,192,97005,1,0,0:0:0:0:
256,192,97076,1,8,0:0:0:0:
256,192,97219,1,0,0:0:0:0:
256,192,97362,1,8,0:0:0:0:
256,192,97648,1,8,0:0:0:0:
256,192,97791,1,8,0:0:0:0:
256,192,97933,1,4,0:0:0:0:
