osu file format v14

[General]
AudioFilename: audio.mp3
AudioLeadIn: 0
PreviewTime: 66750
Countdown: 1
SampleSet: Normal
StackLeniency: 0.7
Mode: 1
LetterboxInBreaks: 0
WidescreenStoryboard: 1

[Editor]
Bookmarks: 139,7250,23250,37472,51694,65916,67694,81916,96138,110361,124583,138805,140583,154805,169027,185027,197472,199250,213472
DistanceSpacing: 0.5
BeatDivisor: 4
GridSize: 8
TimelineZoom: 1.4

[Metadata]
Title:Akairo Little Leader
TitleUnicode:あかいろリトルリーダー
Artist:Tanemura Koyori (CV: Oowada Hitomi)
ArtistUnicode:種村小依 (CV: 大和田仁美)
Creator:yuki_momoiro722
Version:Oni
Source:私に天使が舞い降りた!
Tags:taiko wataten An Angel Flew Down to Me watashi ni tenshi ga maiorita 天使のうたごえ no utagoe japanese anime character song
BeatmapID:2078904
BeatmapSetID:994248

[Difficulty]
HPDrainRate:6
CircleSize:2
OverallDifficulty:5.5
ApproachRate:10
SliderMultiplier:1.4
SliderTickRate:1

[Events]
//Background and Video events
0,0,"bg.jpg",0,50
//Break Periods
//Storyboard Layer 0 (Background)
//Storyboard Layer 1 (Fail)
//Storyboard Layer 2 (Pass)
//Storyboard Layer 3 (Foreground)
//Storyboard Layer 4 (Overlay)
//Storyboard Sound Samples

[TimingPoints]
139,444.444444444444,4,1,0,75,1,0
7250,-100,4,1,0,80,0,0
23250,-100,4,1,0,60,0,0
37472,-100,4,1,0,70,0,0
51694,-100,4,1,0,75,0,0
67694,-90.9090909090909,4,1,0,80,0,1
81472,-90.9090909090909,4,1,0,80,0,0
81916,-90.9090909090909,4,1,0,80,0,1
95694,-95.2380952380952,4,1,0,75,0,1
96138,-100,4,1,0,70,0,0
124583,-100,4,1,0,75,0,0
140583,-90.9090909090909,4,1,0,80,0,1
154361,-90.9090909090909,4,1,0,80,0,0
154805,-90.9090909090909,4,1,0,80,0,1
168583,-95.2380952380952,4,1,0,75,0,1
169027,-100,4,1,0,70,0,0
185027,-111.111111111111,4,1,0,60,0,0
191694,-107.52688172043,4,1,0,60,0,0
191805,-105.263157894737,4,1,0,60,0,0
192027,-102.040816326531,4,1,0,60,0,0
192138,-100,4,1,0,70,0,0
198583,-98.0392156862745,4,1,0,70,0,0
198805,-96.1538461538461,4,1,0,70,0,0
198916,-94.3396226415094,4,1,0,70,0,0
199027,-92.5925925925926,4,1,0,70,0,0
199250,-90.9090909090909,4,1,0,80,0,1
213027,-95.2380952380952,4,1,0,80,0,1
213472,-100,4,1,0,70,0,0

[HitObjects]
256,192,139,5,0,0:0:0:0:
256,192,361,1,8,0:0:0:0:
256,192,472,1,8,0:0:0:0:
256,192,805,1,8,0:0:0:0:
256,192,1027,1,0,0:0:0:0:
256,192,1250,1,8,0:0:0:0:
256,192,1361,1,8,0:0:0:0:
256,192,1694,1,0,0:0:0:0:
256,192,1916,1,0,0:0:0:0:
256,192,2138,1,8,0:0:0:0:
256,192,2361,1,8,0:0:0:0:
256,192,2472,1,0,0:0:0:0:
256,192,2583,1,8,0:0:0:0:
256,192,2805,1,8,0:0:0:0:
256,192,2916,1,8,0:0:0:0:
256,192,3027,1,0,0:0:0:0:
256,192,3250,1,8,0:0:0:0:
256,192,3694,1,0,0:0:0:0:
256,192,3916,1,8,0:0:0:0:
256,192,4027,1,8,0:0:0:0:
256,192,4361,1,8,0:0:0:0:
256,192,4583,1,0,0:0:0:0:
256,192,4805,1,8,0:0:0:0:
256,192,4916,1,8,0:0:0:0:
256,192,5250,1,8,0:0:0:0:
256,192,5472,1,0,0:0:0:0:
256,192,5694,1,8,0:0:0:0:
256,192,5916,1,0,0:0:0:0:
256,192,6027,1,0,0:0:0:0:
256,192,6138,1,8,0:0:0:0:
256,192,6361,1,8,0:0:0:0:
256,192,7250,5,4,0:0:0:0:
256,192,7472,1,0,0:0:0:0:
256,192,7694,1,8,0:0:0:0:
256,192,7916,1,8,0:0:0:0:
256,192,8138,1,0,0:0:0:0:
256,192,8250,1,8,0:0:0:0:
256,192,8361,1,0,0:0:0:0:
256,192,8583,1,8,0:0:0:0:
256,192,8805,1,8,0:0:0:0:
256,192,9027,1,0,0:0:0:0:
256,192,9250,1,8,0:0:0:0:
256,192,9472,1,0,0:0:0:0:
256,192,9694,1,8,0:0:0:0:
256,192,9805,1,8,0:0:0:0:
256,192,9916,1,0,0:0:0:0:
256,192,10138,1,8,0:0:0:0:
256,192,10361,1,8,0:0:0:0:
256,192,10805,1,8,0:0:0:0:
256,192,11027,1,0,0:0:0:0:
256,192,11138,1,0,0:0:0:0:
256,192,11250,1,8,0:0:0:0:
256,192,11472,1,8,0:0:0:0:
256,192,11694,1,0,0:0:0:0:
256,192,11805,1,0,0:0:0:0:
256,192,11916,1,8,0:0:0:0:
256,192,12027,1,8,0:0:0:0:
256,192,12138,1,0,0:0:0:0:
256,192,12361,1,8,0:0:0:0:
256,192,12583,1,4,0:0:0:0:
256,192,13027,1,12,0:0:0:0:
256,192,13472,1,12,0:0:0:0:
256,192,13694,1,0,0:0:0:0:
256,192,13916,1,8,0:0:0:0:
256,192,14027,1,8,0:0:0:0:
256,192,14138,1,0,0:0:0:0:
256,192,14361,1,4,0:0:0:0:
255,202,14583,1,0,0:0:0:0:
255,202,14694,1,0,0:0:0:0:
256,192,14805,1,8,0:0:0:0:
255,202,15027,1,8,0:0:0:0:
255,202,15250,1,0,0:0:0:0:
256,192,15472,1,8,0:0:0:0:
256,192,15694,1,0,0:0:0:0:
256,192,15916,1,0,0:0:0:0:
256,192,16138,1,8,0:0:0:0:
256,192,16361,1,8,0:0:0:0:
256,192,16472,1,8,0:0:0:0:
256,192,16583,1,0,0:0:0:0:
256,192,16805,1,8,0:0:0:0:
256,192,17027,1,0,0:0:0:0:
255,202,17250,1,8,0:0:0:0:
256,192,17472,1,8,0:0:0:0:
256,192,17916,1,8,0:0:0:0:
256,192,18138,1,0,0:0:0:0:
256,192,18361,1,8,0:0:0:0:
256,192,18583,1,8,0:0:0:0:
256,192,18694,1,8,0:0:0:0:
256,192,18805,1,0,0:0:0:0:
256,192,19027,1,0,0:0:0:0:
256,192,19250,1,8,0:0:0:0:
256,192,19472,1,0,0:0:0:0:
256,192,19583,1,0,0:0:0:0:
256,192,19694,1,0,0:0:0:0:
256,192,19916,1,8,0:0:0:0:
256,192,20138,1,0,0:0:0:0:
256,192,20250,1,8,0:0:0:0:
256,192,20472,1,8,0:0:0:0:
256,192,20583,1,0,0:0:0:0:
256,192,20694,1,0,0:0:0:0:
256,192,20805,1,8,0:0:0:0:
256,192,21027,1,8,0:0:0:0:
256,192,21138,1,0,0:0:0:0:
256,192,21250,1,8,0:0:0:0:
256,192,21361,1,8,0:0:0:0:
256,192,21472,1,0,0:0:0:0:
256,192,21694,1,8,0:0:0:0:
256,192,21916,1,0,0:0:0:0:
256,192,22027,1,8,0:0:0:0:
256,192,22250,1,8,0:0:0:0:
256,192,22361,1,8,0:0:0:0:
256,192,23250,5,12,0:0:0:0:
256,192,23694,1,8,0:0:0:0:
256,192,24138,1,8,0:0:0:0:
256,192,24361,1,0,0:0:0:0:
256,192,24583,1,0,0:0:0:0:
256,192,24805,1,8,0:0:0:0:
256,192,25250,1,8,0:0:0:0:
256,192,25472,1,0,0:0:0:0:
256,192,26583,1,0,0:0:0:0:
256,192,26805,1,8,0:0:0:0:
256,192,27027,1,8,0:0:0:0:
256,192,27250,1,0,0:0:0:0:
256,192,27694,1,8,0:0:0:0:
256,192,28138,1,8,0:0:0:0:
256,192,28361,1,0,0:0:0:0:
256,192,29027,1,8,0:0:0:0:
256,192,29361,1,8,0:0:0:0:
256,192,29694,1,0,0:0:0:0:
256,192,29916,1,8,0:0:0:0:
256,192,30138,1,8,0:0:0:0:
256,192,30361,1,4,0:0:0:0:
256,192,30805,1,8,0:0:0:0:
256,192,31250,1,8,0:0:0:0:
256,192,31472,1,0,0:0:0:0:
256,192,31916,1,8,0:0:0:0:
256,192,32361,1,0,0:0:0:0:
256,192,32583,1,8,0:0:0:0:
256,192,33694,1,0,0:0:0:0:
256,192,33916,1,8,0:0:0:0:
256,192,34138,1,8,0:0:0:0:
256,192,34361,1,0,0:0:0:0:
256,192,34583,1,0,0:0:0:0:
256,192,34805,1,8,0:0:0:0:
256,192,35027,1,0,0:0:0:0:
256,192,35250,1,8,0:0:0:0:
256,192,35472,1,8,0:0:0:0:
256,192,35916,1,0,0:0:0:0:
256,192,36138,1,8,0:0:0:0:
256,192,36472,1,8,0:0:0:0:
256,192,36583,1,0,0:0:0:0:
256,192,36805,1,0,0:0:0:0:
256,192,37027,1,8,0:0:0:0:
256,192,37472,5,12,0:0:0:0:
256,192,37916,1,8,0:0:0:0:
256,192,38250,1,8,0:0:0:0:
256,192,38361,1,0,0:0:0:0:
256,192,38583,1,0,0:0:0:0:
256,192,38805,1,8,0:0:0:0:
256,192,39027,1,0,0:0:0:0:
256,192,39472,1,8,0:0:0:0:
256,192,39694,1,0,0:0:0:0:
256,192,40027,1,8,0:0:0:0:
256,192,40138,1,0,0:0:0:0:
256,192,40361,1,0,0:0:0:0:
256,192,40583,1,8,0:0:0:0:
256,192,40805,1,0,0:0:0:0:
256,192,41027,1,8,0:0:0:0:
256,192,41250,1,0,0:0:0:0:
256,192,41472,1,8,0:0:0:0:
256,192,41694,1,0,0:0:0:0:
256,192,41916,1,8,0:0:0:0:
256,192,42138,1,8,0:0:0:0:
256,192,42361,1,0,0:0:0:0:
256,192,42583,1,0,0:0:0:0:
256,192,43027,1,0,0:0:0:0:
256,192,43250,1,8,0:0:0:0:
256,192,43583,1,0,0:0:0:0:
256,192,43694,1,0,0:0:0:0:
256,192,43916,1,0,0:0:0:0:
256,192,44138,1,8,0:0:0:0:
256,192,44361,1,0,0:0:0:0:
256,192,44583,1,12,0:0:0:0:
256,192,45027,1,8,0:0:0:0:
256,192,45361,1,8,0:0:0:0:
256,192,45472,1,0,0:0:0:0:
256,192,45694,1,0,0:0:0:0:
256,192,45916,1,8,0:0:0:0:
256,192,46138,1,8,0:0:0:0:
256,192,46583,1,0,0:0:0:0:
256,192,46805,1,8,0:0:0:0:
256,192,47138,1,0,0:0:0:0:
256,192,47250,1,0,0:0:0:0:
256,192,47472,1,0,0:0:0:0:
256,192,47694,1,8,0:0:0:0:
256,192,47916,1,0,0:0:0:0:
256,192,48138,1,8,0:0:0:0:
256,192,48361,1,0,0:0:0:0:
256,192,48583,1,8,0:0:0:0:
256,192,48805,1,8,0:0:0:0:
256,192,49027,1,0,0:0:0:0:
256,192,49250,1,0,0:0:0:0:
256,192,49472,1,8,0:0:0:0:
256,192,49694,1,0,0:0:0:0:
256,192,49916,1,0,0:0:0:0:
256,192,50361,1,8,0:0:0:0:
256,192,50694,1,8,0:0:0:0:
256,192,50805,1,0,0:0:0:0:
256,192,51027,1,8,0:0:0:0:
256,192,51250,1,8,0:0:0:0:
256,192,51694,5,0,0:0:0:0:
256,192,51805,1,0,0:0:0:0:
256,192,52027,1,0,0:0:0:0:
256,192,52138,1,8,0:0:0:0:
256,192,52361,1,0,0:0:0:0:
256,192,52583,1,8,0:0:0:0:
256,192,52805,1,0,0:0:0:0:
256,192,52916,1,0,0:0:0:0:
256,192,53027,1,8,0:0:0:0:
256,192,53250,1,0,0:0:0:0:
256,192,53472,1,8,0:0:0:0:
256,192,53583,1,8,0:0:0:0:
256,192,53805,1,0,0:0:0:0:
256,192,53916,1,0,0:0:0:0:
256,192,54138,1,8,0:0:0:0:
256,192,54361,1,8,0:0:0:0:
256,192,54472,1,0,0:0:0:0:
256,192,54583,1,0,0:0:0:0:
256,192,54805,1,8,0:0:0:0:
256,192,55250,1,0,0:0:0:0:
256,192,55361,1,0,0:0:0:0:
256,192,55583,1,0,0:0:0:0:
256,192,55694,1,8,0:0:0:0:
256,192,55916,1,0,0:0:0:0:
256,192,56138,1,8,0:0:0:0:
256,192,56361,1,0,0:0:0:0:
256,192,56472,1,0,0:0:0:0:
256,192,56583,1,8,0:0:0:0:
256,192,56805,1,8,0:0:0:0:
256,192,57250,1,0,0:0:0:0:
256,192,57472,1,8,0:0:0:0:
256,192,57916,1,0,0:0:0:0:
256,192,58027,1,8,0:0:0:0:
256,192,58138,1,0,0:0:0:0:
256,192,58361,1,8,0:0:0:0:
256,192,58805,1,0,0:0:0:0:
256,192,58916,1,8,0:0:0:0:
256,192,59138,1,8,0:0:0:0:
256,192,59250,1,0,0:0:0:0:
256,192,59472,1,8,0:0:0:0:
256,192,59694,1,0,0:0:0:0:
256,192,59916,1,0,0:0:0:0:
256,192,60027,1,0,0:0:0:0:
256,192,60138,1,8,0:0:0:0:
256,192,60361,1,8,0:0:0:0:
256,192,60805,1,0,0:0:0:0:
256,192,61027,1,0,0:0:0:0:
256,192,61250,1,8,0:0:0:0:
256,192,61361,1,0,0:0:0:0:
256,192,61472,1,8,0:0:0:0:
256,192,61583,1,8,0:0:0:0:
256,192,61694,1,0,0:0:0:0:
256,192,61916,1,8,0:0:0:0:
256,192,62138,1,8,0:0:0:0:
256,192,62361,1,4,0:0:0:0:
256,192,62805,1,8,0:0:0:0:
256,192,63027,1,0,0:0:0:0:
256,192,63138,1,0,0:0:0:0:
256,192,63250,1,0,0:0:0:0:
256,192,63472,1,0,0:0:0:0:
256,192,63694,1,8,0:0:0:0:
256,192,64138,1,0,0:0:0:0:
256,192,64361,1,8,0:0:0:0:
256,192,64583,1,0,0:0:0:0:
256,192,64694,1,8,0:0:0:0:
256,192,64916,1,8,0:0:0:0:
256,192,65027,1,8,0:0:0:0:
256,192,65250,1,8,0:0:0:0:
256,192,65361,1,0,0:0:0:0:
256,192,65472,1,8,0:0:0:0:
256,192,65583,1,8,0:0:0:0:
256,192,65694,1,0,0:0:0:0:
256,192,65916,5,12,0:0:0:0:
256,192,66138,1,12,0:0:0:0:
256,192,66361,1,12,0:0:0:0:
256,192,66583,1,12,0:0:0:0:
256,192,66805,1,12,0:0:0:0:
256,192,67694,5,4,0:0:0:0:
256,192,67916,1,0,0:0:0:0:
256,192,68138,1,8,0:0:0:0:
256,192,68361,1,8,0:0:0:0:
256,192,68583,1,0,0:0:0:0:
256,192,68805,1,0,0:0:0:0:
256,192,69027,1,8,0:0:0:0:
256,192,69250,1,8,0:0:0:0:
256,192,69361,1,8,0:0:0:0:
256,192,69472,1,0,0:0:0:0:
256,192,69694,1,0,0:0:0:0:
256,192,69805,1,0,0:0:0:0:
256,192,69916,1,8,0:0:0:0:
256,192,70027,1,0,0:0:0:0:
256,192,70138,1,8,0:0:0:0:
256,192,70361,1,0,0:0:0:0:
256,192,70583,1,8,0:0:0:0:
256,192,70805,1,8,0:0:0:0:
256,192,71250,1,8,0:0:0:0:
256,192,71472,1,0,0:0:0:0:
256,192,71583,1,0,0:0:0:0:
256,192,71694,1,8,0:0:0:0:
256,192,71916,1,8,0:0:0:0:
256,192,72138,1,0,0:0:0:0:
256,192,72361,1,0,0:0:0:0:
256,192,72583,1,8,0:0:0:0:
256,192,72805,1,8,0:0:0:0:
256,192,73027,1,4,0:0:0:0:
256,192,73472,1,12,0:0:0:0:
256,192,73916,1,12,0:0:0:0:
256,192,74138,1,0,0:0:0:0:
256,192,74250,1,0,0:0:0:0:
256,192,74361,1,8,0:0:0:0:
256,192,74472,1,8,0:0:0:0:
256,192,74583,1,0,0:0:0:0:
256,192,74805,1,12,0:0:0:0:
256,192,75027,1,0,0:0:0:0:
256,192,75250,1,8,0:0:0:0:
256,192,75472,1,8,0:0:0:0:
256,192,75583,1,8,0:0:0:0:
256,192,75694,1,0,0:0:0:0:
256,192,75916,1,0,0:0:0:0:
256,192,76138,1,8,0:0:0:0:
256,192,76361,1,0,0:0:0:0:
256,192,76583,1,8,0:0:0:0:
256,192,76805,1,0,0:0:0:0:
256,192,76916,1,0,0:0:0:0:
256,192,77027,1,8,0:0:0:0:
256,192,77250,1,8,0:0:0:0:
256,192,77472,1,0,0:0:0:0:
256,192,77694,1,8,0:0:0:0:
256,192,77916,1,8,0:0:0:0:
256,192,78361,1,8,0:0:0:0:
256,192,78583,1,0,0:0:0:0:
256,192,78694,1,0,0:0:0:0:
256,192,78805,1,8,0:0:0:0:
256,192,79027,1,8,0:0:0:0:
256,192,79250,1,0,0:0:0:0:
256,192,79472,1,0,0:0:0:0:
256,192,79694,1,8,0:0:0:0:
256,192,79916,1,0,0:0:0:0:
256,192,80138,1,0,0:0:0:0:
256,192,80361,1,8,0:0:0:0:
256,192,80583,1,0,0:0:0:0:
256,192,80694,1,8,0:0:0:0:
256,192,80916,1,8,0:0:0:0:
256,192,81027,1,0,0:0:0:0:
256,192,81250,1,8,0:0:0:0:
256,192,81472,1,8,0:0:0:0:
256,192,81583,1,8,0:0:0:0:
256,192,81694,1,8,0:0:0:0:
256,192,81916,5,4,0:0:0:0:
256,192,82138,1,0,0:0:0:0:
256,192,82361,1,8,0:0:0:0:
256,192,82583,1,8,0:0:0:0:
256,192,82805,1,0,0:0:0:0:
256,192,82916,1,8,0:0:0:0:
256,192,83027,1,0,0:0:0:0:
256,192,83250,1,8,0:0:0:0:
256,192,83472,1,0,0:0:0:0:
256,192,83694,1,8,0:0:0:0:
256,192,83916,1,0,0:0:0:0:
256,192,84027,1,0,0:0:0:0:
256,192,84138,1,8,0:0:0:0:
256,192,84361,1,8,0:0:0:0:
256,192,84583,1,0,0:0:0:0:
256,192,84805,1,8,0:0:0:0:
256,192,85027,1,8,0:0:0:0:
256,192,85472,1,0,0:0:0:0:
256,192,85694,1,0,0:0:0:0:
256,192,85805,1,0,0:0:0:0:
256,192,85916,1,8,0:0:0:0:
256,192,86138,1,8,0:0:0:0:
256,192,86361,1,0,0:0:0:0:
256,192,86583,1,0,0:0:0:0:
256,192,86805,1,8,0:0:0:0:
256,192,87027,1,8,0:0:0:0:
256,192,87250,1,4,0:0:0:0:
256,192,87694,1,12,0:0:0:0:
256,192,88138,1,12,0:0:0:0:
256,192,88361,1,0,0:0:0:0:
256,192,88472,1,0,0:0:0:0:
256,192,88583,1,8,0:0:0:0:
256,192,88694,1,8,0:0:0:0:
256,192,88805,1,0,0:0:0:0:
256,192,89027,1,12,0:0:0:0:
256,192,89250,1,0,0:0:0:0:
256,192,89472,1,8,0:0:0:0:
256,192,89694,1,0,0:0:0:0:
256,192,89805,1,0,0:0:0:0:
256,192,89916,1,0,0:0:0:0:
256,192,90138,1,0,0:0:0:0:
256,192,90361,1,8,0:0:0:0:
256,192,90583,1,0,0:0:0:0:
256,192,90805,1,8,0:0:0:0:
256,192,91027,1,8,0:0:0:0:
256,192,91138,1,8,0:0:0:0:
256,192,91250,1,0,0:0:0:0:
256,192,91472,1,8,0:0:0:0:
256,192,91694,1,0,0:0:0:0:
256,192,91916,1,8,0:0:0:0:
256,192,92138,1,8,0:0:0:0:
256,192,92583,1,8,0:0:0:0:
256,192,92805,1,0,0:0:0:0:
256,192,93027,1,8,0:0:0:0:
256,192,93250,1,8,0:0:0:0:
256,192,93361,1,8,0:0:0:0:
256,192,93472,1,0,0:0:0:0:
256,192,93694,1,0,0:0:0:0:
256,192,93916,1,8,0:0:0:0:
256,192,94138,1,8,0:0:0:0:
256,192,94361,1,0,0:0:0:0:
256,192,94583,1,8,0:0:0:0:
256,192,94694,1,0,0:0:0:0:
256,192,94805,1,8,0:0:0:0:
256,192,95027,1,0,0:0:0:0:
256,192,95138,1,8,0:0:0:0:
256,192,95250,1,8,0:0:0:0:
256,192,95694,1,8,0:0:0:0:
256,192,96138,5,12,0:0:0:0:
256,192,96361,1,0,0:0:0:0:
256,192,96472,1,0,0:0:0:0:
256,192,96583,1,8,0:0:0:0:
256,192,96805,1,8,0:0:0:0:
256,192,97027,1,0,0:0:0:0:
256,192,97138,1,8,0:0:0:0:
256,192,97250,1,0,0:0:0:0:
256,192,97472,1,8,0:0:0:0:
256,192,97694,1,0,0:0:0:0:
256,192,97916,1,8,0:0:0:0:
256,192,98138,1,0,0:0:0:0:
256,192,98250,1,0,0:0:0:0:
256,192,98361,1,8,0:0:0:0:
256,192,98583,1,8,0:0:0:0:
256,192,98805,1,0,0:0:0:0:
256,192,99027,1,8,0:0:0:0:
256,192,99250,1,8,0:0:0:0:
256,192,99472,1,0,0:0:0:0:
256,192,99694,1,8,0:0:0:0:
256,192,99916,1,8,0:0:0:0:
256,192,100027,1,8,0:0:0:0:
256,192,100138,1,0,0:0:0:0:
256,192,100361,1,8,0:0:0:0:
256,192,100583,1,0,0:0:0:0:
256,192,100694,1,0,0:0:0:0:
256,192,100805,1,8,0:0:0:0:
256,192,100916,1,0,0:0:0:0:
256,192,101027,1,8,0:0:0:0:
256,192,101250,1,8,0:0:0:0:
256,192,101472,1,4,0:0:0:0:
256,192,101916,1,12,0:0:0:0:
256,192,102361,1,12,0:0:0:0:
256,192,102583,1,0,0:0:0:0:
256,192,102805,1,8,0:0:0:0:
256,192,102916,1,8,0:0:0:0:
256,192,103027,1,0,0:0:0:0:
256,192,103250,1,4,0:0:0:0:
256,192,103472,1,0,0:0:0:0:
256,192,103583,1,0,0:0:0:0:
256,192,103694,1,8,0:0:0:0:
256,192,103916,1,0,0:0:0:0:
256,192,104138,1,8,0:0:0:0:
256,192,104361,1,8,0:0:0:0:
256,192,104583,1,0,0:0:0:0:
256,192,104805,1,0,0:0:0:0:
256,192,105027,1,8,0:0:0:0:
256,192,105250,1,8,0:0:0:0:
256,192,105361,1,8,0:0:0:0:
256,192,105472,1,0,0:0:0:0:
256,192,105694,1,8,0:0:0:0:
256,192,105916,1,0,0:0:0:0:
256,192,106138,1,8,0:0:0:0:
256,192,106361,1,8,0:0:0:0:
256,192,106583,1,0,0:0:0:0:
256,192,106805,1,8,0:0:0:0:
256,192,107250,1,8,0:0:0:0:
256,192,107472,1,8,0:0:0:0:
256,192,107583,1,8,0:0:0:0:
256,192,107694,1,0,0:0:0:0:
256,192,107916,1,0,0:0:0:0:
256,192,108138,1,8,0:0:0:0:
256,192,108361,1,0,0:0:0:0:
256,192,108583,1,8,0:0:0:0:
256,192,108694,1,8,0:0:0:0:
256,192,108805,1,0,0:0:0:0:
256,192,108916,1,0,0:0:0:0:
256,192,109027,1,8,0:0:0:0:
256,192,109250,1,0,0:0:0:0:
256,192,109361,1,0,0:0:0:0:
256,192,109472,1,8,0:0:0:0:
256,192,109694,1,8,0:0:0:0:
256,192,109916,1,8,0:0:0:0:
256,192,110027,1,0,0:0:0:0:
256,192,110138,1,0,0:0:0:0:
256,192,110361,5,4,0:0:0:0:
256,192,110805,1,8,0:0:0:0:
256,192,111027,1,0,0:0:0:0:
256,192,111250,1,0,0:0:0:0:
256,192,111361,1,0,0:0:0:0:
256,192,111472,1,0,0:0:0:0:
256,192,111694,1,8,0:0:0:0:
256,192,111916,1,0,0:0:0:0:
256,192,112138,1,0,0:0:0:0:
256,192,112361,1,0,0:0:0:0:
256,192,112583,1,8,0:0:0:0:
256,192,112805,1,0,0:0:0:0:
256,192,112916,1,8,0:0:0:0:
256,192,113027,1,0,0:0:0:0:
256,192,113250,1,8,0:0:0:0:
256,192,113472,1,8,0:0:0:0:
256,192,113916,1,8,0:0:0:0:
256,192,114138,1,0,0:0:0:0:
256,192,114361,1,8,0:0:0:0:
256,192,114583,1,0,0:0:0:0:
256,192,114694,1,0,0:0:0:0:
256,192,114805,1,8,0:0:0:0:
256,192,115027,1,8,0:0:0:0:
256,192,115250,1,8,0:0:0:0:
256,192,115472,1,0,0:0:0:0:
256,192,115694,1,0,0:0:0:0:
256,192,116138,1,8,0:0:0:0:
256,192,116361,1,0,0:0:0:0:
256,192,116472,1,8,0:0:0:0:
256,192,116583,1,0,0:0:0:0:
256,192,116805,1,8,0:0:0:0:
256,192,117027,1,8,0:0:0:0:
256,192,117250,1,0,0:0:0:0:
256,192,117472,1,12,0:0:0:0:
256,192,117916,1,8,0:0:0:0:
256,192,118138,1,0,0:0:0:0:
256,192,118361,1,0,0:0:0:0:
256,192,118472,1,0,0:0:0:0:
256,192,118583,1,0,0:0:0:0:
256,192,118805,1,8,0:0:0:0:
256,192,119027,1,8,0:0:0:0:
256,192,119250,1,0,0:0:0:0:
256,192,119472,1,0,0:0:0:0:
256,192,119694,1,8,0:0:0:0:
256,192,119916,1,0,0:0:0:0:
256,192,120027,1,8,0:0:0:0:
256,192,120138,1,0,0:0:0:0:
256,192,120361,1,8,0:0:0:0:
256,192,120583,1,8,0:0:0:0:
256,192,121027,1,8,0:0:0:0:
256,192,121250,1,0,0:0:0:0:
256,192,121472,1,8,0:0:0:0:
256,192,121694,1,0,0:0:0:0:
256,192,121916,1,8,0:0:0:0:
256,192,122138,1,8,0:0:0:0:
256,192,122250,1,8,0:0:0:0:
256,192,122361,1,0,0:0:0:0:
256,192,122583,1,8,0:0:0:0:
256,192,122805,1,0,0:0:0:0:
256,192,123027,1,0,0:0:0:0:
256,192,123250,1,8,0:0:0:0:
256,192,123472,1,0,0:0:0:0:
256,192,123583,1,8,0:0:0:0:
256,192,123694,1,0,0:0:0:0:
256,192,123916,1,8,0:0:0:0:
256,192,124138,1,0,0:0:0:0:
256,192,124583,5,0,0:0:0:0:
256,192,124694,1,0,0:0:0:0:
256,192,124916,1,0,0:0:0:0:
256,192,125027,1,8,0:0:0:0:
256,192,125250,1,0,0:0:0:0:
256,192,125472,1,8,0:0:0:0:
256,192,125694,1,0,0:0:0:0:
256,192,125805,1,0,0:0:0:0:
256,192,125916,1,8,0:0:0:0:
256,192,126138,1,0,0:0:0:0:
256,192,126361,1,8,0:0:0:0:
256,192,126472,1,8,0:0:0:0:
256,192,126694,1,0,0:0:0:0:
256,192,126805,1,0,0:0:0:0:
256,192,127027,1,8,0:0:0:0:
256,192,127250,1,8,0:0:0:0:
256,192,127472,1,0,0:0:0:0:
256,192,127694,1,8,0:0:0:0:
256,192,128138,1,0,0:0:0:0:
256,192,128250,1,0,0:0:0:0:
256,192,128472,1,0,0:0:0:0:
256,192,128583,1,8,0:0:0:0:
256,192,128805,1,0,0:0:0:0:
256,192,129027,1,8,0:0:0:0:
256,192,129250,1,0,0:0:0:0:
256,192,129361,1,0,0:0:0:0:
256,192,129472,1,8,0:0:0:0:
256,192,129694,1,8,0:0:0:0:
256,192,130138,1,0,0:0:0:0:
256,192,130361,1,8,0:0:0:0:
256,192,130805,1,0,0:0:0:0:
256,192,130916,1,8,0:0:0:0:
256,192,131027,1,0,0:0:0:0:
256,192,131250,1,8,0:0:0:0:
256,192,131694,1,0,0:0:0:0:
256,192,131805,1,8,0:0:0:0:
256,192,132027,1,8,0:0:0:0:
256,192,132138,1,0,0:0:0:0:
256,192,132361,1,0,0:0:0:0:
256,192,132583,1,8,0:0:0:0:
256,192,132805,1,0,0:0:0:0:
256,192,132916,1,0,0:0:0:0:
256,192,133027,1,8,0:0:0:0:
256,192,133250,1,8,0:0:0:0:
256,192,133694,1,0,0:0:0:0:
256,192,133916,1,0,0:0:0:0:
256,192,134138,1,8,0:0:0:0:
256,192,134250,1,0,0:0:0:0:
256,192,134361,1,8,0:0:0:0:
256,192,134472,1,8,0:0:0:0:
256,192,134583,1,0,0:0:0:0:
256,192,134805,1,8,0:0:0:0:
256,192,135027,1,8,0:0:0:0:
256,192,135250,1,4,0:0:0:0:
256,192,135694,1,8,0:0:0:0:
256,192,135916,1,0,0:0:0:0:
256,192,136027,1,0,0:0:0:0:
256,192,136138,1,0,0:0:0:0:
256,192,136361,1,0,0:0:0:0:
256,192,136583,1,8,0:0:0:0:
256,192,137027,1,0,0:0:0:0:
256,192,137250,1,8,0:0:0:0:
256,192,137472,1,0,0:0:0:0:
256,192,137583,1,8,0:0:0:0:
256,192,137805,1,8,0:0:0:0:
256,192,137916,1,0,0:0:0:0:
256,192,138138,1,0,0:0:0:0:
256,192,138250,1,0,0:0:0:0:
256,192,138361,1,8,0:0:0:0:
256,192,138472,1,8,0:0:0:0:
256,192,138583,1,0,0:0:0:0:
256,192,138805,5,12,0:0:0:0:
256,192,139027,1,12,0:0:0:0:
256,192,139250,1,12,0:0:0:0:
256,192,139472,1,12,0:0:0:0:
256,192,139694,1,12,0:0:0:0:
256,192,140583,5,4,0:0:0:0:
256,192,140805,1,0,0:0:0:0:
256,192,141027,1,8,0:0:0:0:
256,192,141250,1,8,0:0:0:0:
256,192,141472,1,0,0:0:0:0:
256,192,141694,1,0,0:0:0:0:
256,192,141916,1,8,0:0:0:0:
256,192,142138,1,8,0:0:0:0:
256,192,142250,1,8,0:0:0:0:
256,192,142361,1,0,0:0:0:0:
256,192,142583,1,0,0:0:0:0:
256,192,142694,1,0,0:0:0:0:
256,192,142805,1,8,0:0:0:0:
256,192,142916,1,0,0:0:0:0:
256,192,143027,1,8,0:0:0:0:
256,192,143250,1,0,0:0:0:0:
256,192,143472,1,8,0:0:0:0:
256,192,143694,1,8,0:0:0:0:
256,192,144138,1,8,0:0:0:0:
256,192,144361,1,0,0:0:0:0:
256,192,144472,1,0,0:0:0:0:
256,192,144583,1,8,0:0:0:0:
256,192,144805,1,8,0:0:0:0:
256,192,145027,1,0,0:0:0:0:
256,192,145250,1,0,0:0:0:0:
256,192,145472,1,8,0:0:0:0:
256,192,145694,1,8,0:0:0:0:
256,192,145916,1,4,0:0:0:0:
256,192,146361,1,12,0:0:0:0:
256,192,146805,1,12,0:0:0:0:
256,192,147027,1,0,0:0:0:0:
256,192,147138,1,0,0:0:0:0:
256,192,147250,1,8,0:0:0:0:
256,192,147361,1,8,0:0:0:0:
256,192,147472,1,0,0:0:0:0:
256,192,147694,1,12,0:0:0:0:
256,192,147916,1,0,0:0:0:0:
256,192,148138,1,8,0:0:0:0:
256,192,148361,1,8,0:0:0:0:
256,192,148472,1,8,0:0:0:0:
256,192,148583,1,0,0:0:0:0:
256,192,148805,1,0,0:0:0:0:
256,192,149027,1,8,0:0:0:0:
256,192,149250,1,0,0:0:0:0:
256,192,149472,1,8,0:0:0:0:
256,192,149694,1,0,0:0:0:0:
256,192,149805,1,0,0:0:0:0:
256,192,149916,1,8,0:0:0:0:
256,192,150138,1,8,0:0:0:0:
256,192,150361,1,0,0:0:0:0:
256,192,150583,1,8,0:0:0:0:
256,192,150805,1,8,0:0:0:0:
256,192,151250,1,8,0:0:0:0:
256,192,151472,1,0,0:0:0:0:
256,192,151583,1,0,0:0:0:0:
256,192,151694,1,8,0:0:0:0:
256,192,151916,1,8,0:0:0:0:
256,192,152138,1,0,0:0:0:0:
256,192,152361,1,0,0:0:0:0:
256,192,152583,1,8,0:0:0:0:
256,192,152805,1,0,0:0:0:0:
256,192,153027,1,0,0:0:0:0:
256,192,153250,1,8,0:0:0:0:
256,192,153472,1,0,0:0:0:0:
256,192,153583,1,8,0:0:0:0:
256,192,153805,1,8,0:0:0:0:
256,192,153916,1,0,0:0:0:0:
256,192,154138,1,8,0:0:0:0:
256,192,154361,1,8,0:0:0:0:
256,192,154472,1,8,0:0:0:0:
256,192,154583,1,8,0:0:0:0:
256,192,154805,5,4,0:0:0:0:
256,192,155027,1,0,0:0:0:0:
256,192,155250,1,8,0:0:0:0:
256,192,155472,1,8,0:0:0:0:
256,192,155694,1,0,0:0:0:0:
256,192,155805,1,8,0:0:0:0:
256,192,155916,1,8,0:0:0:0:
256,192,156138,1,0,0:0:0:0:
256,192,156361,1,8,0:0:0:0:
256,192,156583,1,0,0:0:0:0:
256,192,156805,1,0,0:0:0:0:
256,192,156916,1,0,0:0:0:0:
256,192,157027,1,8,0:0:0:0:
256,192,157250,1,8,0:0:0:0:
256,192,157472,1,0,0:0:0:0:
256,192,157694,1,8,0:0:0:0:
256,192,157916,1,8,0:0:0:0:
256,192,158361,1,0,0:0:0:0:
256,192,158583,1,8,0:0:0:0:
256,192,158694,1,0,0:0:0:0:
256,192,158805,1,8,0:0:0:0:
256,192,159027,1,8,0:0:0:0:
256,192,159250,1,0,0:0:0:0:
256,192,159472,1,8,0:0:0:0:
256,192,159694,1,0,0:0:0:0:
256,192,159916,1,8,0:0:0:0:
256,192,160138,1,4,0:0:0:0:
256,192,160583,1,12,0:0:0:0:
256,192,161027,1,12,0:0:0:0:
256,192,161250,1,0,0:0:0:0:
256,192,161361,1,8,0:0:0:0:
256,192,161472,1,8,0:0:0:0:
256,192,161583,1,8,0:0:0:0:
256,192,161694,1,0,0:0:0:0:
256,192,161916,1,12,0:0:0:0:
256,192,162138,1,0,0:0:0:0:
256,192,162361,1,8,0:0:0:0:
256,192,162583,1,0,0:0:0:0:
256,192,162694,1,0,0:0:0:0:
256,192,162805,1,0,0:0:0:0:
256,192,163027,1,8,0:0:0:0:
256,192,163250,1,8,0:0:0:0:
256,192,163472,1,0,0:0:0:0:
256,192,163694,1,8,0:0:0:0:
256,192,163916,1,8,0:0:0:0:
256,192,164027,1,8,0:0:0:0:
256,192,164138,1,0,0:0:0:0:
256,192,164361,1,8,0:0:0:0:
256,192,164583,1,0,0:0:0:0:
256,192,164805,1,8,0:0:0:0:
256,192,165027,1,8,0:0:0:0:
256,192,165472,1,8,0:0:0:0:
256,192,165694,1,0,0:0:0:0:
256,192,165916,1,8,0:0:0:0:
256,192,166138,1,8,0:0:0:0:
256,192,166250,1,0,0:0:0:0:
256,192,166361,1,0,0:0:0:0:
256,192,166583,1,0,0:0:0:0:
256,192,166805,1,8,0:0:0:0:
256,192,167027,1,0,0:0:0:0:
256,192,167250,1,0,0:0:0:0:
256,192,167472,1,0,0:0:0:0:
256,192,167583,1,8,0:0:0:0:
256,192,167694,1,8,0:0:0:0:
256,192,167916,1,8,0:0:0:0:
256,192,168027,1,8,0:0:0:0:
256,192,168138,1,8,0:0:0:0:
256,192,168583,1,8,0:0:0:0:
256,192,169027,5,4,0:0:0:0:
256,192,169250,1,8,0:0:0:0:
256,192,169472,1,0,0:0:0:0:
256,192,169694,1,8,0:0:0:0:
256,192,169805,1,8,0:0:0:0:
256,192,169916,1,0,0:0:0:0:
256,192,170138,1,0,0:0:0:0:
256,192,170361,1,8,0:0:0:0:
256,192,170583,1,8,0:0:0:0:
256,192,170805,1,0,0:0:0:0:
256,192,171027,1,0,0:0:0:0:
256,192,171138,1,0,0:0:0:0:
256,192,171250,1,8,0:0:0:0:
256,192,171472,1,0,0:0:0:0:
256,192,171694,1,8,0:0:0:0:
256,192,171916,1,8,0:0:0:0:
256,192,172138,1,0,0:0:0:0:
256,192,172583,1,0,0:0:0:0:
256,192,172805,1,8,0:0:0:0:
256,192,173027,1,8,0:0:0:0:
256,192,173250,1,0,0:0:0:0:
256,192,173361,1,8,0:0:0:0:
256,192,173472,1,0,0:0:0:0:
256,192,173694,1,0,0:0:0:0:
256,192,173916,1,8,0:0:0:0:
256,192,174138,1,8,0:0:0:0:
256,192,174361,1,4,0:0:0:0:
256,192,174583,1,12,0:0:0:0:
256,192,174805,1,4,0:0:0:0:
256,192,175027,1,4,0:0:0:0:
256,192,175472,1,8,0:0:0:0:
256,192,175583,1,8,0:0:0:0:
256,192,175694,1,0,0:0:0:0:
256,192,175805,1,8,0:0:0:0:
256,192,175916,1,0,0:0:0:0:
256,192,176138,1,0,0:0:0:0:
256,192,176472,1,0,0:0:0:0:
256,192,176583,1,8,0:0:0:0:
256,192,176805,1,8,0:0:0:0:
256,192,177027,1,0,0:0:0:0:
256,192,177361,1,0,0:0:0:0:
256,192,177472,1,8,0:0:0:0:
256,192,177694,1,0,0:0:0:0:
256,192,177916,1,8,0:0:0:0:
256,192,178361,1,8,0:0:0:0:
256,192,178583,1,8,0:0:0:0:
256,192,178805,1,0,0:0:0:0:
256,192,179027,1,0,0:0:0:0:
256,192,179138,1,0,0:0:0:0:
256,192,179250,1,8,0:0:0:0:
256,192,179472,1,0,0:0:0:0:
256,192,179694,1,8,0:0:0:0:
256,192,180138,1,8,0:0:0:0:
256,192,180361,1,0,0:0:0:0:
256,192,180472,1,0,0:0:0:0:
256,192,180583,1,0,0:0:0:0:
256,192,180805,1,0,0:0:0:0:
256,192,181027,1,8,0:0:0:0:
256,192,181250,1,8,0:0:0:0:
256,192,181472,1,0,0:0:0:0:
256,192,181694,1,8,0:0:0:0:
256,192,181916,1,0,0:0:0:0:
256,192,182027,1,8,0:0:0:0:
256,192,182250,1,8,0:0:0:0:
256,192,182361,1,0,0:0:0:0:
256,192,182583,1,0,0:0:0:0:
256,192,182805,1,8,0:0:0:0:
256,192,182916,1,0,0:0:0:0:
256,192,183027,1,8,0:0:0:0:
256,192,183138,1,8,0:0:0:0:
256,192,185027,5,0,0:0:0:0:
256,192,185472,1,8,0:0:0:0:
256,192,185916,1,0,0:0:0:0:
256,192,186138,1,8,0:0:0:0:
256,192,186361,1,8,0:0:0:0:
256,192,186583,1,0,0:0:0:0:
256,192,186805,1,0,0:0:0:0:
256,192,187250,1,8,0:0:0:0:
256,192,187694,1,0,0:0:0:0:
256,192,187916,1,8,0:0:0:0:
256,192,188027,1,0,0:0:0:0:
256,192,188138,1,8,0:0:0:0:
232,197,188361,1,0,0:0:0:0:
256,192,188583,1,0,0:0:0:0:
256,192,189027,1,8,0:0:0:0:
256,192,189472,1,0,0:0:0:0:
256,192,189694,1,8,0:0:0:0:
256,192,189916,1,8,0:0:0:0:
256,192,190138,1,0,0:0:0:0:
256,192,190361,1,0,0:0:0:0:
256,192,190805,1,8,0:0:0:0:
256,192,191250,1,0,0:0:0:0:
256,192,191472,5,8,0:0:0:0:
256,192,191694,1,8,0:0:0:0:
256,192,191805,1,0,0:0:0:0:
256,192,192027,1,0,0:0:0:0:
256,192,192138,1,0,0:0:0:0:
256,192,192583,1,8,0:0:0:0:
256,192,193027,1,0,0:0:0:0:
256,192,193250,1,0,0:0:0:0:
256,192,193472,1,8,0:0:0:0:
256,192,193694,1,0,0:0:0:0:
256,192,193916,1,8,0:0:0:0:
256,192,194361,1,8,0:0:0:0:
256,192,194583,1,8,0:0:0:0:
256,192,194805,1,0,0:0:0:0:
256,192,195027,1,8,0:0:0:0:
256,192,195250,1,8,0:0:0:0:
256,192,195694,1,8,0:0:0:0:
256,192,195916,1,0,0:0:0:0:
256,192,196138,1,8,0:0:0:0:
256,192,196361,1,8,0:0:0:0:
256,192,196583,1,0,0:0:0:0:
254,182,196805,1,8,0:0:0:0:
256,192,197027,1,8,0:0:0:0:
256,192,197250,1,0,0:0:0:0:
256,192,197472,5,0,0:0:0:0:
256,192,197694,1,8,0:0:0:0:
256,192,197805,1,8,0:0:0:0:
256,192,197916,1,0,0:0:0:0:
256,192,198027,1,0,0:0:0:0:
256,192,198138,1,8,0:0:0:0:
256,192,198250,1,0,0:0:0:0:
256,192,198361,1,8,0:0:0:0:
256,192,198583,1,0,0:0:0:0:
256,192,198805,1,8,0:0:0:0:
256,192,198916,1,0,0:0:0:0:
256,192,199027,1,8,0:0:0:0:
256,192,199250,5,4,0:0:0:0:
256,192,199472,1,0,0:0:0:0:
256,192,199694,1,8,0:0:0:0:
256,192,199916,1,8,0:0:0:0:
256,192,200138,1,0,0:0:0:0:
256,192,200250,1,8,0:0:0:0:
256,192,200361,1,0,0:0:0:0:
256,192,200583,1,8,0:0:0:0:
256,192,200805,1,0,0:0:0:0:
256,192,201027,1,8,0:0:0:0:
256,192,201250,1,0,0:0:0:0:
256,192,201361,1,0,0:0:0:0:
256,192,201472,1,8,0:0:0:0:
256,192,201694,1,8,0:0:0:0:
256,192,201916,1,0,0:0:0:0:
256,192,202138,1,8,0:0:0:0:
256,192,202361,1,8,0:0:0:0:
256,192,202805,1,0,0:0:0:0:
256,192,203027,1,0,0:0:0:0:
256,192,203138,1,0,0:0:0:0:
256,192,203250,1,8,0:0:0:0:
256,192,203472,1,8,0:0:0:0:
256,192,203694,1,0,0:0:0:0:
256,192,203916,1,0,0:0:0:0:
256,192,204138,1,8,0:0:0:0:
256,192,204361,1,8,0:0:0:0:
256,192,204583,1,4,0:0:0:0:
256,192,205027,1,12,0:0:0:0:
256,192,205472,1,12,0:0:0:0:
256,192,205694,1,0,0:0:0:0:
256,192,205805,1,0,0:0:0:0:
256,192,205916,1,8,0:0:0:0:
256,192,206027,1,8,0:0:0:0:
256,192,206138,1,0,0:0:0:0:
256,192,206361,1,12,0:0:0:0:
256,192,206583,1,0,0:0:0:0:
256,192,206805,1,8,0:0:0:0:
256,192,207027,1,0,0:0:0:0:
256,192,207138,1,0,0:0:0:0:
256,192,207250,1,0,0:0:0:0:
256,192,207472,1,0,0:0:0:0:
256,192,207694,1,8,0:0:0:0:
256,192,207916,1,0,0:0:0:0:
256,192,208138,1,8,0:0:0:0:
256,192,208361,1,8,0:0:0:0:
256,192,208472,1,8,0:0:0:0:
256,192,208583,1,0,0:0:0:0:
256,192,208805,1,8,0:0:0:0:
256,192,209027,1,0,0:0:0:0:
256,192,209250,1,8,0:0:0:0:
256,192,209472,1,8,0:0:0:0:
256,192,209916,1,8,0:0:0:0:
256,192,210138,1,0,0:0:0:0:
256,192,210361,1,8,0:0:0:0:
256,192,210583,1,8,0:0:0:0:
256,192,210694,1,8,0:0:0:0:
256,192,210805,1,0,0:0:0:0:
256,192,211027,1,0,0:0:0:0:
256,192,211250,1,8,0:0:0:0:
256,192,211472,1,8,0:0:0:0:
256,192,211694,1,0,0:0:0:0:
256,192,211916,1,8,0:0:0:0:
256,192,212027,1,0,0:0:0:0:
256,192,212138,1,8,0:0:0:0:
256,192,212361,1,0,0:0:0:0:
256,192,212472,1,8,0:0:0:0:
256,192,212583,1,8,0:0:0:0:
256,192,213027,5,8,0:0:0:0:
256,192,213472,5,4,0:0:0:0:
256,192,213694,1,0,0:0:0:0:
256,192,213916,1,8,0:0:0:0:
256,192,214138,1,8,0:0:0:0:
256,192,214361,1,0,0:0:0:0:
256,192,214472,1,8,0:0:0:0:
256,192,214583,1,0,0:0:0:0:
256,192,214805,1,8,0:0:0:0:
256,192,215027,1,8,0:0:0:0:
256,192,215250,1,0,0:0:0:0:
256,192,215472,1,8,0:0:0:0:
256,192,215694,1,0,0:0:0:0:
256,192,215916,1,8,0:0:0:0:
256,192,216027,1,8,0:0:0:0:
256,192,216138,1,0,0:0:0:0:
256,192,216361,1,8,0:0:0:0:
256,192,216583,1,8,0:0:0:0:
256,192,217027,1,8,0:0:0:0:
256,192,217250,1,0,0:0:0:0:
256,192,217361,1,0,0:0:0:0:
256,192,217472,1,8,0:0:0:0:
256,192,217694,1,8,0:0:0:0:
256,192,217916,1,0,0:0:0:0:
256,192,218027,1,0,0:0:0:0:
256,192,218138,1,8,0:0:0:0:
256,192,218250,1,8,0:0:0:0:
256,192,218361,1,0,0:0:0:0:
256,192,218583,1,8,0:0:0:0:
256,192,218805,1,4,0:0:0:0:
256,192,219250,1,12,0:0:0:0:
256,192,219694,1,12,0:0:0:0:
256,192,219916,1,0,0:0:0:0:
256,192,220138,1,8,0:0:0:0:
256,192,220250,1,8,0:0:0:0:
256,192,220361,1,0,0:0:0:0:
256,192,220583,1,4,0:0:0:0:
255,202,220805,1,0,0:0:0:0:
255,202,220916,1,0,0:0:0:0:
256,192,221027,1,8,0:0:0:0:
255,202,221250,1,8,0:0:0:0:
255,202,221472,1,0,0:0:0:0:
256,192,221694,1,8,0:0:0:0:
256,192,221916,1,0,0:0:0:0:
256,192,222138,1,0,0:0:0:0:
256,192,222361,1,8,0:0:0:0:
256,192,222583,1,8,0:0:0:0:
256,192,222694,1,8,0:0:0:0:
256,192,222805,1,0,0:0:0:0:
256,192,223027,1,8,0:0:0:0:
256,192,223250,1,0,0:0:0:0:
255,202,223472,1,8,0:0:0:0:
256,192,223694,1,8,0:0:0:0:
256,192,224138,1,8,0:0:0:0:
256,192,224361,1,0,0:0:0:0:
256,192,224583,1,8,0:0:0:0:
256,192,224805,1,8,0:0:0:0:
256,192,224916,1,8,0:0:0:0:
256,192,225027,1,0,0:0:0:0:
256,192,225250,1,0,0:0:0:0:
256,192,225472,1,8,0:0:0:0:
256,192,225694,1,0,0:0:0:0:
256,192,225805,1,0,0:0:0:0:
256,192,225916,1,0,0:0:0:0:
256,192,226138,1,8,0:0:0:0:
256,192,226361,1,0,0:0:0:0:
256,192,226472,1,8,0:0:0:0:
256,192,226694,1,8,0:0:0:0:
256,192,226805,1,0,0:0:0:0:
256,192,226916,1,0,0:0:0:0:
256,192,227027,1,8,0:0:0:0:
256,192,227250,1,8,0:0:0:0:
256,192,227361,1,0,0:0:0:0:
256,192,227472,1,8,0:0:0:0:
256,192,227583,1,8,0:0:0:0:
256,192,227694,1,0,0:0:0:0:
256,192,227916,1,8,0:0:0:0:
256,192,228138,1,0,0:0:0:0:
256,192,228250,1,8,0:0:0:0:
256,192,228472,1,8,0:0:0:0:
256,192,228583,1,8,0:0:0:0:
