osu file format v14

[General]
AudioFilename: Yakusoku No Kizuna.mp3
AudioLeadIn: 0
PreviewTime: 74387
Countdown: 0
SampleSet: Normal
StackLeniency: 0.7
Mode: 1
LetterboxInBreaks: 0
WidescreenStoryboard: 0

[Editor]
DistanceSpacing: 0.8
BeatDivisor: 4
GridSize: 32
TimelineZoom: 1

[Metadata]
Title:Yakusoku no Kizuna (TV Size)
TitleUnicode:約束の絆 (TV Size)
Artist:Taneda Risa, Chihara Minori & Yamaoka Yuri
ArtistUnicode:種田梨沙, 茅原実里 & 山岡ゆり
Creator:newyams99
Version:Kantan
Source:境界の彼方
Tags:境界の彼方 妖夢討伐隊 Beyond the boundary youmu toubatsutai nardoxyribonucleic
BeatmapID:890097
BeatmapSetID:410111

[Difficulty]
HPDrainRate:8
CircleSize:2
OverallDifficulty:3
ApproachRate:5
SliderMultiplier:1.4
SliderTickRate:1

[Events]
//Background and Video events
0,0,"BG.jpg",0,-115
//Break Periods
//Storyboard Layer 0 (Background)
//Storyboard Layer 1 (Fail)
//Storyboard Layer 2 (Pass)
//Storyboard Layer 3 (Foreground)
//Storyboard Sound Samples

[TimingPoints]
887,500,4,1,0,50,1,0
887,-100,4,1,0,50,0,0
12637,-100,4,1,0,70,0,0
74887,-100,4,1,0,90,0,1
106887,-100,4,1,0,90,0,0
126887,-100,4,1,0,50,0,0
134887,-100,4,1,0,70,0,0
142887,-100,4,1,0,90,0,1
166762,-100,4,1,0,50,0,0
167387,-100,4,1,0,40,0,0
167887,-100,4,1,0,30,0,0
168387,-100,4,1,0,20,0,0

[HitObjects]
256,192,887,5,2,0:0:0:0:
256,192,1887,1,0,0:0:0:0:
256,192,2887,1,2,0:0:0:0:
160,96,4887,2,0,B|288:128|96:224|96:224|352:32|32:352|64:352|512:160|512:160|352:128,1,980
256,192,8887,1,2,0:0:0:0:
256,192,10887,1,0,0:0:0:0:
256,192,12887,1,2,0:0:0:0:
256,192,13887,1,0,0:0:0:0:
256,192,14887,1,2,0:0:0:0:
256,192,16887,1,2,0:0:0:0:
256,192,17887,1,0,0:0:0:0:
256,192,18887,1,2,0:0:0:0:
256,192,20887,1,0,0:0:0:0:
256,192,21887,1,2,0:0:0:0:
256,192,22887,1,0,0:0:0:0:
256,192,23887,1,2,0:0:0:0:
256,192,24887,1,0,0:0:0:0:
256,192,25887,1,0,0:0:0:0:
256,192,26887,1,0,0:0:0:0:
256,192,27887,1,0,0:0:0:0:
256,192,28387,1,2,0:0:0:0:
96,64,28887,2,4,B|480:64|480:64|448:352|448:320|32:256,1,980
256,192,32887,1,4,0:0:0:0:
256,192,33887,1,2,0:0:0:0:
256,192,34387,1,0,0:0:0:0:
256,192,34887,1,2,0:0:0:0:
256,192,35887,1,2,0:0:0:0:
256,192,36387,1,0,0:0:0:0:
256,192,36887,1,0,0:0:0:0:
256,192,37887,1,2,0:0:0:0:
256,192,38387,1,2,0:0:0:0:
256,192,38887,1,0,0:0:0:0:
256,192,39887,1,0,0:0:0:0:
256,192,40387,1,2,0:0:0:0:
256,192,40887,1,4,0:0:0:0:
256,192,42887,1,2,0:0:0:0:
256,192,43887,1,0,0:0:0:0:
256,192,44887,1,2,0:0:0:0:
256,192,45887,1,2,0:0:0:0:
256,192,46887,1,0,0:0:0:0:
256,192,47387,1,2,0:0:0:0:
256,192,47887,1,0,0:0:0:0:
256,192,48887,1,4,0:0:0:0:
256,192,50887,1,2,0:0:0:0:
256,192,51887,1,0,0:0:0:0:
256,192,52887,1,2,0:0:0:0:
256,192,53887,1,2,0:0:0:0:
256,192,54887,1,0,0:0:0:0:
256,192,55387,1,0,0:0:0:0:
256,192,55887,1,2,0:0:0:0:
256,192,56887,1,6,0:0:0:0:
256,192,57887,1,0,0:0:0:0:
256,192,58387,1,2,0:0:0:0:
256,192,59387,1,2,0:0:0:0:
256,192,59887,1,0,0:0:0:0:
256,192,60387,1,2,0:0:0:0:
256,192,60887,1,0,0:0:0:0:
256,192,61887,1,0,0:0:0:0:
256,192,62387,1,2,0:0:0:0:
256,192,63387,1,2,0:0:0:0:
256,192,63887,1,2,0:0:0:0:
256,192,64387,1,2,0:0:0:0:
256,192,64887,1,4,0:0:0:0:
256,192,65887,1,0,0:0:0:0:
256,192,66887,1,2,0:0:0:0:
256,192,67387,1,2,0:0:0:0:
256,192,67887,1,0,0:0:0:0:
256,192,68887,1,2,0:0:0:0:
256,192,69887,1,0,0:0:0:0:
256,192,70387,1,2,0:0:0:0:
256,192,70887,2,0,P|288:32|128:192,1,560
256,192,74887,5,4,0:0:0:0:
256,192,75387,1,2,0:0:0:0:
256,192,75887,1,0,0:0:0:0:
256,192,76887,1,2,0:0:0:0:
256,192,77387,1,2,0:0:0:0:
256,192,77887,1,0,0:0:0:0:
256,192,78887,1,0,0:0:0:0:
256,192,79387,1,2,0:0:0:0:
256,192,80387,1,0,0:0:0:0:
256,192,80887,1,2,0:0:0:0:
256,192,81387,1,2,0:0:0:0:
256,192,81887,1,0,0:0:0:0:
256,192,82887,1,4,0:0:0:0:
256,192,83387,1,2,0:0:0:0:
256,192,83887,1,0,0:0:0:0:
256,192,84887,1,2,0:0:0:0:
256,192,85387,1,2,0:0:0:0:
256,192,85887,1,0,0:0:0:0:
256,192,86887,1,0,0:0:0:0:
256,192,87387,1,2,0:0:0:0:
256,192,88387,1,2,0:0:0:0:
256,192,88887,1,0,0:0:0:0:
256,192,89387,1,0,0:0:0:0:
256,192,89887,1,2,0:0:0:0:
256,192,90887,1,4,0:0:0:0:
256,192,91387,1,2,0:0:0:0:
256,192,91887,1,0,0:0:0:0:
256,192,92887,1,2,0:0:0:0:
256,192,93387,1,2,0:0:0:0:
256,192,93887,1,0,0:0:0:0:
256,192,94887,1,0,0:0:0:0:
256,192,95387,1,2,0:0:0:0:
256,192,96387,1,0,0:0:0:0:
256,192,96887,1,2,0:0:0:0:
256,192,97387,1,2,0:0:0:0:
256,192,97887,1,0,0:0:0:0:
256,192,98887,1,6,0:0:0:0:
256,192,99387,1,2,0:0:0:0:
256,192,99887,1,0,0:0:0:0:
256,192,100887,1,2,0:0:0:0:
256,192,101387,1,0,0:0:0:0:
256,192,101887,1,2,0:0:0:0:
256,192,102887,1,0,0:0:0:0:
256,192,103387,1,2,0:0:0:0:
256,192,104387,1,2,0:0:0:0:
256,192,104887,1,0,0:0:0:0:
256,192,105387,1,0,0:0:0:0:
256,192,105887,1,2,0:0:0:0:
256,192,106387,1,2,0:0:0:0:
256,192,106887,12,0,109887,0:0:0:0:
256,192,110887,5,0,0:0:0:0:
256,192,111387,1,2,0:0:0:0:
256,192,111887,1,0,0:0:0:0:
256,192,112387,1,2,0:0:0:0:
256,192,112887,1,0,0:0:0:0:
256,192,113887,1,2,0:0:0:0:
256,192,114387,1,2,0:0:0:0:
256,192,114887,1,4,0:0:0:0:
256,192,115887,1,0,0:0:0:0:
256,192,116387,1,0,0:0:0:0:
256,192,116887,1,2,0:0:0:0:
256,192,117387,1,2,0:0:0:0:
256,192,117887,1,0,0:0:0:0:
256,192,118387,1,2,0:0:0:0:
256,192,118887,1,0,0:0:0:0:
256,192,119887,1,0,0:0:0:0:
256,192,120387,1,2,0:0:0:0:
256,192,120887,1,2,0:0:0:0:
256,192,121887,1,0,0:0:0:0:
256,192,122387,1,2,0:0:0:0:
160,64,122887,2,4,B|416:96|416:96|320:256,1,420,4|0,0:0|0:0,0:0:0:0:
256,192,124887,1,4,0:0:0:0:
256,192,126137,1,6,0:0:0:0:
256,192,126887,1,4,0:0:0:0:
256,192,128887,1,2,0:0:0:0:
256,192,130887,1,0,0:0:0:0:
256,192,131887,1,2,0:0:0:0:
256,192,132887,1,2,0:0:0:0:
256,192,133887,1,0,0:0:0:0:
256,192,134887,1,4,0:0:0:0:
256,192,136887,1,2,0:0:0:0:
256,192,138887,1,4,0:0:0:0:
256,192,139887,1,4,0:0:0:0:
256,192,140887,1,4,0:0:0:0:
256,192,141887,1,4,0:0:0:0:
256,192,142887,1,6,0:0:0:0:
256,192,143387,1,0,0:0:0:0:
256,192,143887,1,0,0:0:0:0:
256,192,144387,1,2,0:0:0:0:
256,192,144887,1,0,0:0:0:0:
256,192,145387,1,2,0:0:0:0:
256,192,145887,1,0,0:0:0:0:
256,192,146887,1,0,0:0:0:0:
256,192,147387,1,2,0:0:0:0:
256,192,148387,1,0,0:0:0:0:
256,192,148887,1,2,0:0:0:0:
256,192,149387,1,2,0:0:0:0:
256,192,149887,1,0,0:0:0:0:
256,192,150387,1,2,0:0:0:0:
256,192,150887,1,4,0:0:0:0:
256,192,151887,1,4,0:0:0:0:
256,192,152887,1,4,0:0:0:0:
256,192,153887,1,4,0:0:0:0:
256,192,154387,1,2,0:0:0:0:
256,192,154887,1,4,0:0:0:0:
256,192,155887,1,4,0:0:0:0:
256,192,156887,1,4,0:0:0:0:
256,192,157387,1,6,0:0:0:0:
256,192,157887,1,6,0:0:0:0:
256,192,158387,1,6,0:0:0:0:
256,192,158887,1,4,0:0:0:0:
256,192,159887,1,2,0:0:0:0:
256,192,160387,1,0,0:0:0:0:
256,192,160887,1,2,0:0:0:0:
256,192,161887,1,2,0:0:0:0:
256,192,162387,1,0,0:0:0:0:
256,192,162887,1,0,0:0:0:0:
256,192,163887,1,2,0:0:0:0:
256,192,164387,1,2,0:0:0:0:
256,192,164887,1,4,0:0:0:0:
256,192,165887,5,2,0:0:0:0:
256,192,166387,1,0,0:0:0:0:
256,192,166637,12,0,168637,0:0:0:0:
