osu file format v14

[General]
AudioFilename: daddy.mp3
AudioLeadIn: 500
PreviewTime: 39311
Countdown: 0
SampleSet: Soft
StackLeniency: 0.7
Mode: 0
LetterboxInBreaks: 0
WidescreenStoryboard: 1

[Editor]
Bookmarks: 7915,25915,35665,57977,73915,79915
DistanceSpacing: 1.2
BeatDivisor: 4
GridSize: 4
TimelineZoom: 1.7

[Metadata]
Title:Wareta Ringo (TV edit)
TitleUnicode:割れたリンゴ (TV edit)
Artist:Taneda Risa
ArtistUnicode:種田梨沙
Creator:deetz
Version:Easy
Source:新世界より
Tags:From The New World Shinsekai Shin Sekai Yori ending ed Omar Kamal VINXIS
BeatmapID:877307
BeatmapSetID:402995

[Difficulty]
HPDrainRate:2
CircleSize:3
OverallDifficulty:2
ApproachRate:2
SliderMultiplier:1.4
SliderTickRate:1

[Events]
//Background and Video events
0,0,"nathan_tran.png",0,0
//Break Periods
//Storyboard Layer 0 (Background)
//Storyboard Layer 1 (Fail)
//Storyboard Layer 2 (Pass)
//Storyboard Layer 3 (Foreground)
//Storyboard Sound Samples

[TimingPoints]
436,500,4,2,2,60,1,0
24436,-100,4,2,2,50,0,0
40436,-100,4,2,1,70,0,1
40498,-100,4,2,2,70,0,1
48436,-100,4,2,1,70,0,1
48498,-100,4,2,2,70,0,1
56436,-100,4,2,1,70,0,1
56498,-100,4,2,2,70,0,1
64436,-100,4,2,1,70,0,1
64498,-100,4,2,2,70,0,1
72373,-100,4,2,2,70,0,0
72436,-100,4,2,2,70,0,1
72811,-100,4,2,2,70,0,0
78436,-100,4,2,1,70,0,0
78498,-100,4,2,2,70,0,0

[Colours]
Combo1 : 233,73,213
Combo2 : 5,84,148
Combo3 : 54,125,129
Combo4 : 181,179,253
Combo5 : 165,91,247
Combo6 : 249,72,121
Combo7 : 238,230,68
Combo8 : 85,238,226

[HitObjects]
80,124,436,6,0,P|152:128|236:108,1,140,4|4,0:2|0:0,0:0:0:0:
376,56,1436,2,0,L|392:164,1,105,4|4,0:0|0:0,0:0:0:0:
320,356,2436,6,0,P|256:348|148:348,1,140,4|4,0:0|0:0,0:0:0:0:
36,260,3436,2,0,P|96:256|168:240,1,105,4|4,0:0|0:0,0:0:0:0:
320,140,4436,6,0,P|386:126|459:152,1,140,4|4,0:0|0:0,0:0:0:0:
428,316,5436,2,0,P|380:328|312:320,1,105,4|4,0:0|0:0,0:0:0:0:
116,348,6436,6,0,P|136:304|136:196,1,140,4|4,0:0|0:0,0:0:0:0:
132,44,7436,2,0,P|196:56|244:52,1,105,4|4,0:0|0:0,0:0:0:0:
444,80,8436,6,0,L|456:224,1,140,6|6,0:0|0:0,0:0:0:0:
328,328,9436,2,0,P|270:328|204:340,2,105,6|4|0,0:0|0:0|0:0,0:0:0:0:
340,244,10436,6,0,P|255:243|192:216,1,140,6|6,0:0|0:0,0:0:0:0:
40,187,11436,2,0,L|40:303,2,105,6|4|0,0:0|0:0|0:0,0:0:0:0:
96,124,12436,6,0,P|176:120|240:108,1,140,6|6,0:0|0:0,0:0:0:0:
388,176,13436,2,0,P|384:96|392:40,2,105,6|4|0,0:0|0:0|0:0,0:0:0:0:
432,248,14436,6,0,P|368:260|308:201,1,140,6|6,0:0|0:0,0:0:0:0:
159,283,15436,2,0,P|163:223|149:153,2,105,6|0|0,0:0|0:0|0:0,0:0:0:0:
228,331,16436,6,0,L|379:322,1,140,6|6,0:0|0:0,0:0:0:0:
449,175,17436,2,0,P|453:104|450:63,2,105,6|4|0,0:0|0:0|0:0,0:0:0:0:
382,225,18436,6,0,L|232:218,1,140,6|6,0:0|0:0,0:0:0:0:
78,178,19436,2,0,L|82:295,2,105,6|4|0,0:0|0:0|0:0,0:0:0:0:
112,101,20436,6,0,P|178:87|258:95,1,140,6|6,0:0|0:0,0:0:0:0:
399,168,21436,2,0,L|406:58,2,105,6|4|0,0:0|0:0|0:0,0:0:0:0:
341,229,22436,6,0,L|181:215,1,140,6|6,0:0|0:0,0:0:0:0:
87,93,23436,2,0,L|199:70,2,105,6|4|0,0:0|0:0|0:0,0:0:0:0:
59,172,24436,6,0,P|50:304|43:330,1,140,6|0,0:0|0:0,0:0:0:0:
208,361,25436,2,0,P|196:292|197:222,1,140,0|0,0:0|0:0,0:0:0:0:
342,136,26436,2,0,L|495:117,2,140,6|2|0,0:0|0:0|0:0,0:0:0:0:
182,81,27936,1,0,0:0:0:0:
71,207,28436,6,0,P|57:250|67:351,1,140,6|0,0:0|0:0,0:0:0:0:
232,343,29436,2,0,P|242:274|225:206,1,140,0|0,0:0|0:0,0:0:0:0:
138,62,30436,2,0,P|94:52|17:111,2,140,6|0|0,0:0|0:0|0:0,0:0:0:0:
290,133,31936,1,0,0:0:0:0:
198,273,32436,6,0,P|207:188|193:128,1,140,6|0,0:0|0:0,0:0:0:0:
48,216,33436,2,0,P|35:284|45:353,1,140
214,353,34436,2,0,P|276:354|367:342,2,140,6|0|0,0:0|0:0|0:0,0:0:0:0:
124,210,35936,2,0,P|119:170|129:141,1,70,2|2,0:0|0:0,0:0:0:0:
204,179,36436,6,0,B|336:146|291:210|426:170,2,210,2|2|0,0:0|0:0|0:0,0:0:0:0:
266,335,38436,5,6,0:0:0:0:
266,335,40436,6,0,L|116:328,1,140,6|8,0:0|0:0,0:0:0:0:
59,174,41436,2,0,L|45:103,2,70,0|4|8,0:0|0:0|0:0,0:0:0:0:
225,193,42436,2,0,P|270:209|365:203,1,140,6|10,0:0|0:0,0:0:0:0:
481,321,43436,2,0,P|427:317|327:331,1,140,2|10,0:0|0:0,0:0:0:0:
173,327,44436,6,0,P|90:309|37:280,1,140,6|8,0:0|0:0,0:0:0:0:
52,115,45436,2,0,P|101:101|130:99,1,70,0|4,0:0|0:0,0:0:0:0:
199,125,45936,1,8,0:0:0:0:
348,49,46436,2,0,L|369:190,2,140,6|10|2,0:0|0:0|0:0,0:0:0:0:
180,38,47936,1,10,0:0:0:0:
142,201,48436,6,0,L|290:187,1,140,6|8,0:0|0:0,0:0:0:0:
412,292,49436,2,0,L|418:367,2,70,0|4|8,0:0|0:0|0:0,0:0:0:0:
473,135,50436,2,0,B|419:95|419:95|328:97,1,140,6|10,0:0|0:0,0:0:0:0:
189,156,51436,2,0,B|243:196|243:196|334:194,1,140,2|10,0:0|0:0,0:0:0:0:
422,324,52436,6,0,L|270:328,1,140,6|8,0:0|0:0,0:0:0:0:
117,291,53436,2,0,L|97:361,2,70,0|4|8,0:0|0:0|0:0,0:0:0:0:
256,196,54436,2,0,L|411:186,2,140,6|10|2,0:0|0:0|0:0,0:0:0:0:
104,122,55936,1,10,0:0:0:0:
88,289,56436,6,0,L|248:272,1,140,6|8,0:0|0:0,0:0:0:0:
393,295,57436,2,0,L|386:368,2,70,0|4|8,0:0|0:0|0:0,0:0:0:0:
458,140,58436,2,0,P|387:149|322:132,1,140,6|10,0:0|0:0,0:0:0:0:
167,63,59436,2,0,P|148:102|158:215,1,140,2|10,0:0|0:0,0:0:0:0:
278,305,60436,6,0,L|437:302,1,140,6|8,0:0|0:0,0:0:0:0:
462,140,61436,2,0,P|423:136|377:126,1,70,0|4,0:0|0:0,0:0:0:0:
335,68,61936,1,8,0:0:0:0:
239,206,62436,2,0,P|117:204|71:213,2,140,6|10|2,0:0|0:0|0:0,0:0:0:0:
407,213,63936,1,10,0:0:0:0:
289,332,64436,6,0,P|167:334|121:325,1,140,6|8,0:0|0:0,0:0:0:0:
38,205,65436,2,0,L|23:130,2,70,0|4|8,0:0|0:0|0:0,0:0:0:0:
200,247,66436,2,0,P|244:242|339:200,1,140,6|10,0:0|0:0,0:0:0:0:
480,126,67436,2,0,P|436:121|341:79,1,140,2|10,0:0|0:0,0:0:0:0:
184,49,68436,6,0,P|161:107|163:195,1,140,6|8,0:0|0:0,0:0:0:0:
287,294,69436,2,0,L|210:298,1,70,0|4,0:0|0:0,0:0:0:0:
142,337,69936,1,8,0:0:0:0:
30,210,70436,2,0,P|47:155|30:52,2,140,6|10|2,0:0|0:0|0:0,0:0:0:0:
192,252,71936,1,10,0:0:0:0:
332,160,72436,6,0,B|282:150|252:175|252:175|223:157|190:163,1,140,4|8,0:1|0:0,0:0:0:0:
43,97,73436,2,0,L|38:170,1,70,0|4,0:0|0:0,0:0:0:0:
27,250,73936,1,10,0:0:0:0:
189,294,74436,2,0,B|257:269|257:269|328:284,2,140,6|8|0,0:0|0:0|0:0,0:0:0:0:
29,346,75936,2,0,L|24:269,1,70,10|2,0:0|0:0,0:0:0:0:
42,193,76436,6,0,P|83:194|189:173,1,140,6|8,0:0|0:0,0:0:0:0:
325,90,77436,2,0,P|355:130|330:238,1,140,0|8,0:0|0:0,0:0:0:0:
206,306,78436,1,4,0:2:0:0:
206,306,80436,6,0,L|202:156,1,140,2|2,0:0|0:0,0:0:0:0:
332,59,81436,2,0,L|328:167,1,105,2|2,0:0|0:0,0:0:0:0:
434,344,82436,6,0,P|381:346|297:317,1,140,2|2,0:0|0:0,0:0:0:0:
133,348,83436,2,0,P|137:298|128:228,1,105,2|2,0:0|0:0,0:0:0:0:
39,54,84436,6,0,P|83:48|190:57,1,140,2|2,0:0|0:0,0:0:0:0:
346,58,85436,2,0,P|386:80|457:83,1,105,2|2,0:0|0:0,0:0:0:0:
463,294,86436,6,0,P|419:302|339:241,1,140,2|2,0:0|0:0,0:0:0:0:
202,159,87436,2,0,P|207:213|197:269,1,105,2|2,0:0|0:0,0:0:0:0:
