osu file format v14

[General]
AudioFilename: audio.mp3
AudioLeadIn: 0
PreviewTime: 164280
Countdown: 0
SampleSet: Soft
StackLeniency: 0.3
Mode: 0
LetterboxInBreaks: 0
WidescreenStoryboard: 0

[Editor]
DistanceSpacing: 1
BeatDivisor: 4
GridSize: 4
TimelineZoom: 1

[Metadata]
Title:Legacy 8086
TitleUnicode:Legacy 8086
Artist:Tanchiky Vs. Hagane
ArtistUnicode:Tanchiky Vs. はがね
Creator:NyarkoO
Version:My Legacy
Source:
Tags:REDOUT Riparia Records rpcd0011 Fireworks NewYear Happy New Year Dubstep J-Core
BeatmapID:1885770
BeatmapSetID:903331

[Difficulty]
HPDrainRate:5.4
CircleSize:3.8
OverallDifficulty:8
ApproachRate:9.3
SliderMultiplier:2.25
SliderTickRate:1

[Events]
//Background and Video events
0,0,"BG.jpg",0,0
//Break Periods
//Storyboard Layer 0 (Background)
//Storyboard Layer 1 (Fail)
//Storyboard Layer 2 (Pass)
//Storyboard Layer 3 (Foreground)
//Storyboard Sound Samples

[TimingPoints]
229,344.827586206897,4,2,5,20,1,0
229,-200,4,2,5,20,0,0
9884,-100,4,2,1,40,0,0
11263,-200,4,2,1,25,0,0
16780,-200,4,2,1,30,0,0
20918,-100,4,2,1,50,0,0
21608,-111.111111111111,4,2,1,45,0,0
21694,-125,4,2,1,40,0,0
21780,-142.857142857143,4,2,1,35,0,0
21866,-166.666666666667,4,2,1,30,0,0
21953,-200,4,1,1,35,0,0
22039,-153.846153846154,4,1,1,40,0,0
22125,-125,4,1,1,45,0,0
22211,-105.263157894737,4,1,1,50,0,0
22297,-133.333333333333,4,2,1,50,0,0
32642,-111.111111111111,4,2,1,46,0,0
32728,-125,4,2,1,42,0,0
32814,-142.857142857143,4,2,1,38,0,0
32900,-166.666666666667,4,2,1,34,0,0
32987,-200,4,1,1,38,0,0
33073,-153.846153846154,4,1,1,42,0,0
33159,-125,4,1,1,46,0,0
33245,-105.263157894737,4,1,1,50,0,0
33331,-117.647058823529,4,2,1,55,0,0
38849,-100,4,2,1,65,0,0
42384,-111.111111111111,4,2,1,62,0,0
42470,-125,4,2,1,60,0,0
42556,-142.857142857143,4,2,1,58,0,0
42642,-166.666666666667,4,2,1,56,0,0
42729,-172.413793103448,4,2,1,54,0,0
42815,-178.571428571429,4,2,1,52,0,0
42901,-185.185185185185,4,2,1,50,0,0
42987,-200,4,2,1,30,0,0
43332,-100,4,2,1,65,0,0
43677,-133.333333333333,4,1,1,45,0,0
44022,-200,4,2,1,30,0,0
44108,-166.666666666667,4,2,1,35,0,0
44194,-142.857142857143,4,2,1,40,0,0
44280,-125,4,2,1,45,0,0
44366,-133.333333333333,4,1,2,45,0,0
56091,-133.333333333333,4,1,1,45,0,0
62470,-100,4,1,1,60,0,0
63677,-80,4,1,1,70,0,0
64366,-100,4,1,1,75,0,0
66435,-200,4,2,1,45,0,0
77470,-100,4,2,1,60,0,0
82987,-90.9090909090909,4,2,1,60,0,0
86435,-90.9090909090909,4,2,1,45,0,0
86608,-90.9090909090909,4,2,1,40,0,0
86780,-90.9090909090909,4,2,1,35,0,0
86953,-90.9090909090909,4,2,1,30,0,0
87125,-400,4,1,1,10,0,0
87470,-200,4,1,1,25,0,0
87815,-133.333333333333,4,1,1,50,0,0
88160,-80,4,1,1,75,0,0
88332,-100,4,1,1,50,0,0
88504,-66.6666666666667,4,1,1,85,0,1
89884,-133.333333333333,4,1,1,85,0,1
90229,-66.6666666666667,4,1,1,85,0,1
91263,-57.1428571428571,4,1,1,85,0,1
92642,-133.333333333333,4,1,1,85,0,1
92987,-66.6666666666667,4,1,1,85,0,1
93504,-80,4,1,1,85,0,1
93763,-100,4,1,1,85,0,1
94022,-66.6666666666667,4,1,1,85,0,1
95401,-133.333333333333,4,1,1,85,0,1
95746,-66.6666666666667,4,1,1,85,0,1
96780,-66.6666666666667,4,1,1,85,0,1
97297,-57.1428571428571,4,1,1,90,0,1
97815,-50,4,1,1,95,0,1
98849,-100,4,1,1,55,0,0
99194,-200,4,1,1,65,0,0
99539,-66.6666666666667,4,1,1,85,0,1
100397,-33.3333333333333,4,1,1,85,0,1
100487,-66.6666666666667,4,1,1,85,0,1
100918,-133.333333333333,4,1,1,85,0,1
101263,-66.6666666666667,4,1,1,85,0,1
103677,-133.333333333333,4,1,1,85,0,1
104022,-66.6666666666667,4,1,1,85,0,1
104539,-100,4,1,1,85,0,1
105056,-66.6666666666667,4,1,1,85,0,1
105918,-66.6666666666667,4,1,1,85,0,1
106435,-133.333333333333,4,1,1,85,0,1
106780,-66.6666666666667,4,1,1,85,0,1
107815,-50,4,1,1,85,0,1
109194,-100,4,1,1,70,0,1
109539,-133.333333333333,4,1,1,55,0,1
109884,-80,4,1,1,40,0,1
110229,-200,4,1,1,25,0,1
110315,-133.333333333333,4,1,1,40,0,1
110401,-100,4,1,1,60,0,1
110487,-80,4,1,1,80,0,1
110573,-200,4,2,2,30,0,0
121608,-166.666666666667,4,2,2,40,0,0
127125,-166.666666666667,4,2,2,40,0,0
127642,-166.666666666667,4,2,2,50,0,0
127815,-166.666666666667,4,2,2,40,0,0
128160,-166.666666666667,4,2,2,50,0,0
128504,-166.666666666667,4,2,2,40,0,0
129022,-166.666666666667,4,2,2,50,0,0
129194,-166.666666666667,4,2,2,40,0,0
129539,-166.666666666667,4,2,2,50,0,0
129884,-166.666666666667,4,2,2,40,0,0
130401,-166.666666666667,4,2,2,50,0,0
130573,-166.666666666667,4,2,2,40,0,0
130918,-166.666666666667,4,2,2,50,0,0
131263,-166.666666666667,4,2,2,40,0,0
132297,-80,4,2,2,60,0,0
132642,-133.333333333333,4,2,1,50,0,0
143677,-117.647058823529,4,2,3,60,0,0
154711,-200,4,2,4,60,0,0
160229,-133.333333333333,4,2,4,60,0,0
161608,-100,4,2,4,60,0,0
162987,-80,4,2,4,60,0,0
163332,-66.6666666666667,4,2,4,60,0,0
163677,-57.1428571428571,4,2,4,60,0,0
164022,-50,4,2,4,60,0,0
164366,-454.545454545455,4,2,4,100,0,0
165056,-133.333333333333,4,2,1,60,0,0
165229,-100,4,2,1,60,0,0
165401,-200,4,2,1,60,0,0
165746,-66.6666666666667,4,1,1,85,0,1
176435,-66.6666666666667,4,1,1,86,0,0
176608,-61.3496932515337,4,1,1,88,0,0
176780,-57.1428571428571,4,1,1,90,0,1
180056,-58.1395348837209,4,1,1,90,0,1
180401,-57.1428571428571,4,1,1,90,0,1
181263,-60.6060606060606,4,1,1,90,0,1
181780,-57.1428571428571,4,1,1,90,0,1
185056,-50,4,1,1,90,0,1
187470,-100,4,1,1,90,0,0
187815,-66.6666666666667,4,1,1,85,0,1
189194,-133.333333333333,4,1,1,85,0,1
189539,-66.6666666666667,4,1,1,85,0,1
190573,-57.1428571428571,4,1,1,85,0,1
191952,-133.333333333333,4,1,1,85,0,1
192297,-66.6666666666667,4,1,1,85,0,1
192814,-80,4,1,1,85,0,1
193073,-100,4,1,1,85,0,1
193332,-66.6666666666667,4,1,1,85,0,1
194711,-133.333333333333,4,1,1,85,0,1
195056,-66.6666666666667,4,1,1,85,0,1
196090,-66.6666666666667,4,1,1,85,0,1
196608,-57.1428571428571,4,1,1,90,0,1
197125,-50,4,1,1,95,0,1
198160,-100,4,1,1,55,0,0
198504,-200,4,1,1,65,0,0
198849,-66.6666666666667,4,1,1,85,0,1
199707,-66.6666666666667,4,1,1,85,0,1
200228,-133.333333333333,4,1,1,85,0,1
200573,-66.6666666666667,4,1,1,85,0,1
202987,-133.333333333333,4,1,1,85,0,1
203332,-66.6666666666667,4,1,1,85,0,1
203849,-100,4,1,1,85,0,1
204366,-66.6666666666667,4,1,1,85,0,1
205228,-66.6666666666667,4,1,1,85,0,1
205745,-133.333333333333,4,1,1,85,0,1
206090,-66.6666666666667,4,1,1,85,0,1
207125,-66.6666666666667,4,1,1,85,0,1
208504,-133.333333333333,4,1,1,50,0,1
209194,-200,4,1,1,40,0,1
209884,-117.647058823529,4,2,1,50,0,0
220229,-111.111111111111,4,2,1,46,0,0
220315,-125,4,2,1,42,0,0
220401,-142.857142857143,4,2,1,38,0,0
220487,-166.666666666667,4,2,1,34,0,0
220574,-200,4,1,1,38,0,0
220660,-153.846153846154,4,1,1,42,0,0
220746,-125,4,1,1,46,0,0
220832,-105.263157894737,4,1,1,50,0,0
220918,-117.64705882353,4,1,1,50,0,0
226435,-100,4,2,1,65,0,0
227815,-90.9090909090909,4,2,1,65,0,0
229194,-83.3333333333333,4,2,1,70,0,0
229884,-83.3333333333333,4,2,1,75,0,0
230573,-400,4,2,1,80,0,0
230832,-400,4,2,1,5,0,0
230918,-285.714285714286,4,2,1,15,0,0
231263,-222.222222222222,4,2,1,20,0,0
231608,-200,4,2,1,30,0,0
231694,-166.666666666667,4,2,1,35,0,0
231780,-142.857142857143,4,2,1,40,0,0
231866,-125,4,2,1,45,0,0
231952,-200,4,2,1,25,0,0
241608,-100,4,2,1,40,0,0
242987,-200,4,2,1,20,0,0
245401,-222.222222222222,4,2,1,20,0,0
245746,-250,4,2,1,20,0,0
246091,-285.714285714286,4,2,1,20,0,0
246435,-333.333333333333,4,2,1,20,0,0
246780,-400,4,2,1,20,0,0
247125,-476.190476190476,4,2,1,20,0,0
247470,-666.666666666667,4,2,1,20,0,0
248504,-400,4,2,1,20,0,0
249884,-200,4,2,1,35,0,0
251263,-133.333333333333,4,2,1,50,0,0
251953,-100,4,2,1,65,0,0
252297,-80,4,2,1,80,0,0
252470,-66.6666666666667,4,2,1,85,0,0
252642,882.352941176471,4,2,6,25,1,0
252642,-1000,4,2,6,25,0,0
252700,-1000,4,2,6,5,0,0

[Colours]
Combo1 : 213,140,168
Combo2 : 151,162,232

[HitObjects]
248,200,229,6,0,P|276:192|316:200,1,56.25,14|2,0:0|0:0,0:0:0:0:
368,308,573,2,0,P|342:293|319:259,1,56.25,10|2,0:0|0:0,0:0:0:0:
378,162,918,2,0,P|386:189|378:229,1,56.25,10|2,0:0|0:0,0:0:0:0:
302,194,1263,1,10,0:0:0:0:
212,176,1435,6,0,P|236:128|328:104,1,140.625,2|0,0:0|0:0,0:0:0:0:
314,101,1953,2,0,P|283:91|231:99,1,84.375,10|0,0:0|0:0,0:0:0:0:
289,39,2297,2,0,P|254:62|232:98,1,84.375,10|0,0:0|0:0,0:0:0:0:
231,15,2642,2,0,P|223:56|232:97,1,84.375,10|0,0:0|0:0,0:0:0:0:
172,40,2987,6,0,P|196:75|232:97,1,84.375,10|0,0:0|0:0,0:0:0:0:
149,99,3332,2,0,P|190:106|231:97,1,84.375,10|0,0:0|0:0,0:0:0:0:
173,155,3677,2,0,P|208:132|231:96,1,84.375,10|0,0:0|0:0,0:0:0:0:
232,179,4022,2,0,P|240:137|231:96,1,84.375,10|0,0:0|0:0,0:0:0:0:
287,155,4366,6,0,P|266:119|231:96,1,84.375,10|0,0:0|0:0,0:0:0:0:
338,110,4711,2,0,P|286:90|231:96,2,112.5,10|10|10,0:0|0:0|0:0,0:0:0:0:
272,192,5573,1,2,0:0:0:0:
224,264,5746,6,0,P|200:244|188:220,1,56.25,10|2,0:0|0:0,0:0:0:0:
140,148,6091,2,0,P|116:168|104:192,1,56.25,10|2,0:0|0:0,0:0:0:0:
56,264,6435,2,0,P|32:244|20:220,2,56.25,10|2|10,0:0|0:0|0:0,0:0:0:0:
140,304,6953,6,0,B|208:332|208:272|276:296,1,140.625,2|0,0:0|0:0,0:0:0:0:
248,364,7470,2,0,P|228:308|240:288,1,84.375,10|0,0:0|0:0,0:0:0:0:
297,334,7815,2,0,P|257:326|238:290,1,84.375,10|0,0:0|0:0,0:0:0:0:
311,276,8160,2,0,P|278:299|238:290,1,84.375,10|0,0:0|0:0,0:0:0:0:
283,230,8504,6,0,P|274:270|238:290,1,84.375,10|0,0:0|0:0,0:0:0:0:
228,215,8849,2,0,P|249:249|238:289,1,84.375,10|0,0:0|0:0,0:0:0:0:
178,244,9194,2,0,P|218:253|238:289,1,84.375,10|0,0:0|0:0,0:0:0:0:
165,299,9539,2,0,P|199:276|238:289,1,84.375,10|0,0:0|0:0,0:0:0:0:
280,352,9884,6,0,P|252:324|264:192,1,168.75,10|0,0:0|0:0,0:0:0:0:
340,79,10229,2,0,P|324:159|254:203,1,168.75,10|0,0:0|0:0,0:0:0:0:
104,226,10573,6,0,P|124:204|147:190,1,56.25,10|10,0:0|0:0,0:0:0:0:
203,182,10746,2,0,P|229:187|257:204,1,56.25,10|10,3:0|3:0,0:0:0:0:
287,248,10918,5,10,0:0:0:0:
300,272,11004,1,2,0:0:0:0:
303,300,11091,1,2,0:0:0:0:
297,327,11177,1,2,0:0:0:0:
280,352,11263,5,14,3:0:0:0:
192,280,11435,1,2,0:0:0:0:
300,364,11608,2,0,L|356:360,1,56.25,10|2,0:0|0:0,0:0:0:0:
424,312,11953,2,0,P|388:280|368:276,2,56.25,10|2|10,3:0|0:0|0:0,0:0:0:0:
500,376,12470,6,0,L|507:262,1,112.5,2|0,0:0|0:0,0:0:0:0:
299,275,12987,2,0,P|339:285|381:278,1,84.375,10|0,0:0|0:0,0:0:0:0:
400,272,13332,1,10,3:0:0:0:
344,192,13504,1,10,0:0:0:0:
216,228,13677,2,0,L|212:313,1,84.375,10|0,0:0|0:0,0:0:0:0:
188,344,14022,6,0,L|192:372,3,28.125,10|0|0|0,3:0|0:0|0:0|0:0,0:0:0:0:
285,312,14366,2,0,L|288:284,3,28.125,10|0|0|0,0:0|0:0|0:0|0:0,0:0:0:0:
387,339,14711,2,0,L|391:367,3,28.125,10|0|0|0,3:0|0:0|0:0|0:0,0:0:0:0:
489,315,15056,2,0,L|493:287,3,28.125,10|0|0|0,0:0|0:0|0:0|0:0,0:0:0:0:
372,240,15401,5,10,3:0:0:0:
370,228,15487,1,0,0:0:0:0:
367,216,15573,1,0,0:0:0:0:
365,204,15660,1,0,0:0:0:0:
344,184,15746,1,10,0:0:0:0:
351,174,15832,1,0,0:0:0:0:
357,163,15918,1,0,0:0:0:0:
364,153,16004,1,0,0:0:0:0:
360,124,16091,5,10,3:0:0:0:
372,121,16177,1,0,0:0:0:0:
384,118,16263,1,10,0:0:0:0:
395,116,16349,1,0,0:0:0:0:
416,128,16435,2,0,L|444:132,1,28.125,10|0,0:0|0:0,0:0:0:0:
284,136,16608,2,0,L|256:132,1,28.125,2|0,0:0|0:0,0:0:0:0:
120,112,16780,6,0,L|64:132,1,56.25,10|2,3:0|0:0,0:0:0:0:
44,308,17125,1,10,0:0:0:0:
120,212,17297,1,2,0:0:0:0:
0,196,17470,1,10,3:0:0:0:
152,316,17642,1,2,0:0:0:0:
232,164,17815,1,10,0:0:0:0:
142,80,17987,6,0,P|111:142|119:211,1,140.625,2|0,0:0|0:0,0:0:0:0:
120,293,18504,2,0,P|128:252|119:211,1,84.375,10|0,0:0|0:0,0:0:0:0:
112,200,18849,1,10,3:0:0:0:
28,256,19022,1,10,0:0:0:0:
124,380,19194,2,0,P|168:368|196:340,1,84.375,10|0,0:0|0:0,0:0:0:0:
126,299,19539,6,0,P|158:331|196:341,1,84.375,10|0,3:0|0:0,0:0:0:0:
197,260,19884,2,0,P|185:304|195:342,1,84.375,10|0,0:0|0:0,0:0:0:0:
265,302,20229,2,0,P|221:314|193:342,1,84.375,10|0,3:0|0:0,0:0:0:0:
262,382,20573,2,0,P|229:349|191:339,1,84.375,10|0,0:0|0:0,0:0:0:0:
152,248,20918,6,0,P|216:248|312:292,1,168.75,10|0,0:0|0:0,0:0:0:0:
408,368,21263,2,0,P|453:311|386:285,1,168.75,10|0,0:0|0:0,0:0:0:0:
310,290,21608,5,10,0:0:0:0:
288,248,21694,1,10,0:0:0:0:
288,204,21780,1,10,3:0:0:0:
308,172,21866,1,10,3:0:0:0:
333,155,21953,6,2,L|349:151,1,14.0625,10|2,0:0|0:0,0:0:0:0:
320,184,22039,2,2,L|335:192,1,18.2812491631508
288,204,22125,2,2,L|300:224,1,22.5
244,204,22211,2,2,L|239:232,1,26.7187492865324
200,175,22297,6,0,L|144:240,1,84.3750032186509,14|2,3:0|0:0,0:0:0:0:
40,352,22642,1,10,0:0:0:0:
4,204,22815,1,2,0:0:0:0:
176,320,22987,2,0,P|216:308|260:316,2,84.3750032186509,2|2|10,0:0|0:0|0:0,0:0:0:0:
200,175,23504,6,0,P|240:191|360:167,1,168.750006437302,2|0,0:0|0:0,0:0:0:0:
388,56,24022,2,0,L|384:13,1,42.1875016093255,10|0,0:0|0:0,0:0:0:0:
444,112,24194,2,0,B|448:162|448:162|465:181|465:181|470:231,1,126.562504827976,2|0,0:0|0:0,0:0:0:0:
472,248,24539,1,2,0:0:0:0:
199,174,24711,2,0,P|277:147|356:167,1,126.562504827976,10|0,0:0|0:0,0:0:0:0:
359,167,25056,6,0,L|355:251,1,84.3750032186509,2|0,0:0|0:0,0:0:0:0:
260,356,25401,2,0,L|264:272,1,84.3750032186509,10|0,0:0|0:0,0:0:0:0:
472,248,25746,1,2,0:0:0:0:
467,332,25918,1,2,0:0:0:0:
444,168,26091,2,0,L|448:84,1,84.3750032186509,10|0,0:0|0:0,0:0:0:0:
304,72,26435,6,0,P|272:76|256:84,1,42.1875016093255,2|0,0:0|0:0,0:0:0:0:
288,184,26608,2,0,P|320:180|336:172,1,42.1875016093255,2|0,0:0|0:0,0:0:0:0:
448,83,26780,5,10,0:0:0:0:
432,272,26953,1,2,0:0:0:0:
328,176,27125,1,10,0:0:0:0:
332,144,27211,1,8,0:0:0:0:
336,112,27297,1,10,0:0:0:0:
336,272,27470,6,0,L|332:316,1,42.1875016093255,10|0,0:0|0:0,0:0:0:0:
496,200,27642,2,0,L|499:157,1,42.1875016093255,2|0,0:0|0:0,0:0:0:0:
432,272,27815,6,0,L|436:356,1,84.3750032186509,2|2,0:0|0:0,0:0:0:0:
252,295,28160,2,0,P|294:295|332:314,1,84.3750032186509,10|2,0:0|0:0,0:0:0:0:
144,360,28504,1,2,0:0:0:0:
344,312,28677,1,2,0:0:0:0:
216,228,28849,1,10,0:0:0:0:
360,308,29022,1,2,0:0:0:0:
288,148,29194,6,0,L|160:140,1,126.562504827976,2|0,0:0|0:0,0:0:0:0:
136,148,29539,1,10,0:0:0:0:
340,212,29711,2,0,P|368:176|356:100,1,126.562504827976,2|0,0:0|0:0,0:0:0:0:
336,76,30056,2,0,L|292:72,1,42.1875016093255,2|0,0:0|0:0,0:0:0:0:
161,140,30229,2,0,P|136:176|136:216,1,84.3750032186509,10|2,0:0|0:0,0:0:0:0:
180,320,30573,5,2,0:0:0:0:
248,232,30746,1,0,0:0:0:0:
135,215,30918,1,10,0:0:0:0:
296,332,31091,1,2,0:0:0:0:
200,132,31263,1,2,0:0:0:0:
68,304,31435,1,2,0:0:0:0:
332,276,31608,2,0,P|340:236|328:192,1,84.3750032186509,10|0,0:0|0:0,0:0:0:0:
124,89,31953,6,0,P|140:106|155:116,1,42.1875016093255,2|0,0:0|0:0,0:0:0:0:
165,121,32125,2,0,P|185:127|206:128,1,42.1875016093255,2|0,0:0|0:0,0:0:0:0:
434,100,32297,1,10,0:0:0:0:
304,41,32470,1,2,0:0:0:0:
329,194,32642,5,10,0:0:0:0:
317,228,32729,1,10,0:0:0:0:
316,259,32815,1,10,3:0:0:0:
324,284,32901,1,10,3:0:0:0:
337,302,32987,6,2,L|350:305,1,14.0625,10|10,0:0|0:0,0:0:0:0:
326,265,33073,2,2,L|343:257,1,18.2812491631508
295,245,33160,2,2,L|303:225,1,22.5
248,248,33246,2,2,L|241:223,1,26.7187492865324
215,270,33332,6,0,P|180:240|131:234,1,95.6250018239022,14|2,3:0|0:0,0:0:0:0:
337,302,33677,2,0,P|388:296|424:264,1,95.6250018239022,10|2,0:0|0:0,0:0:0:0:
408,84,34022,1,2,0:0:0:0:
352,220,34194,1,2,0:0:0:0:
512,156,34366,1,10,0:0:0:0:
304,116,34539,1,2,0:0:0:0:
188,224,34711,6,0,L|180:372,1,143.437502735853,2|0,0:0|0:0,0:0:0:0:
160,368,35056,2,0,P|132:368|112:360,1,47.8125009119511,10|0,0:0|0:0,0:0:0:0:
264,340,35229,2,0,P|328:332|356:344,1,95.6250018239022,2|0,0:0|0:0,0:0:0:0:
496,152,35573,1,2,0:0:0:0:
404,208,35746,2,0,P|358:222|312:211,1,95.6250018239022,10|0,0:0|0:0,0:0:0:0:
208,136,36091,6,0,L|216:40,1,95.6250018239022,6|0,0:0|0:0,0:0:0:0:
312,211,36435,2,0,L|304:307,1,95.6250018239022,10|0,0:0|0:0,0:0:0:0:
88,248,36780,1,2,0:0:0:0:
216,224,36953,1,2,0:0:0:0:
172,340,37125,2,0,P|132:368|84:376,1,95.6250018239022,10|0,0:0|0:0,0:0:0:0:
304,306,37470,6,0,P|328:310|348:322,1,47.8125009119511,2|0,0:0|0:0,0:0:0:0:
356,332,37642,2,0,P|370:351|375:374,1,47.8125009119511,2|0,0:0|0:0,0:0:0:0:
468,380,37815,2,0,L|472:284,1,95.6250018239022,10|0,0:0|0:0,0:0:0:0:
400,100,38160,1,10,0:0:0:0:
364,104,38246,1,8,0:0:0:0:
328,108,38332,1,10,0:0:0:0:
260,220,38504,1,10,0:0:0:0:
480,196,38677,1,2,0:0:0:0:
273,114,38849,6,0,P|253:154|260:220,1,112.5,14|2,0:0|0:0,0:0:0:0:
466,301,39194,2,0,P|486:261|476:196,1,112.5,10|2,0:0|0:0,0:0:0:0:
273,114,39539,1,10,0:0:0:0:
396,240,39711,1,2,0:0:0:0:
456,68,39884,1,10,0:0:0:0:
340,176,40056,1,2,0:0:0:0:
336,328,40229,6,0,L|448:336,1,112.5,14|0,0:0|0:0,0:0:0:0:
259,219,40573,2,0,L|147:227,1,112.5,10|0,0:0|0:0,0:0:0:0:
344,112,40918,2,0,L|456:120,1,112.5,10|0,0:0|0:0,0:0:0:0:
224,20,41263,2,0,L|112:28,1,112.5,10|0,0:0|0:0,0:0:0:0:
16,108,41608,5,14,0:0:0:0:
264,132,41780,1,10,0:0:0:0:
507,195,41953,5,10,0:0:0:0:
259,219,42125,1,10,0:0:0:0:
224,20,42297,5,14,0:0:0:0:
264,36,42384,1,8,0:0:0:0:
280,68,42470,1,8,0:0:0:0:
280,100,42556,1,8,0:0:0:0:
272,124,42642,5,14,0:0:0:0:
260,148,42729,1,8,0:0:0:0:
252,172,42815,1,8,0:0:0:0:
252,196,42901,1,8,0:0:0:0:
259,219,42987,6,0,B|264:244|264:244|264:260|264:260|272:272|272:272|278:299,1,84.375,10|0,3:0|0:0,0:0:0:0:
304,380,43332,6,0,P|340:360|360:328,2,56.25,2|0|2,0:0|0:0|0:0,0:0:0:0:
356,264,43677,6,2,P|376:266|396:272,6,21.0937508046627,2|2|2|2|2|2|2,3:3|3:3|3:3|3:3|3:3|3:3|3:3,3:0:0:0:
456,320,44022,6,2,L|480:324,1,14.0625
460,300,44108,2,2,L|476:302,1,16.8749994850159
464,280,44194,2,2,L|500:284,1,19.6874993991852
468,260,44280,2,2,L|490:262,1,22.5
472,244,44366,6,0,L|428:248,1,42.1875016093255,14|0,0:0|0:0,0:0:0:0:
349,348,44539,2,0,L|306:344,1,42.1875016093255,2|0,0:0|0:0,0:0:0:0:
232,276,44711,1,10,0:0:0:0:
224,268,45056,6,0,L|216:184,1,84.3750032186509,10|0,0:0|0:0,0:0:0:0:
212,144,45315,1,2,0:0:0:0:
72,236,45401,2,0,L|140:187,1,84.3750032186509,10|2,0:0|0:0,0:0:0:0:
300,176,45746,5,8,0:0:0:0:
260,284,45918,2,0,L|256:240,1,42.1875016093255,2|0,0:0|0:0,0:0:0:0:
308,172,46091,2,0,L|304:129,1,42.1875016093255,10|0,0:0|0:0,0:0:0:0:
304,129,46435,6,0,P|324:101|368:81,1,84.3750032186509,10|2,0:0|0:0,0:0:0:0:
400,77,46694,1,2,0:0:0:0:
388,244,46780,2,0,P|373:212|378:164,1,84.3750032186509,10|2,0:0|0:0,0:0:0:0:
460,196,47125,5,8,0:0:0:0:
288,220,47297,2,0,L|244:216,1,42.1875016093255,2|0,0:0|0:0,0:0:0:0:
160,248,47470,2,0,L|116:244,1,42.1875016093255,10|0,0:0|0:0,0:0:0:0:
40,200,47642,1,2,0:0:0:0:
56,304,47815,6,0,L|68:388,1,84.3750032186509,10|2,0:0|0:0,0:0:0:0:
84,368,48073,1,2,0:0:0:0:
108,200,48160,2,0,L|96:284,1,84.3750032186509,10|2,0:0|0:0,0:0:0:0:
67,384,48504,5,8,0:0:0:0:
192,336,48677,2,0,L|220:332,2,28.1250010728836,2|2|2,0:0|0:0|0:0,0:0:0:0:
180,324,48849,2,0,L|224:316,1,42.1875016093255,10|0,0:0|0:0,0:0:0:0:
308,360,49022,2,0,P|316:300|300:260,1,84.3750032186509,2|8,0:0|0:0,0:0:0:0:
216,188,49366,5,2,0:0:0:0:
192,200,49453,2,0,L|188:244,1,42.1875016093255,2|8,0:0|0:0,0:0:0:0:
304,141,49711,2,0,L|308:184,1,42.1875016093255,2|0,0:0|0:0,0:0:0:0:
309,278,49884,5,8,0:0:0:0:
296,136,50056,2,0,L|300:52,1,84.3750032186509,2|8,0:0|0:0,0:0:0:0:
512,192,50401,2,0,P|467:235|364:228,1,168.750006437302,2|0,0:0|0:0,0:0:0:0:
424,100,50918,2,0,L|420:144,1,42.1875016093255,10|0,0:0|0:0,0:0:0:0:
268,228,51091,1,2,0:0:0:0:
260,232,51435,5,2,0:0:0:0:
228,228,51522,1,2,0:0:0:0:
196,224,51608,1,10,0:0:0:0:
64,216,51780,2,0,P|72:168|160:92,1,168.750006437302,2|0,0:0|0:0,0:0:0:0:
252,112,52211,1,0,0:0:0:0:
252,112,52297,2,0,L|296:116,1,42.1875016093255,10|0,0:0|0:0,0:0:0:0:
158,92,52470,6,0,L|36:84,1,84.3750032186509,2|8,0:0|0:0,0:0:0:0:
196,224,52815,2,0,L|280:218,1,84.3750032186509,2|8,0:0|0:0,0:0:0:0:
108,188,53160,2,0,P|100:228|112:272,1,84.3750032186509,2|8,0:0|0:0,0:0:0:0:
240,136,53504,2,0,P|250:95|242:54,1,84.3750032186509,2|8,0:0|0:0,0:0:0:0:
104,284,53849,6,0,P|126:317|166:340,1,84.3750032186509,2|8,0:0|0:0,0:0:0:0:
260,60,54194,2,0,P|238:23|204:0,2,84.3750032186509,2|10|0,0:0|0:0|0:0,0:0:0:0:
296,192,54711,2,0,L|424:200,1,126.562504827976,10|0,0:0|0:0,0:0:0:0:
435,201,55056,6,2,L|439:161,1,21.0937508046627,10|2,0:0|0:0,0:0:0:0:
440,228,55142,2,2,L|444:188,1,21.0937508046627
444,256,55229,2,2,L|448:216,1,21.0937508046627
448,280,55315,2,2,L|452:240,1,21.0937508046627
452,304,55401,6,0,L|456:260,1,42.1875016093255,14|0,3:0|0:0,0:0:0:0:
364,296,55573,2,0,L|360:338,1,42.1875016093255,2|0,0:0|0:0,0:0:0:0:
276,284,55746,1,10,0:0:0:0:
268,276,56091,6,0,L|256:148,1,126.562504827976,10|2,3:0|0:0,0:0:0:0:
292,68,56435,2,0,L|288:152,1,84.3750032186509,10|2,0:0|0:0,0:0:0:0:
160,104,56780,5,8,3:0:0:0:
44,116,56953,2,0,L|0:120,1,42.1875016093255,2|0,0:0|0:0,0:0:0:0:
112,192,57125,2,0,L|156:196,1,42.1875016093255,10|0,0:0|0:0,0:0:0:0:
292,68,57470,6,0,L|165:79,1,126.562504827976,10|2,3:0|0:0,0:0:0:0:
80,44,57815,2,0,L|164:48,1,84.3750032186509,10|2,0:0|0:0,0:0:0:0:
368,64,58160,5,10,3:0:0:0:
296,144,58332,1,2,0:0:0:0:
292,68,58504,5,10,0:0:0:0:
360,192,58677,1,2,0:0:0:0:
412,128,58849,5,10,3:0:0:0:
288,224,59022,1,2,0:0:0:0:
284,240,59108,2,0,L|288:284,1,42.1875016093255,2|8,0:0|0:0,0:0:0:0:
376,340,59280,1,0,0:0:0:0:
384,328,59366,2,0,L|387:285,1,42.1875016093255,2|0,0:0|0:0,0:0:0:0:
400,168,59539,5,8,3:0:0:0:
216,184,59711,2,0,L|172:188,1,42.1875016093255,2|0,0:0|0:0,0:0:0:0:
245,278,59884,2,0,L|289:282,1,42.1875016093255,10|0,0:0|0:0,0:0:0:0:
156,272,60056,2,0,P|110:277|72:304,1,84.3750032186509,2|8,0:0|3:0,0:0:0:0:
144,368,60401,1,2,0:0:0:0:
173,187,60573,5,10,0:0:0:0:
168,160,60660,1,2,0:0:0:0:
156,140,60746,1,2,0:0:0:0:
136,124,60832,1,2,0:0:0:0:
112,120,60918,6,0,P|72:104|36:32,1,126.562504827976,14|0,3:0|0:0,0:0:0:0:
124,32,61263,2,0,L|208:36,1,84.3750032186509,10|2,0:0|0:0,0:0:0:0:
332,48,61608,1,10,3:0:0:0:
276,176,61780,1,2,0:0:0:0:
272,152,61866,1,0,0:0:0:0:
268,128,61953,1,8,0:0:0:0:
416,112,62125,2,0,L|408:196,1,84.3750032186509,2|14,0:0|3:0,0:0:0:0:
392,336,62470,6,0,P|436:304|504:312,1,112.5,2|10,0:0|0:0,0:0:0:0:
304,256,62815,2,0,P|248:258|203:226,1,112.5,2|10,0:0|3:0,0:0:0:0:
104,300,63160,1,2,0:0:0:0:
48,196,63332,2,0,L|60:28,1,168.75,10|0,0:0|0:0,0:0:0:0:
72,16,63677,6,0,B|122:77|205:40|205:40|276:7|328:59,1,281.25,14|8,3:0|0:0,0:0:0:0:
256,124,64194,1,2,0:0:0:0:
399,25,64366,6,0,P|407:53|403:85,1,56.25,14|0,3:0|0:0,0:0:0:0:
357,152,64539,2,0,P|302:153|255:123,1,112.5,2|8,0:0|0:0,0:0:0:0:
440,148,64884,2,0,P|469:146|495:156,1,56.25,2|0,0:0|0:0,0:0:0:0:
457,223,65056,1,14,3:0:0:0:
256,192,65142,12,0,66263,0:0:0:0:
132,76,66435,6,0,L|128:132,1,56.25,14|2,3:0|0:0,0:0:0:0:
156,212,66780,2,0,L|152:268,1,56.25,10|2,3:0|0:0,0:0:0:0:
196,340,67125,1,10,3:0:0:0:
196,340,67297,1,2,0:0:0:0:
240,268,67470,1,10,3:0:0:0:
112,344,67642,1,2,0:0:0:0:
252,260,67815,6,0,L|308:264,1,56.25,10|2,3:0|0:0,0:0:0:0:
348,268,68073,1,0,0:0:0:0:
348,268,68160,2,0,L|404:272,1,56.25,10|2,3:0|0:0,0:0:0:0:
476,316,68504,2,0,P|488:288|488:256,2,56.25,10|2|10,3:0|0:0|3:0,0:0:0:0:
404,360,69022,1,2,0:0:0:0:
348,268,69194,6,0,P|349:240|361:214,1,56.25,10|2,3:0|0:0,0:0:0:0:
372,109,69539,2,0,P|395:125|412:148,1,56.25,10|2,3:0|0:0,0:0:0:0:
496,208,69884,2,0,P|471:221|444:224,1,56.25,10|2,3:0|0:0,0:0:0:0:
276,204,70229,1,10,3:0:0:0:
276,204,70401,1,2,0:0:0:0:
356,292,70573,6,0,L|352:348,2,56.25,10|2|10,3:0|0:0|3:0,0:0:0:0:
360,208,71091,1,2,0:0:0:0:
276,204,71263,2,0,P|248:206|221:198,1,56.25,10|2,3:0|0:0,0:0:0:0:
216,300,71608,2,0,P|242:292|270:294,1,56.25,10|2,3:0|0:0,0:0:0:0:
356,292,71953,5,14,3:0:0:0:
356,292,72125,1,2,0:0:0:0:
440,284,72297,2,0,L|496:280,1,56.25,10|2,3:0|0:0,0:0:0:0:
412,204,72642,2,0,L|468:200,1,56.25,10|2,3:0|0:0,0:0:0:0:
384,128,72987,1,10,3:0:0:0:
384,128,73160,1,2,0:0:0:0:
320,196,73332,6,0,P|299:176|287:149,1,56.25,10|2,3:0|0:0,0:0:0:0:
288,128,73591,1,2,0:0:0:0:
288,128,73677,2,0,P|291:100|305:75,1,56.25,10|2,3:0|0:0,0:0:0:0:
380,36,74022,1,10,3:0:0:0:
384,128,74194,1,2,0:0:0:0:
320,196,74366,1,10,3:0:0:0:
460,80,74539,1,2,0:0:0:0:
468,164,74711,6,0,L|464:220,1,56.25,10|2,3:0|0:0,0:0:0:0:
388,308,75056,2,0,L|384:252,1,56.25,10|2,3:0|0:0,0:0:0:0:
476,308,75401,1,10,3:0:0:0:
476,308,75573,1,2,0:0:0:0:
392,384,75746,2,0,P|360:380|336:364,1,56.25,10|2,3:0|0:0,0:0:0:0:
300,292,76091,5,10,3:0:0:0:
300,292,76263,1,2,0:0:0:0:
384,296,76435,1,10,3:0:0:0:
384,296,76608,1,2,0:0:0:0:
340,368,76780,1,10,3:0:0:0:
216,288,76953,1,2,0:0:0:0:
344,224,77125,1,10,3:0:0:0:
252,368,77297,1,2,0:0:0:0:
236,156,77470,6,0,L|240:44,1,112.5,14|2,0:0|0:0,0:0:0:0:
344,232,77815,2,0,L|348:120,1,112.5,10|2,0:0|0:0,0:0:0:0:
452,296,78160,1,10,0:0:0:0:
460,168,78332,1,2,0:0:0:0:
220,284,78504,1,10,0:0:0:0:
344,232,78677,1,2,0:0:0:0:
236,156,78849,5,10,0:0:0:0:
136,332,79022,1,2,0:0:0:0:
136,332,79108,1,2,0:0:0:0:
136,332,79194,1,10,0:0:0:0:
324,356,79366,1,2,0:0:0:0:
121,332,79539,2,0,L|9:336,1,112.5,10|2,0:0|0:0,0:0:0:0:
236,156,79884,2,0,P|252:200|240:268,1,112.5,10|2,0:0|0:0,0:0:0:0:
64,216,80229,6,0,P|48:172|60:104,1,112.5,14|2,0:0|0:0,0:0:0:0:
136,4,80573,1,10,0:0:0:0:
136,4,80746,1,2,0:0:0:0:
140,160,80918,1,10,0:0:0:0:
44,20,81091,1,2,0:0:0:0:
200,84,81263,2,0,L|312:80,1,112.5,10|2,0:0|0:0,0:0:0:0:
440,192,81608,6,0,P|468:160|484:92,2,112.5,10|2|10,0:0|0:0|0:0,0:0:0:0:
312,80,82125,1,2,0:0:0:0:
452,8,82297,1,10,0:0:0:0:
512,156,82470,1,2,0:0:0:0:
457,18,82642,1,10,0:0:0:0:
360,0,82815,1,2,0:0:0:0:
312,80,82987,6,0,B|256:109|256:109|234:171,1,123.75000377655,14|10,0:0|0:0,0:0:0:0:
184,344,83332,2,0,B|239:314|239:314|261:252,1,123.75000377655,10|10,0:0|0:0,0:0:0:0:
76,224,83677,1,10,0:0:0:0:
260,204,83849,1,10,0:0:0:0:
64,224,84022,1,10,0:0:0:0:
304,364,84194,1,10,0:0:0:0:
256,184,84366,5,14,0:0:0:0:
112,300,84539,1,10,0:0:0:0:
263,175,84711,2,0,B|267:111|267:111|235:59,1,123.75000377655,10|10,0:0|0:0,0:0:0:0:
52,76,85056,1,10,0:0:0:0:
180,136,85229,1,10,0:0:0:0:
44,72,85401,1,10,0:0:0:0:
236,61,85573,1,10,0:0:0:0:
280,316,85746,5,14,0:0:0:0:
228,296,85832,1,8,0:0:0:0:
204,248,85918,1,10,0:0:0:0:
212,192,86004,1,8,0:0:0:0:
256,156,86091,1,10,0:0:0:0:
312,152,86177,1,8,0:0:0:0:
360,184,86263,1,10,0:0:0:0:
376,236,86349,1,8,0:0:0:0:
352,283,86435,5,14,0:0:0:0:
335,266,86522,1,8,0:0:0:0:
321,245,86608,1,10,0:0:0:0:
311,223,86694,1,8,0:0:0:0:
305,200,86780,1,10,0:0:0:0:
306,175,86866,1,8,0:0:0:0:
312,152,86953,1,10,0:0:0:0:
324,133,87039,1,8,0:0:0:0:
340,116,87125,5,10,0:0:0:0:
352,120,87211,1,10,0:0:0:0:
364,124,87297,2,0,L|380:120,1,14.0625,10|10,0:0|0:0,0:0:0:0:
352,283,87470,5,10,0:0:0:0:
368,267,87556,1,10,0:0:0:0:
384,251,87642,2,0,L|392:223,1,28.125,10|10,0:0|0:0,0:0:0:0:
256,284,87815,5,10,0:0:0:0:
272,346,87901,1,10,0:0:0:0:
326,377,87987,1,10,0:0:0:0:
389,373,88073,1,10,0:0:0:0:
352,283,88160,6,0,B|348:260|348:260|352:236|352:236|348:212,1,70.3125,10|0,0:0|0:0,0:0:0:0:
328,72,88332,1,2,0:0:0:0:
236,68,88504,6,0,B|232:128|284:169|328:166|328:166|341:172|341:172|352:162|352:162|391:152|421:115|425:62,1,253.125009655953,14|0,3:0|0:0,0:0:0:0:
409,38,88849,6,0,P|417:79|408:119,1,84.3750032186509,10|0,0:0|0:0,0:0:0:0:
428,236,89022,2,0,L|440:320,1,84.3750032186509,6|0,0:0|0:0,0:0:0:0:
442,330,89366,6,0,B|358:334|358:334|324:302|324:302|322:297|322:297|318:297|318:297|290:270|290:270|214:266,1,253.125009655953,10|0,0:0|0:0,0:0:0:0:
208,292,89711,2,0,L|292:296,1,84.3750032186509,2|0,0:0|0:0,0:0:0:0:
116,228,89884,6,0,P|124:352|124:364,1,126.562504827976,10|0,3:0|0:0,0:0:0:0:
100,232,90229,6,0,P|100:188|104:148,1,84.3750032186509,10|0,0:0|0:0,0:0:0:0:
88,44,90401,2,0,B|116:40|116:40|144:48|144:48|172:44,1,84.3750032186509,14|0,3:0|0:0,0:0:0:0:
184,42,90746,6,0,B|228:46|256:70|264:110|264:110|272:150|300:182|344:190|376:182,1,253.125009655953,10|0,0:0|0:0,0:0:0:0:
356,96,91091,1,10,3:0:0:0:
356,96,91177,1,2,0:0:0:0:
356,96,91263,6,0,B|297:93|274:137|274:137|302:191|383:220|462:149|440:72,1,295.312502816319,14|2,3:0|0:0,0:0:0:0:
424,40,91608,6,0,P|442:86|434:133,1,98.4375009387732,10|0,0:0|0:0,0:0:0:0:
428,248,91780,2,0,L|426:348,1,98.4375009387732,6|0,0:0|0:0,0:0:0:0:
426,360,92125,6,2,L|476:356,6,49.2187504693866,10|2|2|2|2|2|2,0:0|0:0|0:0|0:0|0:0|0:0|0:0,0:0:0:0:
306,287,92470,2,0,P|289:325|288:384,1,98.4375009387732,2|0,0:0|0:0,0:0:0:0:
352,216,92642,6,0,P|295:243|232:239,1,126.562504827976,10|0,3:0|0:0,0:0:0:0:
144,228,92987,6,0,P|185:224|225:236,1,84.3750032186509,10|0,0:0|0:0,0:0:0:0:
168,332,93160,2,0,B|141:328|141:328|113:336|113:336|85:332,1,84.3750032186509,14|0,3:0|0:0,0:0:0:0:
72,328,93504,6,0,B|56:320|56:320|108:312,1,70.3125,10|0,3:0|0:0,0:0:0:0:
280,360,93677,2,0,B|296:352|296:352|244:344,1,70.3125,10|0,0:0|0:0,0:0:0:0:
192,248,93849,2,0,B|179:241|179:241|220:235,1,56.25,2|0,0:0|0:0,0:0:0:0:
48,216,94022,6,0,B|36:56|36:56|112:116,1,253.125009655953,14|0,3:0|0:0,0:0:0:0:
163,49,94366,6,0,L|108:114,1,84.3750032186509,10|0,0:0|0:0,0:0:0:0:
180,200,94539,2,0,P|220:188|264:196,1,84.3750032186509,6|0,0:0|0:0,0:0:0:0:
272,198,94884,6,0,B|324:212|375:184|397:134|381:83|333:65|297:90|292:121,1,253.125009655953,10|0,0:0|0:0,0:0:0:0:
452,152,95229,2,0,P|452:108|432:60,1,84.3750032186509,2|0,0:0|0:0,0:0:0:0:
387,255,95401,6,0,P|431:210|451:151,1,126.562504827976,10|0,3:0|0:0,0:0:0:0:
376,260,95746,6,0,P|376:304|380:344,1,84.3750032186509,10|0,0:0|0:0,0:0:0:0:
260,312,95918,2,0,B|233:315|233:315|205:307|205:307|177:311,1,84.3750032186509,14|0,3:0|0:0,0:0:0:0:
164,314,96263,6,2,L|161:357,6,42.1875016093255,10|2|2|2|2|2|2,0:0|0:0|0:0|0:0|0:0|0:0|0:0,0:0:0:0:
91,265,96608,2,0,L|55:243,1,42.1875016093255,10|2,3:0|0:0,0:0:0:0:
144,230,96694,2,0,L|139:189,1,42.1875016093255,10|2,3:0|0:0,0:0:0:0:
205,238,96780,6,0,B|241:162|241:162|298:182|337:235|305:312,1,253.125009655953,14|0,3:0|0:0,0:0:0:0:
286,378,97125,2,0,P|251:358|227:318,1,84.3750032186509,10|0,0:0|0:0,0:0:0:0:
302,98,97297,6,0,P|355:139|376:353,1,295.312502816319,14|0,3:0|0:0,0:0:0:0:
370,362,97642,1,10,0:0:0:0:
137,369,97815,6,0,B|92:323|106:256|106:256|94:234|94:234|111:215|111:215|114:142|171:110|171:110|179:86|179:86|208:95|208:95|263:75|321:106,1,450,14|2,3:0|0:0,0:0:0:0:
308,300,98332,6,0,B|256:320|256:320|206:293,1,112.5,10|0,3:0|0:0,0:0:0:0:
324,200,98504,2,0,B|384:208|420:256|420:316|392:360|392:360|476:352|476:352|488:328|488:308,1,337.5,10|0,0:0|0:0,0:0:0:0:
468,192,98849,5,10,3:0:0:0:
456,136,98935,1,2,0:0:0:0:
448,56,99022,2,0,P|452:24|464:0,1,56.25,10|10,3:0|3:0,0:0:0:0:
456,136,99194,6,0,P|404:124|372:80,1,84.375,10|0,0:0|0:0,0:0:0:0:
374,93,99539,6,0,B|334:57|278:53|238:85|234:145|234:145|270:149|294:125,1,253.125009655953,14|0,3:0|0:0,0:0:0:0:
260,48,99884,6,0,P|244:24|192:0,1,84.3750032186509,10|0,0:0|0:0,0:0:0:0:
32,16,100056,2,0,P|48:56|40:100,1,84.3750032186509,6|0,0:0|0:0,0:0:0:0:
112,140,100229,5,0,0:0:0:0:
120,136,100315,1,0,0:0:0:0:
36,108,100401,2,0,B|20:124|14:150|22:172|41:188|41:188|60:204|72:232|64:260,1,168.750006437302,10|0,3:0|0:0,0:0:0:0:
21,316,100573,2,0,P|-4:283|-6:242,1,84.3750032186509,10|0,0:0|0:0,0:0:0:0:
112,140,100746,2,0,P|153:133|191:150,1,84.3750032186509,2|0,0:0|0:0,0:0:0:0:
244,300,100918,6,0,P|193:336|131:335,1,126.562504827976,10|0,3:0|0:0,0:0:0:0:
103,260,101263,6,0,P|128:293|131:334,1,84.3750032186509,10|0,0:0|0:0,0:0:0:0:
152,196,101435,2,0,B|148:169|148:169|133:144|133:144|130:116,1,84.3750032186509,14|0,3:0|0:0,0:0:0:0:
104,24,101608,5,0,0:0:0:0:
112,20,101694,1,0,0:0:0:0:
128,104,101780,2,0,L|212:112,1,84.3750032186509,10|0,3:0|0:0,0:0:0:0:
288,56,101953,6,2,L|328:32,1,42.1875016093255,10|2,0:0|0:0,0:0:0:0:
308,100,102039,2,2,L|356:100,1,42.1875016093255
300,148,102125,2,2,L|340:168,1,42.1875016093255
268,188,102211,2,2,L|292:224,1,42.1875016093255
220,204,102297,6,0,B|216:260|216:260|240:328|240:328|236:388|236:388|216:360|216:360|220:292|220:292,1,253.125009655953,14|0,3:0|0:0,0:0:0:0:
304,248,102642,6,0,B|348:252|348:252|380:276,1,84.3750032186509,10|0,0:0|0:0,0:0:0:0:
472,356,102815,2,0,L|476:272,1,84.3750032186509,6|0,0:0|0:0,0:0:0:0:
380,276,102987,5,0,0:0:0:0:
388,272,103073,1,0,0:0:0:0:
477,257,103160,2,0,B|473:229|473:229|463:221|463:221|470:211|470:211|466:181,1,84.3750032186509,10|0,3:0|0:0,0:0:0:0:
352,32,103332,2,0,B|348:72|348:72|356:76|356:76|352:112,1,84.3750032186509,10|0,0:0|0:0,0:0:0:0:
220,204,103504,2,0,B|216:168|216:168|224:164|224:164|220:124,1,84.3750032186509,2|0,0:0|0:0,0:0:0:0:
72,44,103677,6,0,P|80:120|80:172,1,126.562504827976,10|0,3:0|0:0,0:0:0:0:
75,267,104022,6,0,P|71:225|76:184,1,84.3750032186509,10|0,0:0|0:0,0:0:0:0:
268,208,104194,2,0,B|241:211|241:211|216:226|216:226|188:229,1,84.3750032186509,14|0,3:0|0:0,0:0:0:0:
328,312,104366,5,8,0:0:0:0:
244,324,104453,1,8,0:0:0:0:
160,332,104539,2,0,L|176:276,1,56.25,10|0,3:0|0:0,0:0:0:0:
252,153,104711,2,0,L|267:207,1,56.25,10|0,0:0|0:0,0:0:0:0:
313,366,104884,2,0,L|328:311,1,56.25,2|0,0:0|0:0,0:0:0:0:
388,164,105056,6,0,B|404:220|404:220|444:212|472:180|476:132|444:92|392:88,1,253.125009655953,14|0,3:0|0:0,0:0:0:0:
322,121,105401,6,0,P|354:94|395:88,1,84.3750032186509,10|0,0:0|0:0,0:0:0:0:
267,207,105573,2,0,L|184:224,1,84.3750032186509,6|0,0:0|0:0,0:0:0:0:
92,164,105746,5,0,0:0:0:0:
96,156,105832,1,0,0:0:0:0:
100,244,105918,2,0,P|104:288|88:324,1,84.3750032186509,10|0,3:0|0:0,0:0:0:0:
208,328,106091,2,0,P|247:309|287:311,1,84.3750032186509,10|0,0:0|0:0,0:0:0:0:
404,276,106263,2,0,P|372:248|359:208,1,84.3750032186509,2|0,0:0|0:0,0:0:0:0:
408,136,106435,6,0,P|376:156|288:156,1,126.562504827976,10|0,3:0|0:0,0:0:0:0:
196,144,106780,2,0,P|237:137|277:149,1,84.3750032186509,10|0,0:0|0:0,0:0:0:0:
224,320,106953,2,0,B|221:293|221:293|231:265|231:265|228:237,1,84.3750032186509,14|0,3:0|0:0,0:0:0:0:
316,336,107125,5,0,0:0:0:0:
312,344,107211,1,0,0:0:0:0:
316,252,107297,2,0,B|358:248|358:248|381:284,1,84.3750032186509,10|0,3:0|0:0,0:0:0:0:
444,232,107470,6,2,L|484:212,1,42.1875016093255,10|2,0:0|0:0,0:0:0:0:
416,184,107556,2,2,L|440:148,1,42.1875016093255
364,168,107642,2,2,L|364:123,1,42.1875016093255
312,172,107728,2,2,L|288:136,1,42.1875016093255
240,216,107815,6,0,B|200:240|200:292|200:292|212:356|292:340|260:272|200:292|200:292|168:300|148:324|148:324|143:300|152:284,1,337.500012874604,14|0,3:0|0:0,0:0:0:0:
190,189,108160,6,0,P|157:235|149:290,1,112.5,10|0,0:0|0:0,0:0:0:0:
316,252,108332,2,0,P|324:212|288:148,1,112.5,6|0,0:0|0:0,0:0:0:0:
216,92,108504,1,0,0:0:0:0:
208,96,108591,1,0,0:0:0:0:
304,60,108677,6,0,B|348:64|348:64|360:60|360:60|372:66|372:66|440:72,1,112.5,10|0,3:0|0:0,0:0:0:0:
512,148,108849,2,0,B|480:152|480:152|440:168|440:168|404:172,1,112.5,10|0,0:0|0:0,0:0:0:0:
207,227,109022,2,0,B|239:231|239:231|279:247|279:247|315:251,1,112.5,2|0,0:0|0:0,0:0:0:0:
160,312,109194,6,0,B|220:320|220:320|260:344|260:344|324:352,1,168.75,10|0,3:0|0:0,0:0:0:0:
296,364,109539,2,0,B|252:356|252:356|220:336|220:336|160:328,1,126.562504827976,10|0,3:0|0:0,0:0:0:0:
124,196,109884,6,0,B|108:180|132:164|152:164|172:196|156:224|128:236|128:236|88:248|76:284|80:316,1,210.9375,10|0,3:0|0:0,0:0:0:0:
160,312,110229,6,2,L|176:308,1,14.0625
188,312,110315,2,2,L|204:296,1,21.0937508046627
216,292,110401,2,2,L|224:264,1,28.125
236,256,110487,2,2,L|228:220,1,35.15625
224,208,110573,6,0,L|280:212,1,56.25,6|0,0:0|0:0,0:0:0:0:
368,288,110918,2,0,L|312:292,1,56.25,10|0,0:0|0:0,0:0:0:0:
360,204,111263,1,2,0:0:0:0:
432,236,111435,1,2,0:0:0:0:
428,156,111608,2,0,L|424:100,2,56.25,10|2|0,0:0|0:0|0:0,0:0:0:0:
368,288,112125,5,2,0:0:0:0:
288,292,112297,2,0,L|232:296,1,56.25,10|0,0:0|0:0,0:0:0:0:
152,304,112642,1,2,0:0:0:0:
144,224,112815,1,2,0:0:0:0:
224,216,112987,1,10,0:0:0:0:
231,296,113160,1,0,0:0:0:0:
60,216,113332,6,0,P|68:184|84:164,1,56.25,2|2,0:0|0:0,0:0:0:0:
198,218,113677,2,0,P|166:227|140:223,1,56.25,10|2,0:0|0:0,0:0:0:0:
132,100,114022,2,0,P|155:122|165:146,1,56.25,2|2,0:0|0:0,0:0:0:0:
60,216,114366,1,10,0:0:0:0:
80,40,114539,6,0,B|100:20|132:20|132:20|164:20|184:0,1,112.5,2|2,0:0|0:0,0:0:0:0:
184,12,114970,1,2,0:0:0:0:
188,24,115056,1,10,0:0:0:0:
243,115,115229,2,0,P|247:170|216:216,1,112.5,2|2,0:0|0:0,0:0:0:0:
164,148,115746,1,10,0:0:0:0:
176,292,115918,6,0,L|180:348,1,56.25,2|0,0:0|0:0,0:0:0:0:
216,215,116263,2,0,L|212:159,1,56.25,2|8,0:0|0:0,0:0:0:0:
292,256,116608,2,0,L|300:368,1,112.5,2|0,0:0|0:0,0:0:0:0:
396,300,117125,1,10,0:0:0:0:
388,220,117297,6,0,P|352:176|300:160,1,112.5,2|2,0:0|0:0,0:0:0:0:
288,164,117729,1,2,0:0:0:0:
276,168,117815,1,10,0:0:0:0:
436,144,117987,6,0,P|485:116|510:67,1,112.5,2|0,0:0|0:0,0:0:0:0:
412,44,118504,1,10,0:0:0:0:
436,144,118677,2,0,P|460:160|488:168,1,56.25,2|0,0:0|0:0,0:0:0:0:
380,220,119022,2,0,P|356:204|329:196,1,56.25,2|8,0:0|0:0,0:0:0:0:
344,304,119366,2,0,P|368:320|396:328,1,56.25,2|0,0:0|0:0,0:0:0:0:
288,376,119711,2,0,P|264:360|236:352,1,56.25,2|8,0:0|0:0,0:0:0:0:
160,352,120056,6,0,L|156:296,1,56.25,2|0,0:0|0:0,0:0:0:0:
233,296,120401,2,0,L|237:352,2,56.25,2|8|0,0:0|0:0|0:0,0:0:0:0:
244,216,120918,2,0,P|192:200|136:220,1,112.5,2|10,0:0|0:0,0:0:0:0:
124,220,121349,2,2,L|100:224,4,14.0625
138,218,121608,6,0,P|150:170|112:96,2,134.999995880127,2|8|0,0:0|0:0|0:0,0:0:0:0:
88,300,122470,1,2,0:0:0:0:
44,216,122642,1,10,0:0:0:0:
176,296,122815,6,0,L|312:288,1,134.999995880127,2|2,0:0|0:0,0:0:0:0:
364,212,123332,1,10,0:0:0:0:
457,215,123504,2,0,P|450:247|432:276,1,67.4999979400635,2|0,0:0|0:0,0:0:0:0:
320,132,123849,2,0,P|351:121|385:123,2,67.4999979400635,2|10|2,0:0|0:0|0:0,0:0:0:0:
310,288,124366,6,0,P|284:265|269:235,1,67.4999979400635,2|2,0:0|0:0,0:0:0:0:
228,96,124711,2,0,L|224:164,1,67.4999979400635,10|0,0:0|0:0,0:0:0:0:
132,284,125056,2,0,P|157:261|172:231,1,67.4999979400635,2|2,0:0|0:0,0:0:0:0:
96,88,125401,1,10,0:0:0:0:
88,211,125573,6,0,P|49:265|60:330,1,134.999995880127,2|2,0:0|0:0,0:0:0:0:
80,352,126004,1,2,0:0:0:0:
80,352,126091,1,10,0:0:0:0:
132,288,126263,2,0,B|168:264|212:284|212:284|253:303|293:283,1,168.749994850159,2|0,0:0|0:0,0:0:0:0:
254,179,126780,2,2,L|251:213,3,33.7499989700318,10|2|2|2,0:0|0:0|0:0|0:0,0:0:0:0:
360,332,127125,5,2,0:0:0:0:
376,312,127211,1,2,0:0:0:0:
380,288,127297,1,2,0:0:0:0:
380,264,127384,1,2,0:0:0:0:
372,244,127470,2,0,L|376:208,1,33.7499989700318,10|2,0:0|0:0,0:0:0:0:
416,144,127642,2,0,L|420:108,1,33.7499989700318,2|2,0:0|0:0,0:0:0:0:
476,52,127815,5,2,0:0:0:0:
456,36,127901,1,2,0:0:0:0:
432,32,127987,1,2,0:0:0:0:
408,32,128073,1,2,0:0:0:0:
384,40,128160,5,10,0:0:0:0:
360,49,128247,1,2,0:0:0:0:
332,49,128333,1,2,0:0:0:0:
304,44,128419,1,2,0:0:0:0:
284,32,128504,6,2,P|263:31|243:35,3,33.7499989700318
168,24,128849,2,0,P|148:32|132:48,1,33.7499989700318,10|2,0:0|0:0,0:0:0:0:
64,72,129022,1,2,0:0:0:0:
88,104,129108,1,2,0:0:0:0:
124,120,129194,5,2,0:0:0:0:
100,124,129280,1,2,0:0:0:0:
80,136,129366,1,2,0:0:0:0:
64,156,129453,1,2,0:0:0:0:
56,180,129539,5,10,0:0:0:0:
94,172,129625,1,2,0:0:0:0:
127,153,129711,1,2,0:0:0:0:
153,119,129798,1,2,0:0:0:0:
165,81,129884,6,0,L|168:48,1,33.7499989700318,2|2,0:0|0:0,0:0:0:0:
244,124,130056,2,0,L|241:157,1,33.7499989700318,2|2,0:0|0:0,0:0:0:0:
332,96,130229,1,10,0:0:0:0:
336,72,130315,1,2,0:0:0:0:
340,48,130401,1,2,0:0:0:0:
364,80,130487,1,2,0:0:0:0:
388,112,130573,5,2,0:0:0:0:
408,100,130660,1,2,0:0:0:0:
432,96,130746,1,2,0:0:0:0:
456,100,130832,1,2,0:0:0:0:
476,112,130918,1,10,0:0:0:0:
494,132,131005,1,2,0:0:0:0:
504,164,131091,1,2,0:0:0:0:
505,193,131177,1,2,0:0:0:0:
494,222,131263,5,2,0:0:0:0:
460,244,131349,1,2,0:0:0:0:
420,248,131435,1,2,0:0:0:0:
384,232,131522,1,2,0:0:0:0:
344,224,131608,1,10,0:0:0:0:
304,232,131694,1,2,0:0:0:0:
272,256,131780,1,2,0:0:0:0:
252,292,131866,1,2,0:0:0:0:
248,332,131953,5,2,0:0:0:0:
288,304,132039,1,2,0:0:0:0:
272,256,132125,1,2,0:0:0:0:
220,256,132211,1,2,0:0:0:0:
204,304,132297,2,0,B|140:364|56:316|56:316|80:304|104:312,1,210.9375,10|0,0:0|0:0,0:0:0:0:
120,320,132642,6,0,B|96:256|152:216|152:216|208:176|184:112|184:112|120:128|112:172,1,337.500012874604,14|0,3:0|0:0,0:0:0:0:
196,288,133504,1,2,0:0:0:0:
196,288,133677,1,2,0:0:0:0:
252,228,133849,6,0,P|272:152|248:64,1,168.750006437302,2|2,0:0|0:0,0:0:0:0:
116,152,134366,1,2,0:0:0:0:
36,180,134539,2,0,P|72:224|184:204,1,168.750006437302,2|2,0:0|0:0,0:0:0:0:
142,33,135056,2,0,P|114:89|116:152,1,126.562504827976,2|2,0:0|0:0,0:0:0:0:
124,144,135401,6,0,P|144:104|148:64,1,84.3750032186509,2|2,0:0|0:0,0:0:0:0:
36,180,135746,2,0,P|40:221|60:259,1,84.3750032186509,2|2,0:0|0:0,0:0:0:0:
124,340,136091,2,0,P|168:304|272:324,1,168.750006437302,2|2,0:0|0:0,0:0:0:0:
340,384,136608,6,0,P|360:344|308:240,1,168.750006437302,2|2,0:0|0:0,0:0:0:0:
284,232,137039,1,2,0:0:0:0:
284,232,137125,1,2,0:0:0:0:
105,325,137297,2,0,B|173:317|173:317|206:330|206:330|274:322,1,168.750006437302,2|2,0:0|0:0,0:0:0:0:
444,304,137815,1,2,0:0:0:0:
284,232,137987,1,2,0:0:0:0:
105,325,138160,5,4,0:0:0:0:
196,180,138332,2,0,L|200:96,1,84.3750032186509,2|0,0:0|0:0,0:0:0:0:
296,48,138677,2,0,B|320:88|300:128|300:128|280:168|300:212,1,168.750006437302,2|0,0:0|0:0,0:0:0:0:
372,172,139194,1,2,0:0:0:0:
368,276,139366,6,0,P|313:304|256:296,1,84.3750032186509,2|0,0:0|0:0,0:0:0:0:
132,325,139711,1,2,0:0:0:0:
132,325,139797,1,2,0:0:0:0:
132,325,139884,1,2,0:0:0:0:
64,256,140056,2,0,P|118:227|220:272,1,168.750006437302,2|0,0:0|0:0,0:0:0:0:
132,325,140573,1,2,0:0:0:0:
64,256,140746,6,0,L|68:172,1,84.3750032186509,2|0,0:0|0:0,0:0:0:0:
216,120,141091,2,0,L|212:204,1,84.3750032186509,2|0,0:0|0:0,0:0:0:0:
16,100,141435,2,0,P|56:84|96:88,1,84.3750032186509,2|0,0:0|0:0,0:0:0:0:
240,288,141780,6,0,P|198:291|159:276,1,84.3750032186509,2|0,0:0|0:0,0:0:0:0:
316,120,142125,2,0,P|340:154|345:195,1,84.3750032186509,2|0,0:0|0:0,0:0:0:0:
76,188,142470,2,0,P|92:147|200:92,1,168.750006437302,2|0,0:0|0:0,0:0:0:0:
256,192,142987,12,0,143591,0:0:0:0:
167,193,143677,6,0,P|303:115|296:272,1,382.500007295609,14|8,3:0|0:0,0:0:0:0:
256,192,144539,1,2,0:0:0:0:
256,192,144711,1,2,0:0:0:0:
240,24,144884,6,0,P|188:36|96:144,1,191.250003647804,2|2,0:0|0:0,0:0:0:0:
104,260,145401,1,2,0:0:0:0:
104,260,145573,2,0,L|200:256,1,95.6250018239022,2|8,0:0|0:0,0:0:0:0:
324,248,145918,1,2,0:0:0:0:
266,136,146091,2,0,P|216:186|199:255,1,143.437502735853,2|0,0:0|0:0,0:0:0:0:
204,276,146435,5,10,3:0:0:0:
324,248,146608,1,2,0:0:0:0:
104,260,146780,5,2,0:0:0:0:
284,348,146953,1,2,0:0:0:0:
328,236,147125,6,0,L|324:140,1,95.6250018239022,10|2,0:0|0:0,0:0:0:0:
236,64,147470,5,10,0:0:0:0:
236,64,147642,2,0,P|280:92|408:52,1,191.250003647804,10|10,0:0|0:0,0:0:0:0:
508,76,148160,1,2,0:0:0:0:
492,176,148332,2,0,B|476:272|476:272,1,95.6250018239022,2|8,0:0|0:0,0:0:0:0:
484,372,148677,1,2,0:0:0:0:
452,368,148763,1,2,0:0:0:0:
420,364,148849,2,0,L|372:360,1,47.8125009119511,2|2,0:0|0:0,0:0:0:0:
248,324,149022,2,0,L|296:320,1,47.8125009119511,2|2,0:0|0:0,0:0:0:0:
364,228,149194,6,0,L|172:244,1,191.250003647804,10|0,3:0|0:0,0:0:0:0:
48,256,149711,1,2,0:0:0:0:
124,356,149884,1,10,0:0:0:0:
173,243,150056,6,0,P|160:192|88:136,1,143.437502735853,2|0,0:0|0:0,0:0:0:0:
56,124,150401,2,0,P|106:138|191:103,1,143.437502735853,10|0,3:0|0:0,0:0:0:0:
217,81,150746,2,0,P|179:117|166:208,1,143.437502735853,2|0,0:0|0:0,0:0:0:0:
170,226,151091,2,0,P|218:238|266:226,1,95.6250018239022,2|8,0:0|0:0,0:0:0:0:
372,176,151435,1,2,0:0:0:0:
476,260,151608,2,0,L|472:356,1,95.6250018239022,2|0,0:0|0:0,0:0:0:0:
363,367,151953,6,0,L|371:176,1,191.250003647804,10|2,3:0|0:0,0:0:0:0:
380,52,152470,1,0,0:0:0:0:
476,212,152642,1,10,0:0:0:0:
260,117,152815,2,0,P|310:67|380:52,1,143.437502735853,2|0,0:0|0:0,0:0:0:0:
371,175,153160,1,10,3:0:0:0:
256,192,153246,12,0,154539,0:0:0:0:
256,192,154711,5,8,0:0:0:0:
256,192,155056,1,8,0:0:0:0:
264,280,155229,2,0,L|268:336,1,56.25,2|10,0:0|0:0,0:0:0:0:
280,352,155746,1,8,0:0:0:0:
280,352,156091,5,10,0:0:0:0:
336,228,156263,1,2,0:0:0:0:
188,244,156435,1,10,0:0:0:0:
188,244,156780,2,0,P|181:201|195:161,1,84.375,10|0,0:0|0:0,0:0:0:0:
211,75,157125,2,0,P|251:91|278:123,1,84.375,10|2,0:0|0:0,0:0:0:0:
284,216,157470,5,8,0:0:0:0:
193,163,157642,1,2,0:0:0:0:
372,172,157815,2,0,L|480:176,1,84.375,10|2,0:0|0:0,0:0:0:0:
472,168,158160,1,8,0:0:0:0:
472,168,158504,1,8,0:0:0:0:
464,264,158677,2,0,L|460:320,1,56.25,2|8,0:0|0:0,0:0:0:0:
380,372,159022,5,2,0:0:0:0:
284,351,159194,2,0,P|293:325|312:304,1,56.25,10|0,0:0|0:0,0:0:0:0:
464,264,159539,2,0,P|429:270|384:256,1,84.375,10|0,0:0|0:0,0:0:0:0:
300,156,159884,2,0,P|322:182|333:229,1,84.375,10|2,0:0|0:0,0:0:0:0:
312,304,160229,5,8,0:0:0:0:
244,224,160401,1,8,0:0:0:0:
324,320,160573,1,10,0:0:0:0:
300,164,160746,1,10,0:0:0:0:
328,340,160918,1,8,0:0:0:0:
364,112,161091,1,8,0:0:0:0:
328,360,161263,5,8,0:0:0:0:
376,352,161349,1,0,0:0:0:0:
412,320,161435,1,10,0:0:0:0:
420,272,161522,1,0,0:0:0:0:
404,228,161608,5,10,0:0:0:0:
208,316,161780,1,8,0:0:0:0:
492,196,161953,1,10,0:0:0:0:
456,152,162039,1,0,0:0:0:0:
403,136,162125,1,10,0:0:0:0:
350,154,162212,1,0,0:0:0:0:
316,196,162298,5,10,0:0:0:0:
484,360,162470,1,10,0:0:0:0:
404,228,162642,1,10,0:0:0:0:
200,364,162815,1,10,0:0:0:0:
500,252,162987,5,10,0:0:0:0:
500,200,163073,1,8,0:0:0:0:
476,152,163160,1,8,0:0:0:0:
424,136,163246,1,8,0:0:0:0:
360,144,163332,5,10,0:0:0:0:
312,184,163418,1,8,0:0:0:0:
248,192,163504,1,8,0:0:0:0:
188,168,163591,1,8,0:0:0:0:
148,108,163677,5,10,0:0:0:0:
176,176,163763,1,8,0:0:0:0:
180,248,163849,1,10,0:0:0:0:
150,317,163935,1,8,0:0:0:0:
72,352,164022,5,10,0:0:0:0:
80,268,164108,1,8,0:0:0:0:
156,232,164194,1,10,0:0:0:0:
224,280,164280,1,10,0:0:0:0:
220,360,164366,6,0,P|184:352|148:312,1,86.6250026435853,8|0,0:0|0:0,0:0:0:0:
148,236,165056,5,10,3:0:0:0:
172,232,165142,1,2,3:0:0:0:
227,224,165229,2,0,B|223:242|223:242|227:260|227:260|223:278,1,56.25,10|0,3:0|0:0,0:0:0:0:
236,144,165401,5,10,0:0:0:0:
276,136,165488,1,0,0:0:0:0:
344,172,165573,5,2,0:0:0:0:
368,176,165660,1,0,0:0:0:0:
440,136,165746,6,0,P|452:176|440:220,1,84.3750032186509,14|0,3:0|0:0,0:0:0:0:
452,328,165918,2,0,P|423:358|379:370,1,84.3750032186509,2|0,0:0|0:0,0:0:0:0:
267,384,166091,2,0,B|259:324|259:324|235:288|235:288|227:224,1,168.750006437302,10|2,0:0|0:0,0:0:0:0:
428,48,166435,1,2,0:0:0:0:
376,284,166608,1,10,3:0:0:0:
276,136,166780,1,10,0:0:0:0:
501,133,166953,2,0,B|463:163|463:163|343:171,1,168.750006437302,2|10,0:0|3:0,0:0:0:0:
92,188,167297,5,2,0:0:0:0:
221,72,167470,2,0,P|253:99|275:135,1,84.3750032186509,10|0,0:0|0:0,0:0:0:0:
272,308,167642,2,0,B|205:301|181:233|181:233|149:293|73:289,1,253.125009655953,2|0,0:0|0:0,0:0:0:0:
56,288,167987,1,10,3:0:0:0:
276,212,168160,1,10,0:0:0:0:
136,108,168332,5,10,3:0:0:0:
100,140,168418,1,0,0:0:0:0:
92,188,168504,2,0,P|88:232|100:272,1,84.3750032186509,10|0,3:0|0:0,0:0:0:0:
275,135,168677,2,0,B|272:109|272:109|253:83|253:83|249:56,1,84.3750032186509,2|0,3:0|0:0,0:0:0:0:
181,234,168849,1,10,0:0:0:0:
364,256,169022,1,2,0:0:0:0:
136,108,169194,2,0,P|64:100|0:164,1,168.750006437302,2|10,0:0|3:0,0:0:0:0:
124,352,169539,1,10,0:0:0:0:
136,108,169711,1,2,0:0:0:0:
92,192,169884,6,0,B|164:220|212:162|212:162|256:108|320:128,1,253.125009655953,8|0,3:0|0:0,0:0:0:0:
300,304,170229,2,0,L|292:220,1,84.3750032186509,10|0,0:0|0:0,0:0:0:0:
144,24,170401,2,0,L|136:108,1,84.3750032186509,10|0,0:0|0:0,0:0:0:0:
376,364,170573,5,10,0:0:0:0:
380,312,170660,1,8,0:0:0:0:
384,260,170746,1,10,3:0:0:0:
124,352,170918,1,10,0:0:0:0:
468,268,171091,2,0,P|463:226|437:191,1,84.3750032186509,10|0,3:0|0:0,0:0:0:0:
224,300,171263,6,0,B|288:292|288:292|324:268|324:268|384:260,1,168.750006437302,10|2,3:0|0:0,0:0:0:0:
232,128,171608,1,10,0:0:0:0:
124,352,171780,1,2,0:0:0:0:
422,334,171953,2,0,P|454:306|467:267,1,84.3750032186509,2|0,0:0|0:0,0:0:0:0:
232,128,172125,2,0,P|239:168|267:200,1,84.3750032186509,10|0,3:0|0:0,0:0:0:0:
508,120,172297,2,0,P|468:106|427:114,1,84.3750032186509,10|0,0:0|0:0,0:0:0:0:
132,264,172470,6,0,B|192:272|192:272|228:296|228:296|292:304,1,168.750006437302,2|10,0:0|3:0,0:0:0:0:
464,188,172815,1,0,0:0:0:0:
352,57,172987,2,0,B|180:65|180:65|232:129,1,253.125009655953,10|0,0:0|0:0,0:0:0:0:
240,140,173332,6,0,B|248:100|248:100|244:56,1,84.3750032186509,2|0,0:0|0:0,0:0:0:0:
32,168,173504,2,0,B|24:208|24:208|28:252,1,84.3750032186509,10|0,3:0|0:0,0:0:0:0:
160,344,173677,1,10,0:0:0:0:
64,48,173849,1,10,0:0:0:0:
344,344,174022,6,0,P|400:324|404:156,1,253.125009655953,14|0,3:0|0:0,0:0:0:0:
340,240,174366,1,10,0:0:0:0:
193,133,174539,6,0,B|225:149|269:149|305:121|305:121|289:161|301:217|341:241,1,253.125009655953,14|0,3:0|0:0,0:0:0:0:
405,156,174884,1,10,0:0:0:0:
240,44,175056,6,0,P|336:24|408:144,1,253.125009655953,14|0,3:0|0:0,0:0:0:0:
305,121,175401,1,10,0:0:0:0:
472,228,175573,6,0,P|444:244|392:248,1,84.3750032186509,14|0,3:0|0:0,0:0:0:0:
305,121,175746,1,10,0:0:0:0:
344,368,175918,1,10,3:0:0:0:
408,141,176091,5,8,0:0:0:0:
408,84,176177,1,8,0:0:0:0:
376,36,176263,1,10,3:0:0:0:
320,16,176349,1,10,3:0:0:0:
260,24,176435,2,0,P|224:50|205:92,1,84.3750032186509,10|0,0:0|0:0,0:0:0:0:
353,210,176608,2,0,P|388:182|407:140,1,91.687499930048,10|0,3:0|0:0,0:0:0:0:
114,130,176780,6,0,P|190:186|280:156,1,196.875001877546,14|2,3:0|0:0,0:0:0:0:
24,24,177125,1,10,0:0:0:0:
0,268,177297,1,2,0:0:0:0:
207,86,177470,2,0,B|204:44|204:44|208:32|208:32|204:-32,1,98.4375009387732,2|0,0:0|0:0,0:0:0:0:
32,144,177642,1,10,3:0:0:0:
353,210,177815,1,10,0:0:0:0:
64,296,177987,6,0,P|148:342|244:328,1,196.875001877546,2|10,0:0|3:0,0:0:0:0:
368,48,178332,1,2,0:0:0:0:
28,45,178504,2,0,L|32:145,1,98.4375009387732,10|0,0:0|0:0,0:0:0:0:
46,229,178677,2,0,B|96:221|116:169|116:169|252:141|252:141|220:173|220:225|241:261|276:277,1,393.750003755093,2|10,0:0|3:0,0:0:0:0:
412,196,179194,2,0,B|383:194|383:194|347:202|347:202|315:198,1,98.4375009387732,10|0,0:0|0:0,0:0:0:0:
60,320,179366,2,0,B|89:317|89:317|125:325|125:325|157:321,1,98.4375009387732,10|0,3:0|0:0,0:0:0:0:
234,128,179539,6,0,P|211:171|212:220,1,98.4375009387732,10|0,3:0|0:0,0:0:0:0:
332,96,179711,2,0,P|306:54|264:32,1,98.4375009387732,2|0,0:0|0:0,0:0:0:0:
315,198,179884,2,0,P|363:196|405:171,1,98.4375009387732,10|0,0:0|0:0,0:0:0:0:
168,56,180056,6,0,P|120:138|157:322,1,290.250004428864,2|0,0:0|0:0,0:0:0:0:
247,346,180401,1,10,3:0:0:0:
402,169,180573,2,0,P|353:170|311:195,1,98.4375009387732,10|0,0:0|0:0,0:0:0:0:
247,346,180746,2,0,P|372:319|385:269,1,196.875001877546,2|10,0:0|3:0,0:0:0:0:
328,96,181091,5,2,0:0:0:0:
293,270,181263,2,0,B|333:267|333:267|344:270|344:270|384:268,1,92.812500885129,10|0,0:0|0:0,0:0:0:0:
494,171,181435,2,0,B|454:168|454:168|443:171|443:171|402:169,1,92.812500885129,10|0,3:0|0:0,0:0:0:0:
247,346,181608,5,10,0:0:0:0:
310,358,181694,1,8,0:0:0:0:
374,354,181780,2,0,P|427:346|458:316,1,98.4375009387732,2|0,0:0|0:0,0:0:0:0:
275,169,181953,2,0,P|255:218|265:260,1,98.4375009387732,10|0,0:0|0:0,0:0:0:0:
494,171,182125,2,0,P|460:129|419:117,1,98.4375009387732,10|0,3:0|0:0,0:0:0:0:
193,329,182297,6,0,P|161:252|234:64,1,295.312502816319,14|0,3:0|0:0,0:0:0:0:
320,84,182642,1,10,0:0:0:0:
469,349,182815,6,0,B|408:305|335:345|335:345|257:384|193:329,1,295.312502816319,2|0,0:0|0:0,0:0:0:0:
271,250,183160,1,10,3:0:0:0:
423,104,183332,6,0,B|403:196|487:258|487:258|425:229|367:243,1,295.312502816319,10|0,0:0|0:0,0:0:0:0:
271,250,183677,6,0,B|267:218|267:218|280:188|280:188|275:154,1,98.4375009387732,14|0,3:0|0:0,0:0:0:0:
419,8,183849,2,0,B|415:44|415:44|428:68|428:68|424:104,1,98.4375009387732,2|0,0:0|0:0,0:0:0:0:
208,48,184022,2,0,B|244:52|244:52|268:40|268:40|304:44,1,98.4375009387732,10|0,0:0|0:0,0:0:0:0:
160,336,184194,6,0,B|151:283|151:283|163:170|163:170|158:129|158:129|124:160|76:148,1,295.312502816319
12,88,184539,2,0,B|24:72|44:64|44:64|52:60|52:60|60:64|60:64|80:60|100:64,1,98.4375009387732,10|0,3:0|0:0,0:0:0:0:
303,43,184711,2,0,B|310:61|307:82|307:82|307:91|307:91|299:96|299:96|293:115|279:131,1,98.4375009387732,10|0,0:0|0:0,0:0:0:0:
214,307,184884,2,0,B|194:304|177:291|177:291|169:286|169:286|169:277|169:277|155:262|149:242,1,98.4375009387732,10|0,3:0|0:0,0:0:0:0:
421,70,185056,6,0,B|467:83|487:134|487:134|514:148|514:148|502:171|502:171|520:234|471:288|471:288|469:313|469:313|445:320|445:320|398:370|334:345,2,450,14|10|14,3:0|0:0|3:0,0:0:0:0:
236,172,185918,2,0,B|249:187|276:190|276:190|282:198|282:198|292:198|292:198|315:204|337:189,1,112.5,10|0,3:0|0:0,0:0:0:0:
100,64,186091,2,0,B|79:48|56:55|56:55|45:54|45:54|39:63|39:63|13:66|0:81,1,112.5,10|0,0:0|0:0,0:0:0:0:
288,112,186263,1,2,0:0:0:0:
52,140,186435,6,0,B|0:172|-4:240|-4:240|-8:308|56:352|56:352|52:304|84:276,1,337.5,14|0,3:0|0:0,0:0:0:0:
144,344,186780,1,10,0:0:0:0:
100,64,186953,1,10,0:0:0:0:
219,379,187125,1,8,0:0:0:0:
224,312,187212,1,8,0:0:0:0:
176,264,187298,1,8,0:0:0:0:
108,268,187384,1,10,0:0:0:0:
39,379,187470,6,0,B|70:363|70:363|111:361|111:361|144:344,1,112.5,10|8,3:0|3:0,0:0:0:0:
284,264,187815,6,0,B|300:224|288:184|288:184|288:168|288:168|276:164|276:164|248:120|184:104|144:140,1,253.125009655953,14|0,3:0|0:0,0:0:0:0:
104,199,188160,6,0,P|118:160|151:134,1,84.3750032186509,10|0,0:0|0:0,0:0:0:0:
196,216,188332,2,0,L|176:300,1,84.3750032186509,6|0,0:0|0:0,0:0:0:0:
172,320,188677,6,0,B|256:324|256:324|290:292|290:292|292:287|292:287|296:287|296:287|324:260|324:260|400:256,1,253.125009655953,10|0,0:0|0:0,0:0:0:0:
408,284,189022,2,0,L|324:288,1,84.3750032186509,2|0,0:0|0:0,0:0:0:0:
500,228,189194,6,0,P|492:352|492:364,1,126.562504827976,10|0,3:0|0:0,0:0:0:0:
488,224,189539,6,0,P|484:176|476:140,1,84.3750032186509,10|0,0:0|0:0,0:0:0:0:
364,76,189711,2,0,B|337:79|337:79|309:71|309:71|281:75,1,84.3750032186509,14|0,3:0|0:0,0:0:0:0:
268,76,190056,6,0,B|224:80|196:104|188:144|188:144|180:184|152:216|108:224|76:216,1,253.125009655953,10|0,0:0|0:0,0:0:0:0:
96,124,190401,1,10,3:0:0:0:
98,133,190487,1,2,0:0:0:0:
85,217,190573,6,0,P|4:128|116:32,1,295.312502816319,14|0,3:0|0:0,0:0:0:0:
184,93,190918,6,0,P|144:121|95:123,1,98.4375009387732,10|0,0:0|0:0,0:0:0:0:
188,12,191091,2,0,L|288:16,1,98.4375009387732,6|0,0:0|0:0,0:0:0:0:
312,20,191435,6,2,L|316:70,6,49.2187504693866,10|2|2|2|2|2|2,0:0|0:0|0:0|0:0|0:0|0:0|0:0,0:0:0:0:
384,148,191780,2,0,P|340:172|288:168,1,98.4375009387732,2|0,0:0|0:0,0:0:0:0:
480,88,191953,6,0,P|476:108|472:216,1,126.562504827976,2|0,0:0|0:0,0:0:0:0:
476,308,192297,6,0,P|479:266|475:224,1,84.3750032186509,10|0,0:0|0:0,0:0:0:0:
291,86,192470,2,0,B|288:113|288:113|296:141|296:141|292:169,1,84.3750032186509,14|0,3:0|0:0,0:0:0:0:
292,184,192815,6,0,B|276:176|276:176|328:168,1,70.3125,10|0,3:0|0:0,0:0:0:0:
212,296,192987,2,0,B|160:288|160:288|176:280,1,70.3125,10|0,0:0|0:0,0:0:0:0:
36,184,193160,2,0,B|20:192|20:192|68:200,1,56.25,2|0,0:0|0:0,0:0:0:0:
212,76,193332,6,0,B|160:12|160:12|168:184,1,253.125009655953,14|0,3:0|0:0,0:0:0:0:
175,280,193677,6,0,P|184:240|168:196,1,84.3750032186509,10|0,0:0|0:0,0:0:0:0:
76,28,193849,2,0,L|80:112,1,84.3750032186509,6|0,0:0|0:0,0:0:0:0:
84,124,194194,6,0,B|132:64|204:96|204:96|268:128|316:80,1,253.125009655953,10|0,0:0|0:0,0:0:0:0:
327,0,194539,2,0,P|285:3|252:27,1,84.3750032186509,2|0,0:0|0:0,0:0:0:0:
144,296,194711,6,0,P|154:233|154:170,1,126.562504827976,2|0,0:0|0:0,0:0:0:0:
148,76,195056,6,0,P|144:117|152:159,1,84.3750032186509,10|0,0:0|0:0,0:0:0:0:
260,252,195229,2,0,B|288:255|288:255|316:247|316:247|342:250,1,84.3750032186509,14|0,3:0|0:0,0:0:0:0:
360,252,195573,6,2,L|404:244,6,42.1875016093255,10|2|2|2|2|2|2,0:0|0:0|0:0|0:0|0:0|0:0|0:0,0:0:0:0:
428,168,195918,2,2,L|440:128,1,42.1875016093255,10|2,3:0|0:0,0:0:0:0:
476,204,196004,2,2,L|512:180,1,42.1875016093255,10|2,3:0|0:0,0:0:0:0:
484,264,196091,6,0,B|468:316|468:316|324:344|324:344|284:312,1,253.125009655953,14|0,3:0|0:0,0:0:0:0:
280,216,196435,2,0,L|271:299,1,84.3750032186509,10|0,0:0|0:0,0:0:0:0:
376,232,196608,6,0,P|304:124|184:204,1,295.312502816319,14|0,3:0|0:0,0:0:0:0:
280,216,196953,1,10,0:0:0:0:
484,264,197125,6,0,P|488:196|204:24,1,450,14|0,3:0|0:0,0:0:0:0:
174,215,197642,6,0,B|226:235|226:235|282:215,1,112.5,10|0,3:0|0:0,0:0:0:0:
144,124,197815,2,0,B|88:140|52:196|76:276|124:300|124:300|56:288|44:228,1,337.5,10|0,0:0|0:0,0:0:0:0:
36,92,198160,5,10,3:0:0:0:
80,60,198246,1,2,0:0:0:0:
144,24,198332,2,0,L|200:36,1,56.25,10|2,3:0|0:0,0:0:0:0:
296,68,198504,6,0,P|265:96|249:135,1,84.375,10|0,0:0|0:0,0:0:0:0:
248,152,198849,6,0,B|248:212|208:248|144:260|92:228|116:148|176:152,1,253.125009655953,14|0,3:0|0:0,0:0:0:0:
208,252,199194,6,0,P|216:296|208:336,1,84.3750032186509,10|0,0:0|0:0,0:0:0:0:
340,320,199366,2,0,L|424:312,1,84.3750032186509,6|0,0:0|0:0,0:0:0:0:
504,300,199539,1,0,0:0:0:0:
508,308,199625,1,0,0:0:0:0:
456,236,199711,6,0,B|452:200|452:200|456:192|456:192|452:152,1,84.3750032186509,10|0,3:0|0:0,0:0:0:0:
272,56,199884,2,0,B|269:84|269:84|275:111|275:111|273:140,1,84.3750032186509,10|0,0:0|0:0,0:0:0:0:
340,320,200056,2,0,B|337:291|337:291|343:264|343:264|341:235,1,84.3750032186509,2|0,0:0|0:0,0:0:0:0:
496,48,200229,6,0,P|464:52|368:52,1,126.562504827976,2|0,0:0|0:0,0:0:0:0:
272,56,200573,6,0,P|313:52|355:56,1,84.3750032186509,10|0,0:0|0:0,0:0:0:0:
460,144,200746,2,0,B|433:147|433:147|405:139|405:139|377:142,1,84.3750032186509,14|0,3:0|0:0,0:0:0:0:
292,140,200918,1,0,0:0:0:0:
284,136,201004,1,0,0:0:0:0:
328,216,201091,2,0,P|332:260|316:304,1,84.3750032186509,2|0,0:0|0:0,0:0:0:0:
224,360,201263,6,2,L|186:387,1,42.1875016093255,10|2,0:0|0:0,0:0:0:0:
199,317,201349,2,2,L|151:321,1,42.1875016093255
203,268,201435,2,2,L|161:251,1,42.1875016093255
231,226,201521,2,2,L|203:192,1,42.1875016093255
276,208,201607,6,0,B|270:152|270:152|234:89|234:89|228:29|228:29|252:53|252:53|260:121|260:121,1,253.125009655953,14|0,3:0|0:0,0:0:0:0:
176,152,201953,6,0,B|156:116|156:116|144:4,1,84.3750032186509,10|0,0:0|0:0,0:0:0:0:
340,52,202125,2,0,L|424:44,1,84.3750032186509,6|0,0:0|0:0,0:0:0:0:
512,36,202297,1,0,0:0:0:0:
508,28,202384,1,0,0:0:0:0:
512,116,202470,6,0,P|508:156|480:188,1,84.3750032186509,2|0,0:0|0:0,0:0:0:0:
304,180,202642,2,0,P|340:163|382:171,1,84.3750032186509,10|0,0:0|0:0,0:0:0:0:
464,332,202815,2,0,P|431:308|417:268,1,84.3750032186509,2|0,0:0|0:0,0:0:0:0:
308,53,202987,6,0,P|309:117|304:180,1,126.562504827976,2|0,0:0|0:0,0:0:0:0:
291,275,203332,6,0,P|291:233|300:192,1,84.3750032186509,10|0,0:0|0:0,0:0:0:0:
429,114,203504,2,0,B|457:110|457:110|485:118|485:118|511:115,1,84.3750032186509,14|0,3:0|0:0,0:0:0:0:
308,53,203677,5,8,0:0:0:0:
228,60,203763,1,8,0:0:0:0:
148,68,203849,2,0,L|92:72,1,56.25,10|0,3:0|0:0,0:0:0:0:
243,187,204022,2,0,L|299:191,1,56.25,10|0,0:0|0:0,0:0:0:0:
148,80,204194,2,0,L|92:84,1,56.25,2|0,0:0|0:0,0:0:0:0:
244,176,204366,6,0,B|328:184|328:184|388:244|388:244|472:252,1,253.125009655953,14|0,3:0|0:0,0:0:0:0:
472,168,204711,2,0,B|432:164|432:164|400:132,1,84.3750032186509,10|0,0:0|0:0,0:0:0:0:
312,96,204884,2,0,L|228:88,1,84.3750032186509,6|0,0:0|0:0,0:0:0:0:
148,80,205056,1,0,0:0:0:0:
140,72,205142,1,0,0:0:0:0:
176,156,205229,6,0,B|172:192|172:192|176:200|176:200|172:240,1,84.3750032186509,10|0,3:0|0:0,0:0:0:0:
296,344,205401,2,0,B|292:316|292:316|296:292|296:292|292:260,1,84.3750032186509,10|0,0:0|0:0,0:0:0:0:
400,132,205573,2,0,B|396:164|396:164|400:188|400:188|396:216,1,84.3750032186509,2|0,0:0|0:0,0:0:0:0:
484,360,205746,6,0,P|480:316|480:232,1,126.562504827976,2|0,0:0|0:0,0:0:0:0:
480,136,206091,6,0,P|483:177|480:224,1,84.3750032186509,10|0,0:0|0:0,0:0:0:0:
264,176,206263,2,0,B|290:172|290:172|318:180|318:180|346:177,1,84.3750032186509,14|0,3:0|0:0,0:0:0:0:
392,96,206435,1,0,0:0:0:0:
396,88,206522,1,0,0:0:0:0:
346,177,206608,6,0,P|342:219|346:260,1,84.3750032186509,2|0,0:0|0:0,0:0:0:0:
412,316,206780,6,2,L|439:353,1,42.1875016093255,10|2,0:0|0:0,0:0:0:0:
369,340,206866,2,2,L|373:387,1,42.1875016093255
320,336,206952,2,2,L|303:377,1,42.1875016093255
278,308,207038,2,2,L|244:335,1,42.1875016093255
264,260,207125,6,0,B|190:263|190:263|162:290|162:290|158:290|158:290|156:295|156:295|122:327|122:327|38:323,1,253.125009655953,14|0,3:0|0:0,0:0:0:0:
28,300,207470,6,0,L|112:304,1,84.3750032186509,10|0,0:0|0:0,0:0:0:0:
324,200,207642,2,0,P|348:240|348:276,1,84.3750032186509,6|0,0:0|0:0,0:0:0:0:
328,356,207815,1,0,0:0:0:0:
320,360,207901,1,0,0:0:0:0:
412,340,207987,6,0,B|468:344|468:344|488:364,1,84.3750032186509,10|0,3:0|0:0,0:0:0:0:
264,260,208160,2,0,B|208:256|208:256|188:236,1,84.3750032186509,10|0,0:0|0:0,0:0:0:0:
360,148,208332,2,0,B|416:152|416:152|436:172,1,84.3750032186509,2|0,0:0|0:0,0:0:0:0:
316,44,208504,6,0,B|252:52|252:52|175:40|175:40|165:44|165:44|84:32|84:32|20:40,1,295.312511265278,14|0,3:0|0:0,0:0:0:0:
75,68,209194,6,0,B|117:62|117:62|167:70|167:70|174:68|174:68|227:75|227:75|269:70,1,196.875,10|0,3:0|0:0,0:0:0:0:
290,67,209884,6,0,P|302:107|287:159,1,95.6250018239022,14|2,3:0|0:0,0:0:0:0:
208,322,210229,2,0,P|196:282|211:230,1,95.6250018239022,10|2,0:0|0:0,0:0:0:0:
360,200,210573,1,0,0:0:0:0:
324,276,210746,2,0,L|233:281,1,47.8125009119511,10|0,3:0|0:0,0:0:0:0:
360,200,210918,2,0,B|416:196|416:196|440:212|440:212|497:210,1,143.437502735853,10|0,0:0|0:0,0:0:0:0:
512,208,211263,5,10,3:0:0:0:
388,308,211435,1,0,0:0:0:0:
284,224,211608,2,0,P|280:192|284:168,1,47.8125009119511,10|0,0:0|0:0,0:0:0:0:
388,308,211780,2,0,P|352:348|308:364,1,95.6250018239022,10|0,3:0|0:0,0:0:0:0:
208,322,212125,1,10,3:0:0:0:
25,367,212297,2,0,P|56:330|100:312,1,95.6250018239022,10|0,0:0|0:0,0:0:0:0:
208,322,212642,5,10,3:0:0:0:
285,208,212815,1,0,0:0:0:0:
148,104,212987,2,0,L|152:200,1,95.6250018239022,10|0,0:0|0:0,0:0:0:0:
339,279,213332,2,0,P|323:235|284:207,1,95.6250018239022,2|10,0:0|3:0,0:0:0:0:
108,292,213677,2,0,L|252:284,1,143.437502735853,10|0,0:0|0:0,0:0:0:0:
339,279,214022,6,0,P|338:302|330:325,1,47.8125009119511,10|0,3:0|0:0,0:0:0:0:
284,207,214194,2,0,P|284:183|293:160,1,47.8125009119511,10|0,3:0|0:0,0:0:0:0:
360,204,214366,1,10,0:0:0:0:
256,368,214539,1,2,0:0:0:0:
436,360,214711,5,10,0:0:0:0:
440,312,214797,1,8,0:0:0:0:
444,264,214884,1,10,3:0:0:0:
216,252,215056,6,0,P|231:270|251:283,1,47.8125009119511,10|0,0:0|0:0,0:0:0:0:
328,192,215229,2,0,P|304:195|283:206,1,47.8125009119511,2|0,0:0|0:0,0:0:0:0:
256,368,215401,2,0,P|304:352|332:312,1,95.6250018239022,10|2,3:0|0:0,0:0:0:0:
228,120,215746,1,10,0:0:0:0:
251,283,215918,1,2,0:0:0:0:
328,192,216091,1,2,0:0:0:0:
168,208,216263,2,0,L|116:212,1,47.8125009119511,8|0,3:0|0:0,0:0:0:0:
48,280,216435,2,0,P|76:224|60:144,1,143.437502735853,10|0,0:0|0:0,0:0:0:0:
52,136,216780,5,10,3:0:0:0:
68,356,216953,1,2,0:0:0:0:
167,207,217125,2,0,P|166:178|158:151,1,47.8125009119511,10|0,0:0|0:0,0:0:0:0:
107,80,217297,2,0,P|176:63|238:96,1,143.437502735853,10|0,3:0|0:0,0:0:0:0:
162,160,217642,1,8,3:0:0:0:
52,136,217815,2,0,P|32:100|36:44,1,95.6250018239022,10|0,0:0|0:0,0:0:0:0:
256,4,218160,5,10,3:0:0:0:
108,80,218332,1,2,0:0:0:0:
264,0,218504,1,10,0:0:0:0:
34,46,218677,1,2,0:0:0:0:
272,0,218849,2,0,L|276:100,1,95.6250018239022,2|8,0:0|3:0,0:0:0:0:
288,256,219194,2,0,L|292:208,1,47.8125009119511,10|0,0:0|0:0,0:0:0:0:
180,132,219366,2,0,L|184:180,1,47.8125009119511,2|0,0:0|0:0,0:0:0:0:
368,132,219539,5,10,3:0:0:0:
368,132,219711,1,10,3:0:0:0:
180,40,219884,1,10,0:0:0:0:
192,272,220056,1,2,0:0:0:0:
280,160,220229,5,10,0:0:0:0:
292,126,220316,1,10,0:0:0:0:
293,95,220402,1,10,3:0:0:0:
285,70,220488,1,10,3:0:0:0:
272,52,220574,6,2,L|259:49,1,14.0625,10|10,0:0|0:0,0:0:0:0:
283,89,220660,2,2,L|266:97,1,18.2812491631508
314,109,220747,2,2,L|306:129,1,22.5
361,106,220833,2,2,L|368:131,1,26.7187492865324
394,84,220919,6,0,P|429:114|478:120,1,95.6250018239022,14|2,3:0|0:0,0:0:0:0:
264,228,221263,2,0,P|229:198|180:192,1,95.6250018239022,10|2,0:0|0:0,0:0:0:0:
36,208,221608,1,2,0:0:0:0:
116,320,221780,2,0,L|112:272,1,47.8125009119511,10|0,3:0|0:0,0:0:0:0:
209,55,221953,1,10,0:0:0:0:
181,191,222125,1,0,0:0:0:0:
113,59,222297,6,0,B|209:55|209:55|185:95,1,143.437502735853,10|0,3:0|0:0,0:0:0:0:
164,96,222642,2,0,L|72:100,1,47.8125009119511,10|0,0:0|0:0,0:0:0:0:
12,124,222815,2,0,P|64:128|112:200,1,143.437502735853,10|0,3:0|0:0,0:0:0:0:
46,249,223160,2,0,P|33:229|27:206,1,47.8125009119511,10|0,3:0|0:0,0:0:0:0:
192,176,223332,2,0,P|188:232|92:280,1,143.437502735853,10|0,0:0|0:0,0:0:0:0:
46,249,223677,6,0,P|92:246|122:281,1,95.6250018239022,14|0,3:0|0:0,0:0:0:0:
267,142,224022,2,0,P|238:177|192:176,1,95.6250018239022,10|2,0:0|0:0,0:0:0:0:
80,96,224366,1,2,0:0:0:0:
80,96,224539,1,10,3:0:0:0:
352,88,224711,2,0,P|360:148|320:228,1,143.437502735853,10|0,0:0|0:0,0:0:0:0:
312,232,225056,6,0,L|316:280,1,47.8125009119511,10|0,3:0|0:0,0:0:0:0:
448,240,225229,2,0,L|452:192,1,47.8125009119511,10|0,3:0|0:0,0:0:0:0:
232,260,225401,1,10,0:0:0:0:
408,336,225573,1,2,0:0:0:0:
260,172,225746,5,10,0:0:0:0:
232,212,225832,1,8,0:0:0:0:
232,260,225918,1,10,3:0:0:0:
451,192,226091,1,10,0:0:0:0:
196,128,226263,1,2,0:0:0:0:
304,344,226435,6,0,L|312:232,1,112.5,14|2,0:0|0:0,0:0:0:0:
187,15,226780,2,0,L|195:127,1,112.5,10|2,0:0|0:0,0:0:0:0:
416,256,227125,1,10,0:0:0:0:
308,108,227297,1,2,0:0:0:0:
188,248,227470,1,10,0:0:0:0:
312,231,227642,1,2,0:0:0:0:
196,128,227815,6,0,P|137:137|89:177,1,123.75000377655,14|0,0:0|0:0,0:0:0:0:
292,328,228160,2,0,P|315:273|309:207,1,123.75000377655,10|0,0:0|0:0,0:0:0:0:
44,288,228504,2,0,P|67:342|120:382,1,123.75000377655,10|0,0:0|0:0,0:0:0:0:
292,328,228849,2,0,P|352:320|409:342,1,123.75000377655,10|0,0:0|0:0,0:0:0:0:
188,248,229194,5,14,0:0:0:0:
424,352,229366,1,10,0:0:0:0:
208,376,229539,5,10,0:0:0:0:
451,192,229711,1,10,0:0:0:0:
96,328,229884,5,14,0:0:0:0:
64,283,229970,1,8,0:0:0:0:
57,229,230056,1,8,0:0:0:0:
79,179,230142,1,8,0:0:0:0:
119,142,230229,1,14,0:0:0:0:
169,128,230315,1,8,0:0:0:0:
204,89,230401,1,8,0:0:0:0:
202,38,230487,1,8,0:0:0:0:
170,0,230573,6,0,L|192:38,1,42.1875,10|0,3:0|0:0,0:0:0:0:
283,61,230918,6,2,L|295:59,6,9.8437496995926
169,128,231263,2,2,L|159:136,6,12.6562496137619
236,200,231608,6,2,L|249:204,1,14.0625
250,162,231694,2,2,L|261:175,1,16.8749994850159
283,145,231780,2,2,L|288:164,1,19.6874993991852
316,145,231866,2,2,L|318:169,1,22.5
344,156,231953,6,0,L|340:224,1,56.25,14|0,3:0|0:0,0:0:0:0:
264,344,232297,2,0,L|260:287,1,56.25,10|0,0:0|0:0,0:0:0:0:
420,268,232642,2,0,P|400:292|372:304,2,56.25,10|2|10,3:0|0:0|0:0,0:0:0:0:
244,196,233160,6,0,P|212:208|168:272,1,112.5,2|0,0:0|0:0,0:0:0:0:
160,368,233677,2,0,L|156:284,1,84.375,10|0,0:0|0:0,0:0:0:0:
156,264,234022,1,10,3:0:0:0:
64,336,234194,1,10,0:0:0:0:
261,288,234366,2,0,L|264:204,1,84.375,10|0,0:0|0:0,0:0:0:0:
264,184,234711,6,0,P|276:172|296:160,3,28.125,10|0|0|0,3:0|0:0|0:0|0:0,0:0:0:0:
328,96,235056,2,0,P|340:108|360:120,3,28.125,10|0|0|0,0:0|0:0|0:0|0:0,0:0:0:0:
356,208,235401,2,0,P|368:196|388:184,3,28.125,10|0|0|0,3:0|0:0|0:0|0:0,0:0:0:0:
428,124,235746,2,0,P|440:136|460:148,3,28.125,10|0|0|0,0:0|0:0|0:0|0:0,0:0:0:0:
488,212,236091,5,10,3:0:0:0:
488,228,236177,1,0,0:0:0:0:
484,244,236263,1,0,0:0:0:0:
476,260,236349,1,0,0:0:0:0:
468,288,236435,1,10,0:0:0:0:
454,296,236521,1,0,0:0:0:0:
438,300,236607,1,0,0:0:0:0:
420,301,236693,1,0,0:0:0:0:
392,308,236780,5,10,3:0:0:0:
378,299,236866,1,0,0:0:0:0:
366,288,236952,1,8,0:0:0:0:
356,272,237038,1,0,0:0:0:0:
364,244,237125,2,0,P|368:228|376:212,1,28.125,10|0,0:0|0:0,0:0:0:0:
449,142,237297,2,0,P|464:137|482:136,1,28.125,2|0,0:0|0:0,0:0:0:0:
348,124,237470,6,0,P|348:92|340:68,2,56.25,10|2|10,3:0|0:0|0:0,0:0:0:0:
264,108,237987,1,2,0:0:0:0:
192,60,238160,2,0,P|211:39|235:26,2,56.25,10|2|10,3:0|0:0|0:0,0:0:0:0:
264,108,238677,1,0,0:0:0:0:
191,167,238849,6,0,P|219:191|267:203,1,84.375,10|2,3:0|0:0,0:0:0:0:
188,230,239194,2,0,P|224:227|267:201,1,84.375,10|2,0:0|0:0,0:0:0:0:
249,283,239539,2,0,P|264:249|264:200,1,84.375,10|2,3:0|0:0,0:0:0:0:
326,256,239884,2,0,P|305:225|261:201,1,84.375,10|2,0:0|0:0,0:0:0:0:
342,176,240229,6,0,P|305:178|262:204,1,84.375,10|2,3:0|0:0,0:0:0:0:
281,121,240573,2,0,P|265:154|265:203,1,84.375,10|2,0:0|0:0,0:0:0:0:
203,147,240918,2,0,P|223:177|267:201,1,84.375,10|2,3:0|0:0,0:0:0:0:
182,207,241263,2,0,P|218:213|265:200,1,84.375,10|2,0:0|0:0,0:0:0:0:
157,323,241608,6,0,P|225:274|264:200,1,168.75,10|2,0:0|0:0,0:0:0:0:
423,232,241953,2,0,P|346:197|262:200,1,168.75,10|2,0:0|0:0,0:0:0:0:
209,45,242297,6,0,P|208:76|212:108,1,56.25,10|10,0:0|0:0,0:0:0:0:
230,154,242470,2,0,P|243:178|262:199,1,56.25,10|10,3:0|3:0,0:0:0:0:
304,240,242642,5,10,0:0:0:0:
336,256,242729,1,2,0:0:0:0:
368,256,242815,1,2,0:0:0:0:
400,248,242901,1,2,0:0:0:0:
422,232,242987,5,14,3:0:0:0:
352,164,243160,1,2,0:0:0:0:
261,199,243332,2,0,L|257:255,1,56.25,10|2,0:0|0:0,0:0:0:0:
352,164,243677,2,0,L|356:108,2,56.25,10|2|8,3:0|0:0|0:0,0:0:0:0:
172,192,244194,6,0,P|180:160|272:116,1,140.625,2|0,0:0|0:0,0:0:0:0:
334,164,244711,2,0,P|314:138|267:114,1,84.375,10|0,0:0|0:0,0:0:0:0:
349,100,245056,2,0,P|307:98|268:115,1,84.375,10|0,3:0|0:0,0:0:0:0:
308,52,245401,2,0,P|282:80|268:115,1,75.9374976825715,10|0,0:0|0:0,0:0:0:0:
250,50,245746,6,0,P|254:84|268:114,1,67.5,14|0,3:0|0:0,0:0:0:0:
209,81,246090,2,0,P|236:101|267:113,1,67.5,10|0,0:0|0:0,0:0:0:0:
219,126,246435,2,0,P|244:124|267:114,1,50.6249984550477,10|0,3:0|0:0,0:0:0:0:
245,149,246780,2,0,P|259:133|267:113,1,42.1875,10|0,0:0|0:0,0:0:0:0:
278,147,247125,6,0,P|274:129|266:113,1,35.4374989185334,10|0,3:0|0:0,0:0:0:0:
298,124,247470,2,0,P|283:117|267:114,2,33.7499989700318,10|10|10,0:0|3:0|0:0,0:0:0:0:
300,224,248332,1,2,0:0:0:0:
300,224,248504,6,0,L|296:252,1,28.125,14|2,3:0|0:0,0:0:0:0:
224,312,248849,2,0,L|220:284,1,28.125,10|2,0:0|0:0,0:0:0:0:
312,332,249194,2,0,L|308:360,2,28.125,10|2|10,3:0|0:0|0:0,0:0:0:0:
376,276,249711,1,2,0:0:0:0:
300,224,249884,6,0,L|244:228,1,56.25,14|0,3:0|0:0,0:0:0:0:
376,276,250229,2,0,L|432:280,1,56.25,10|0,0:0|0:0,0:0:0:0:
496,176,250573,2,0,L|384:184,1,112.5,10|8,3:0|0:0,0:0:0:0:
300,224,251091,1,2,0:0:0:0:
400,104,251263,6,0,P|408:64|396:20,1,84.3750032186509,14|0,3:0|0:0,0:0:0:0:
300,224,251608,2,0,P|289:264|297:305,1,84.3750032186509,10|2,0:0|0:0,0:0:0:0:
288,112,251953,6,0,P|221:63|138:71,1,168.75,14|0,3:0|0:0,0:0:0:0:
140,211,252297,2,0,B|172:195|172:195|188:163,1,70.3125,14|0,0:0|0:0,0:0:0:0:
28,64,252470,2,0,B|25:106|25:106|49:142,1,84.3750032186509,2|0,0:0|0:0,0:0:0:0:
139,70,252642,6,0,P|140:70|139:70,1,1.40625,14|0,0:0|0:0,0:0:0:0:
