osu file format v14

[General]
AudioFilename: audio.mp3
AudioLeadIn: 0
PreviewTime: 158189
Countdown: 0
SampleSet: Normal
StackLeniency: 0.2
Mode: 0
LetterboxInBreaks: 0
WidescreenStoryboard: 1

[Editor]
DistanceSpacing: 1.6
BeatDivisor: 4
GridSize: 4
TimelineZoom: 1

[Metadata]
Title:WABI-CIRCUIT (Original Mix)
TitleUnicode:WABI-CIRCUIT (Original Mix)
Artist:Tanchiky
ArtistUnicode:Tanchiky
Creator:NyarkoO
Version:Overcomplexification
Source:
Tags:Japanese Dubcore 2017 Hardcore 8-Bit Electronic Drumstep Bass
BeatmapID:1848317
BeatmapSetID:884237

[Difficulty]
HPDrainRate:4
CircleSize:4.2
OverallDifficulty:8.5
ApproachRate:9.6
SliderMultiplier:2.6
SliderTickRate:1

[Events]
//Background and Video events
0,0,"BG.png",0,0
//Break Periods
2,44432,53987
2,116966,124277
//Storyboard Layer 0 (Background)
//Storyboard Layer 1 (Fail)
//Storyboard Layer 2 (Pass)
//Storyboard Layer 3 (Foreground)
//Storyboard Sound Samples

[TimingPoints]
10,324.324324324324,4,1,1,30,1,0
10,-200,4,1,1,30,0,0
10388,-200,4,1,1,40,0,0
15577,-200,4,1,1,50,0,0
18172,-166.666666666667,4,1,1,65,0,0
20766,-133.333333333333,4,1,2,45,0,0
28550,-133.333333333333,4,1,2,48,0,0
31145,-133.333333333333,4,1,2,50,0,0
33739,-133.333333333333,4,1,2,53,0,0
36334,-125,4,1,2,55,0,0
37631,-117.647058823529,4,1,2,60,0,0
38928,-111.111111111111,4,1,2,62,0,0
39577,-105.263157894737,4,1,2,64,0,0
40226,-100,4,1,2,66,0,0
40550,-95.2380952380952,4,1,2,68,0,0
40874,-90.9090909090909,4,1,2,70,0,0
41199,-86.9565217391304,4,1,2,72,0,0
41523,-192.307692307692,4,1,2,50,0,0
42820,-196.078431372549,4,1,2,35,0,0
42982,-192.307692307692,4,1,2,40,0,0
43145,-188.679245283019,4,1,2,45,0,0
43307,-185.185185185185,4,1,2,50,0,0
43469,-181.818181818182,4,1,2,55,0,0
43631,-178.571428571429,4,1,2,60,0,0
43712,-178.571428571429,4,1,2,5,0,0
43753,-200,4,2,1,15,0,0
44037,-200,4,2,1,80,0,0
44118,-200,4,1,1,50,0,0
54496,-181.818181818182,4,1,3,45,0,0
63577,-181.818181818182,4,1,1,45,0,0
64550,-100,4,1,1,45,0,0
64874,-133.333333333333,4,1,2,60,0,0
67145,-66.6666666666667,4,1,2,60,0,0
67631,-100,4,1,2,60,0,0
70064,-80,4,1,2,65,0,0
72658,-133.333333333333,4,1,2,65,0,0
73955,-200,4,1,2,60,0,0
74037,-200,4,1,3,20,0,0
74928,-66.6666666666667,4,1,2,60,0,0
74969,-66.6666666666667,4,1,2,5,0,0
75253,-80,4,1,2,75,0,1
77037,-133.333333333333,4,1,2,75,0,1
77199,-80,4,1,2,75,0,1
78172,-200,4,1,2,75,0,1
78820,-181.818181818182,4,1,2,75,0,1
80442,-200,4,1,2,50,0,1
80766,-80,4,1,2,75,0,1
85631,-200,4,1,2,50,0,0
85955,-80,4,1,2,75,0,1
88550,-200,4,1,2,75,0,1
89523,-181.818181818182,4,1,2,75,0,1
90820,-68.9655172413793,4,1,2,75,0,1
93415,-100,4,1,2,75,0,1
93739,-66.6666666666667,4,1,2,75,0,1
94712,-200,4,1,3,20,0,0
95361,-133.333333333333,4,1,3,35,0,0
96009,-66.6666666666667,4,1,2,65,0,1
96496,-133.333333333333,4,1,2,65,0,1
96658,-66.6666666666667,4,1,2,65,0,0
96982,-66.6666666666667,4,1,2,65,0,1
97955,-100,4,1,2,65,0,1
98280,-100,4,1,2,65,0,0
98604,-80,4,1,2,75,0,1
101037,-80,4,1,2,75,0,0
101199,-66.6666666666667,4,1,2,65,0,1
101685,-133.333333333333,4,1,2,65,0,1
101847,-100,4,1,2,65,0,0
102172,-66.6666666666667,4,1,2,65,0,1
102820,-133.333333333333,4,1,2,65,0,1
103145,-100,4,1,2,65,0,1
103469,-100,4,1,2,65,0,0
103793,-80,4,1,2,75,0,1
104118,-74.6268656716418,4,1,2,75,0,1
104199,-80,4,1,2,75,0,1
105415,-133.333333333333,4,1,2,75,0,1
106388,-200,4,1,2,35,0,0
107037,-200,4,1,2,40,0,0
107361,-133.333333333333,4,1,2,50,0,0
108009,-133.333333333333,4,1,2,55,0,0
108334,-133.333333333333,4,1,2,60,0,0
108658,-100,4,1,2,65,0,0
108982,-80,4,1,2,75,0,1
111415,-80,4,1,2,75,0,0
111577,-66.6666666666667,4,1,2,65,0,1
112064,-133.333333333333,4,1,2,65,0,1
112226,-100,4,1,2,65,0,0
112550,-66.6666666666667,4,1,2,65,0,1
113199,-100,4,1,2,65,0,1
113523,-100,4,1,2,65,0,1
113847,-100,4,1,2,65,0,0
114172,-66.6666666666667,4,1,2,65,0,1
114982,-80,4,1,2,65,0,1
115469,-66.6666666666667,4,1,2,65,0,1
115793,-100,4,1,2,65,0,1
116766,-200,4,1,2,100,0,0
116847,-200,4,1,1,35,0,0
127145,-200,4,1,1,40,0,0
137523,-200,4,1,2,60,0,0
137604,-200,4,1,3,45,0,0
142712,-200,4,1,2,45,0,0
142793,-200,4,1,3,45,0,0
145307,-200,4,1,2,45,0,0
145388,-200,4,1,3,45,0,0
146604,-200,4,1,2,45,0,0
146685,-200,4,1,3,45,0,0
147253,-200,4,1,2,45,0,0
147334,-200,4,1,3,45,0,0
147901,-133.333333333333,4,1,2,50,0,0
153091,-125,4,1,2,55,0,0
154388,-117.647058823529,4,1,2,60,0,0
155685,-111.111111111111,4,1,2,62,0,0
156334,-105.263157894737,4,1,2,64,0,0
156983,-100,4,1,2,66,0,0
157307,-95.2380952380952,4,1,2,68,0,0
157631,-90.9090909090909,4,1,2,70,0,0
157956,-86.9565217391304,4,1,2,72,0,0
158280,-200,4,1,2,35,0,0
159253,-100,4,1,3,70,0,0
159577,-66.6666666666667,4,1,2,80,0,1
159658,-66.6666666666667,4,1,2,80,0,1
161523,-100,4,1,2,80,0,1
161847,-66.6666666666667,4,1,2,80,0,1
162172,-200,4,1,2,80,0,1
162496,-66.6666666666667,4,1,2,80,0,1
162820,-100,4,1,2,80,0,1
162982,-66.6666666666667,4,1,2,80,0,1
163145,-100,4,1,2,80,0,1
164766,-200,4,1,2,80,0,1
165090,-66.6666666666667,4,1,2,80,0,1
166712,-64.1025641025641,4,1,2,80,0,1
168658,-100,4,1,2,80,0,1
169631,-66.6666666666667,4,1,2,80,0,0
169955,-57.1428571428571,4,1,2,85,0,1
170280,-80,4,1,2,85,0,1
170442,-100,4,1,2,85,0,1
170604,-57.1428571428571,4,1,2,85,0,1
170928,-80,4,1,2,85,0,1
171091,-100,4,1,2,85,0,1
171253,-57.1428571428571,4,1,2,85,0,1
171578,-80,4,1,2,85,0,1
171740,-100,4,1,2,85,0,1
171901,-80,4,1,2,85,0,1
172226,-66.6666666666667,4,1,2,85,0,1
172550,-80,4,1,2,85,0,1
173847,-66.6666666666667,4,1,2,85,0,1
174496,-100,4,1,2,85,0,1
174820,-80,4,1,2,85,0,1
175145,-66.6666666666667,4,1,2,85,0,1
175469,-80,4,1,2,85,0,1
175793,-66.6666666666667,4,1,2,85,0,1
177739,-100,4,1,2,85,0,1
179037,-100,4,1,2,50,0,1
179685,-133.333333333333,4,1,3,25,0,1
180009,-200,4,1,3,15,0,0
180334,-133.333333333333,4,1,2,60,0,0
180658,-80,4,1,2,70,0,1
182928,-74.6268656716418,4,1,2,70,0,1
183253,-200,4,1,2,70,0,1
183577,-181.818181818182,4,1,2,70,0,1
183901,-166.666666666667,4,1,2,70,0,1
184226,-153.846153846154,4,1,2,70,0,1
184550,-142.857142857143,4,1,2,70,0,1
184874,-133.333333333333,4,1,2,70,0,1
185199,-125,4,1,2,70,0,1
185523,-200,4,1,2,70,0,1
185847,-80,4,1,2,70,0,1
188118,-66.6666666666667,4,1,2,70,0,1
189415,-80,4,1,2,70,0,1
189739,-66.6666666666667,4,1,2,70,0,1
190064,-57.1428571428571,4,1,2,70,0,1
190388,-50,4,1,2,70,0,1
190712,-200,4,1,3,60,0,0
191037,-80,4,1,2,70,0,1
193307,-80,4,1,2,60,0,1
193631,-166.666666666667,4,1,2,70,0,1
193955,-153.846153846154,4,1,2,70,0,1
194280,-142.857142857143,4,1,2,70,0,1
194604,-133.333333333333,4,1,2,70,0,1
194928,-125,4,1,2,70,0,1
195253,-117.647058823529,4,1,2,70,0,1
195577,-111.111111111111,4,1,2,70,0,1
195901,-66.6666666666667,4,1,2,80,0,1
196550,-80,4,1,2,80,0,1
198496,-66.6666666666667,4,1,2,80,0,1
199145,-62.5,4,1,2,80,0,1
199469,-58.8235294117647,4,1,2,80,0,1
199793,-200,4,1,3,20,0,0
200442,-133.333333333333,4,1,3,15,0,0
200766,-100,4,1,3,20,0,0
200847,-80,4,1,3,25,0,0
200928,-66.6666666666667,4,1,3,30,0,0
201009,-57.1428571428571,4,1,3,35,0,0
201091,-133.333333333333,4,1,2,55,0,0
206280,-142.857142857143,4,1,2,50,0,0
208874,-153.846153846154,4,1,2,45,0,0
211469,-166.666666666667,4,1,2,42,0,0
212766,-172.413793103448,4,1,2,40,0,0
214064,-178.571428571429,4,1,2,38,0,0
215361,-185.185185185185,4,1,2,36,0,0
216009,-192.307692307692,4,1,2,34,0,0
216658,-133.333333333333,4,1,2,50,0,0
217955,-100,4,1,2,55,0,0
219253,-80,4,1,2,60,0,0
219901,-66.6666666666667,4,1,2,65,0,0
220550,-57.1428571428571,4,1,2,70,0,0
220874,-50,4,1,2,72,0,0
221199,-44.4444444444445,4,1,2,74,0,0
221523,-40,4,1,2,76,0,0
221847,-400,4,1,2,80,0,0
222172,-400,4,1,2,75,0,0
222496,-400,4,1,2,70,0,0
222820,-400,4,1,2,65,0,0
223145,-400,4,1,2,60,0,0
223469,-400,4,1,2,55,0,0
223793,-400,4,1,2,50,0,0
224118,-400,4,1,2,45,0,0
224442,-400,4,1,2,40,0,0
224766,-400,4,1,2,35,0,0
225091,-400,4,1,2,30,0,0
225415,-400,4,1,2,25,0,0
225739,-400,4,1,2,20,0,0
226064,-400,4,1,2,15,0,0
226388,-400,4,1,2,10,0,0
226712,-400,4,1,2,5,0,0
227037,-400,4,2,4,5,0,0

[Colours]
Combo1 : 255,57,0
Combo2 : 227,211,198

[HitObjects]
112,232,10,6,0,P|104:188|48:124,2,130,6|10|2,0:0|0:0|0:0,0:0:0:0:
108,308,820,1,0,0:0:0:0:
180,276,982,2,0,L|244:272,1,65,10|2,0:0|0:0,0:0:0:0:
305,201,1307,6,0,B|268:203|268:203|252:199|252:199|208:202,1,97.5,2|2,0:0|0:0,0:0:0:0:
192,204,1631,1,10,0:0:0:0:
244,271,1793,1,2,0:0:0:0:
305,201,1955,2,0,L|297:105,1,65,2|2,0:0|0:0,0:0:0:0:
424,100,2280,2,0,P|408:132|384:152,1,65,10|2,0:0|0:0,0:0:0:0:
468,40,2604,6,0,P|444:28|376:44,1,97.5,2|0,0:0|0:0,0:0:0:0:
368,52,2928,2,0,L|303:57,1,65,10|0,0:0|0:0,0:0:0:0:
196,96,3253,2,0,L|204:192,1,65,2|0,0:0|0:0,0:0:0:0:
296,272,3577,2,0,L|301:207,1,65,10|2,0:0|0:0,0:0:0:0:
120,208,3901,6,0,L|132:332,1,97.5,2|2,0:0|0:0,0:0:0:0:
132,320,4226,1,10,0:0:0:0:
212,328,4388,1,2,0:0:0:0:
279,289,4550,2,0,P|257:264|227:252,1,65,2|2,0:0|0:0,0:0:0:0:
280,364,4874,1,10,0:0:0:0:
355,297,5037,1,2,0:0:0:0:
355,297,5199,6,0,L|344:168,2,130,6|14|6,0:0|0:0|0:0,0:0:0:0:
279,289,6009,1,0,0:0:0:0:
220,240,6172,2,0,L|214:175,1,65,10|2,0:0|0:0,0:0:0:0:
279,289,6496,6,0,P|216:316|180:304,1,97.5,2|2,0:0|0:0,0:0:0:0:
176,304,6820,1,10,0:0:0:0:
220,240,6982,1,2,0:0:0:0:
355,297,7145,2,0,L|364:392,1,65,2|2,0:0|0:0,0:0:0:0:
279,289,7469,1,10,0:0:0:0:
428,272,7631,1,2,0:0:0:0:
268,289,7793,6,0,L|170:288,1,97.5,2|0,0:0|0:0,0:0:0:0:
112,340,8118,2,0,P|125:297|108:246,1,97.5,10|0,0:0|0:0,0:0:0:0:
44,296,8442,1,2,0:0:0:0:
44,296,8604,1,0,0:0:0:0:
168,192,8766,2,0,P|142:172|96:168,1,65,10|2,0:0|0:0,0:0:0:0:
212,44,9091,6,0,P|149:31|96:60,1,97.5,2|2,0:0|0:0,0:0:0:0:
93,60,9415,1,10,0:0:0:0:
161,117,9577,1,2,0:0:0:0:
232,172,9739,2,0,P|248:140|248:100,1,65,2|2,0:0|0:0,0:0:0:0:
93,60,10064,2,0,P|75:86|71:119,1,65,10|2,0:0|0:0,0:0:0:0:
128,300,10388,6,0,P|141:236|112:183,1,97.5,6|0,0:0|0:0,0:0:0:0:
120,192,10712,2,0,B|91:206|91:206|56:205,1,65,14|0,0:0|0:0,0:0:0:0:
128,300,11037,1,6,0:0:0:0:
200,248,11199,1,0,0:0:0:0:
272,292,11361,2,0,L|268:356,1,65,10|2,0:0|0:0,0:0:0:0:
447,272,11685,6,0,P|423:264|355:284,1,97.5,2|2,0:0|0:0,0:0:0:0:
344,296,12009,1,8,0:0:0:0:
409,346,12172,1,2,0:0:0:0:
440,196,12334,2,0,L|432:132,1,65,2|2,0:0|0:0,0:0:0:0:
387,59,12658,2,0,P|355:55|326:69,1,65,10|2,0:0|0:0,0:0:0:0:
311,151,12982,6,0,P|374:159|431:131,2,130,2|10|2,0:0|0:0|0:0,0:0:0:0:
387,59,13793,1,0,0:0:0:0:
500,96,13955,2,0,P|509:127|504:160,1,65,10|2,0:0|0:0,0:0:0:0:
472,228,14280,6,0,P|459:274|463:323,1,97.5,2|2,0:0|0:0,0:0:0:0:
472,344,14604,2,0,L|408:348,1,65,10|2,0:0|0:0,0:0:0:0:
328,352,14928,1,2,0:0:0:0:
256,248,15091,1,2,0:0:0:0:
328,216,15253,2,0,P|335:247|324:288,1,65,10|2,0:0|0:0,0:0:0:0:
256,248,15577,6,0,L|124:244,2,130,6|10|2,0:0|0:0|0:0,0:0:0:0:
114,95,16388,1,0,0:0:0:0:
122,179,16550,2,0,L|126:243,1,65,10|2,0:0|0:0,0:0:0:0:
248,345,16874,6,0,L|256:245,1,97.5,6|2,0:0|0:0,0:0:0:0:
256,224,17199,2,0,L|352:232,1,65,10|2,0:0|0:0,0:0:0:0:
412,196,17523,1,2,0:0:0:0:
404,280,17685,1,2,0:0:0:0:
320,229,17847,1,10,0:0:0:0:
504,192,18009,1,2,0:0:0:0:
472,328,18172,6,0,P|432:360|360:352,1,116.999996429443,6|0,0:0|0:0,0:0:0:0:
352,348,18496,2,0,L|236:352,1,116.999996429443,10|0,0:0|0:0,0:0:0:0:
152,356,18820,2,0,P|164:312|196:280,1,77.999997619629,6|0,0:0|0:0,0:0:0:0:
235,352,19145,1,10,0:0:0:0:
76,360,19307,1,2,0:0:0:0:
252,232,19469,6,0,P|220:208|136:216,1,116.999996429443,6|2,0:0|0:0,0:0:0:0:
128,216,19793,2,0,P|88:220|52:208,1,77.999997619629,14|2,0:0|0:0,0:0:0:0:
98,132,20118,1,6,0:0:0:0:
252,232,20280,1,2,0:0:0:0:
160,80,20442,5,14,0:0:0:0:
188,40,20523,1,2,0:0:0:0:
240,32,20604,1,2,0:0:0:0:
288,48,20685,1,2,0:0:0:0:
308,96,20766,6,0,L|316:195,1,97.50000371933,14|0,0:0|0:0,0:0:0:0:
328,300,21091,2,0,P|364:304|420:280,1,97.50000371933,10|2,0:0|0:0,0:0:0:0:
244,256,21415,2,0,L|236:355,1,97.50000371933,8|2,0:0|0:0,0:0:0:0:
64,272,21740,2,0,P|107:293|155:291,1,97.50000371933,8|2,0:0|0:0,0:0:0:0:
244,256,22064,5,10,0:0:0:0:
120,160,22226,1,2,0:0:0:0:
120,160,22307,1,2,0:0:0:0:
120,160,22388,2,0,L|124:208,1,48.750001859665,10|0,0:0|0:0,0:0:0:0:
232,144,22550,2,0,L|224:44,1,97.50000371933,2|8,0:0|0:0,0:0:0:0:
196,220,22874,2,0,P|243:227|287:207,1,97.50000371933,2|8,0:0|0:0,0:0:0:0:
224,46,23199,1,2,0:0:0:0:
232,144,23361,6,0,P|300:124|368:184,1,146.250005578995,14|0,0:0|0:0,0:0:0:0:
336,248,23685,2,0,B|384:244|384:244|428:220|428:220|476:216,1,146.250005578995,10|0,0:0|0:0,0:0:0:0:
450,292,24009,2,0,B|427:331|448:376|448:376|388:372,1,146.250005578995,10|0,0:0|0:0,0:0:0:0:
308,364,24334,1,10,0:0:0:0:
336,248,24496,1,2,0:0:0:0:
136,296,24658,6,0,L|233:284,1,97.50000371933,10|2,0:0|0:0,0:0:0:0:
258,285,24901,1,2,0:0:0:0:
258,285,24982,2,0,P|262:237|239:194,1,97.50000371933,10|2,0:0|0:0,0:0:0:0:
164,148,25307,2,0,P|208:112|294:124,1,146.250005578995,10|0,0:0|0:0,0:0:0:0:
372,168,25631,1,10,0:0:0:0:
239,194,25793,1,10,0:0:0:0:
424,248,25955,6,0,B|420:348|420:348|392:384,1,146.250005578995,14|0,0:0|0:0,0:0:0:0:
304,376,26280,2,0,B|256:372|256:372|216:340|216:340|168:336,1,146.250005578995,10|0,0:0|0:0,0:0:0:0:
30,354,26604,2,0,B|76:357|76:357|121:332|121:332|169:335,1,146.250005578995,10|0,0:0|0:0,0:0:0:0:
288,300,26928,1,10,0:0:0:0:
60,280,27091,1,2,0:0:0:0:
136,92,27253,6,0,L|131:192,1,97.50000371933,10|2,0:0|0:0,0:0:0:0:
128,216,27496,1,2,0:0:0:0:
128,216,27577,2,0,P|96:192|40:188,1,97.50000371933,10|2,0:0|0:0,0:0:0:0:
224,148,27901,2,0,P|264:172|324:160,1,97.50000371933,10|0,0:0|0:0,0:0:0:0:
280,96,28226,1,10,0:0:0:0:
256,252,28388,1,2,0:0:0:0:
257,338,28550,6,0,P|321:308|340:240,1,146.250005578995,14|0,0:0|0:0,0:0:0:0:
255,251,28874,2,0,B|200:248|200:248|164:232|164:232|112:228,1,146.250005578995,10|0,0:0|0:0,0:0:0:0:
28,204,29199,2,0,P|34:274|92:314,1,146.250005578995,10|0,0:0|0:0,0:0:0:0:
113,228,29523,2,0,P|112:172|88:136,1,97.50000371933,10|2,0:0|0:0,0:0:0:0:
28,204,29847,5,10,0:0:0:0:
100,324,30009,1,2,0:0:0:0:
100,324,30091,1,2,0:0:0:0:
100,324,30172,1,10,0:0:0:0:
204,224,30334,1,2,0:0:0:0:
90,138,30496,2,0,P|65:96|67:48,1,97.50000371933,10|2,0:0|0:0,0:0:0:0:
200,126,30820,2,0,L|208:268,1,97.50000371933,10|10,0:0|0:0,0:0:0:0:
320,264,31145,6,0,L|312:116,1,146.250005578995,14|0,0:0|0:0,0:0:0:0:
206,78,31469,2,0,B|199:106|199:106|205:223,1,146.250005578995,10|0,0:0|0:0,0:0:0:0:
97,284,31793,2,0,L|89:137,1,146.250005578995,10|0,0:0|0:0,0:0:0:0:
88,112,32118,1,10,0:0:0:0:
205,223,32280,1,2,0:0:0:0:
206,78,32442,6,0,P|188:32|148:0,1,97.50000371933,10|2,0:0|0:0,0:0:0:0:
128,0,32685,1,2,0:0:0:0:
128,0,32766,2,0,P|79:0|38:25,1,97.50000371933,10|2,0:0|0:0,0:0:0:0:
184,156,33091,2,0,P|232:155|272:128,1,97.50000371933,10|0,0:0|0:0,0:0:0:0:
88,112,33415,1,10,0:0:0:0:
97,284,33577,1,10,0:0:0:0:
304,304,33739,6,0,P|264:284|188:336,1,146.250005578995,14|0,0:0|0:0,0:0:0:0:
256,356,34064,2,0,P|328:372|372:324,1,146.250005578995,10|0,0:0|0:0,0:0:0:0:
420,267,34388,2,0,P|356:251|304:303,1,146.250005578995,10|0,0:0|0:0,0:0:0:0:
372,323,34712,1,10,0:0:0:0:
392,176,34874,1,2,0:0:0:0:
280,52,35037,6,0,L|296:148,1,97.50000371933,10|2,0:0|0:0,0:0:0:0:
304,176,35280,1,2,0:0:0:0:
304,176,35361,2,0,P|260:172|216:200,1,97.50000371933,10|2,0:0|0:0,0:0:0:0:
416,320,35685,2,0,L|392:176,1,146.250005578995,10|0,0:0|0:0,0:0:0:0:
388,152,36009,1,10,0:0:0:0:
276,244,36172,1,10,0:0:0:0:
132,216,36334,6,0,L|116:112,1,104,14|8,0:0|0:0,0:0:0:0:
276,244,36658,2,0,L|291:346,1,104,10|8,0:0|0:0,0:0:0:0:
424,216,36982,2,0,L|408:113,1,104,10|8,0:0|0:0,0:0:0:0:
280,52,37307,1,10,0:0:0:0:
276,244,37469,1,10,0:0:0:0:
464,60,37631,6,0,P|420:36|356:56,1,110.50000210762,14|8,0:0|0:0,0:0:0:0:
175,235,37955,2,0,P|224:259|276:244,1,110.50000210762,10|8,0:0|0:0,0:0:0:0:
172,60,38280,2,0,P|128:36|68:52,1,110.50000210762,10|8,0:0|0:0,0:0:0:0:
0,280,38604,1,10,0:0:0:0:
116,113,38766,1,10,0:0:0:0:
4,296,38928,6,0,L|120:288,1,116.999996429443,14|8,0:0|0:0,0:0:0:0:
152,288,39172,1,2,0:0:0:0:
152,288,39253,2,0,L|148:228,1,58.4999982147217,10|0,0:0|0:0,0:0:0:0:
228,272,39415,2,0,L|231:330,1,58.4999982147217,10|0,0:0|0:0,0:0:0:0:
304,264,39577,6,0,L|296:140,1,123.499996702194,14|8,0:0|0:0,0:0:0:0:
296,112,39820,1,2,0:0:0:0:
296,112,39901,2,0,L|232:116,1,61.7499983510972,10|0,0:0|0:0,0:0:0:0:
292,28,40064,2,0,L|353:24,1,61.7499983510972,10|0,0:0|0:0,0:0:0:0:
444,84,40226,5,14,0:0:0:0:
424,120,40307,1,10,0:0:0:0:
420,160,40388,1,10,0:0:0:0:
428,196,40469,1,10,0:0:0:0:
434,308,40550,5,14,0:0:0:0:
395,276,40631,1,10,0:0:0:0:
348,263,40712,1,10,0:0:0:0:
304,264,40793,1,10,0:0:0:0:
157,262,40874,5,14,0:0:0:0:
202,222,40955,1,10,0:0:0:0:
227,169,41036,1,10,0:0:0:0:
235,116,41117,1,10,0:0:0:0:
263,3,41199,5,14,0:0:0:0:
302,63,41280,1,10,0:0:0:0:
362,102,41361,1,10,0:0:0:0:
424,120,41442,1,10,0:0:0:0:
447,45,41523,6,0,B|500:62|504:122|504:122|540:88|590:88|590:88|556:120|568:164|568:164|544:204|480:220|428:184|424:120|424:120|389:127|361:104|361:104|365:180|308:220|246:220|202:188|180:144|179:106|209:72|261:70|280:116,1,912.599994429932,14|2,0:0|0:0,0:0:0:0:
279,114,44037,6,0,L|277:82,1,32.5,6|4,0:0|0:0,0:0:0:0:
120,144,54496,6,0,P|160:136|196:148,1,71.5000021820069,6|0,0:0|0:0,0:0:0:0:
284,248,54820,2,0,P|244:256|208:244,1,71.5000021820069,2|2,0:0|0:0,0:0:0:0:
252,180,55145,1,8,0:0:0:0:
364,216,55307,2,0,L|360:288,1,71.5000021820069,2|0,0:0|0:0,0:0:0:0:
252,180,55631,6,0,L|256:108,1,71.5000021820069,2|0,0:0|0:0,0:0:0:0:
80,204,55955,2,0,L|152:208,1,71.5000021820069,2|0,0:0|0:0,0:0:0:0:
8,48,56280,2,0,L|4:120,1,71.5000021820069,2|8,0:0|0:0,0:0:0:0:
196,20,56604,2,0,L|124:16,1,71.5000021820069,2|0,0:0|0:0,0:0:0:0:
12,128,56928,5,2,0:0:0:0:
12,128,57009,1,2,0:0:0:0:
12,128,57091,2,0,L|8:200,1,71.5000021820069,2|2,0:0|0:0,0:0:0:0:
4,284,57415,1,2,0:0:0:0:
84,252,57577,2,0,P|120:248|152:260,1,71.5000021820069,2|8,0:0|0:0,0:0:0:0:
320,188,57901,2,0,P|284:192|252:180,1,71.5000021820069,2|0,0:0|0:0,0:0:0:0:
412,116,58226,6,0,B|420:224|420:224|404:256,1,143.000004364014,2|2,0:0|0:0,0:0:0:0:
352,320,58712,1,0,0:0:0:0:
436,328,58874,2,0,P|472:336|500:364,1,71.5000021820069,2|8,0:0|0:0,0:0:0:0:
352,320,59199,1,2,0:0:0:0:
344,236,59361,1,2,0:0:0:0:
336,152,59523,1,2,0:0:0:0:
328,68,59685,6,0,L|436:60,1,107.25000327301,2|0,0:0|0:0,0:0:0:0:
464,60,60009,1,2,0:0:0:0:
444,208,60172,2,0,P|432:172|436:136,1,71.5000021820069,2|8,0:0|0:0,0:0:0:0:
330,238,60496,2,0,P|342:274|338:310,1,71.5000021820069,2|0,0:0|0:0,0:0:0:0:
164,288,60820,6,0,L|240:284,1,71.5000021820069,2|0,0:0|0:0,0:0:0:0:
338,306,61145,2,0,P|341:271|330:238,1,71.5000021820069,2|0,0:0|0:0,0:0:0:0:
512,224,61469,2,0,L|436:220,1,71.5000021820069,2|10,0:0|0:0,0:0:0:0:
288,180,61794,2,0,P|336:140|420:168,1,143.000004364014,2|2,0:0|0:0,0:0:0:0:
361,221,62199,5,2,0:0:0:0:
361,221,62280,1,2,0:0:0:0:
512,228,62442,1,0,0:0:0:0:
464,312,62604,2,0,L|360:308,1,71.5000021820069,2|2,0:0|0:0,0:0:0:0:
289,217,62928,2,0,L|394:222,1,71.5000021820069,10|2,0:0|0:0,0:0:0:0:
480,136,63253,2,0,L|376:132,1,71.5000021820069,2|2,0:0|0:0,0:0:0:0:
304,96,63577,6,0,L|308:24,1,71.5000021820069,2|0,0:0|0:0,0:0:0:0:
312,108,63901,2,0,L|316:36,1,71.5000021820069,2|0,0:0|0:0,0:0:0:0:
320,116,64226,2,0,L|324:44,1,71.5000021820069,2|0,0:0|0:0,0:0:0:0:
328,124,64550,6,0,L|332:60,1,65,14|0,0:0|0:0,0:0:0:0:
388,176,64874,5,14,3:0:0:0:
304,256,65037,1,2,0:0:0:0:
304,256,65118,1,2,0:0:0:0:
304,256,65199,1,10,0:0:0:0:
252,152,65361,1,2,0:0:0:0:
304,256,65523,6,0,P|297:304|264:336,1,97.50000371933,10|0,3:0|0:0,0:0:0:0:
248,348,65766,1,2,0:0:0:0:
248,348,65847,1,10,0:0:0:0:
128,332,66009,1,2,0:0:0:0:
56,232,66172,5,10,3:0:0:0:
192,156,66334,2,0,L|180:252,1,97.50000371933,2|10,0:0|0:0,0:0:0:0:
76,112,66658,2,0,L|84:64,2,48.750001859665,2|2|10,0:0|0:0|3:0,0:0:0:0:
204,76,66982,5,2,0:0:0:0:
204,76,67064,1,2,0:0:0:0:
204,76,67145,6,0,B|232:120|280:128|340:112|368:64|360:-12|308:-16|264:-4|264:44,1,292.50001115799,14|0,0:0|0:0,0:0:0:0:
292,192,67469,6,0,P|336:180|420:64,1,195.00000743866,14|2,3:0|0:0,0:0:0:0:
204,76,67793,2,0,P|172:83|120:159,1,130,10|2,0:0|0:0,0:0:0:0:
152,312,68118,1,10,3:0:0:0:
220,172,68280,1,2,0:0:0:0:
220,172,68361,1,2,0:0:0:0:
220,172,68442,1,10,0:0:0:0:
64,248,68604,5,2,0:0:0:0:
64,248,68685,1,0,0:0:0:0:
64,248,68766,2,0,L|72:380,1,130,10|2,3:0|0:0,0:0:0:0:
220,172,69091,2,0,L|212:42,1,130,10|2,0:0|0:0,0:0:0:0:
56,50,69415,5,10,3:0:0:0:
94,49,69496,1,2,0:0:0:0:
115,82,69577,1,2,0:0:0:0:
96,116,69658,1,2,0:0:0:0:
57,117,69739,1,14,0:0:0:0:
37,84,69820,1,2,0:0:0:0:
32,136,69901,1,0,0:0:0:0:
56,184,69982,1,0,0:0:0:0:
104,208,70064,5,14,3:0:0:0:
236,204,70226,1,10,0:0:0:0:
236,204,70307,1,2,0:0:0:0:
236,204,70388,2,0,L|316:196,1,81.25,10|0,0:0|0:0,0:0:0:0:
396,136,70550,2,0,L|476:128,1,81.25,10|0,0:0|0:0,0:0:0:0:
404,220,70712,5,10,3:0:0:0:
320,44,70874,1,10,0:0:0:0:
320,44,70955,1,2,0:0:0:0:
320,44,71037,2,0,L|240:52,1,81.25,10|0,0:0|0:0,0:0:0:0:
160,108,71199,2,0,L|80:116,1,81.25,14|0,0:0|0:0,0:0:0:0:
0,64,71361,5,14,3:0:0:0:
136,216,71523,1,10,0:0:0:0:
136,216,71604,1,2,0:0:0:0:
136,216,71685,2,0,L|144:296,1,81.25,10|0,0:0|0:0,0:0:0:0:
296,224,71847,2,0,L|288:144,1,81.25,10|0,0:0|0:0,0:0:0:0:
240,296,72009,5,10,0:0:0:0:
284,316,72091,1,2,0:0:0:0:
332,308,72172,1,10,0:0:0:0:
368,276,72253,1,2,0:0:0:0:
388,284,72334,5,10,0:0:0:0:
348,344,72415,1,2,0:0:0:0:
276,352,72496,1,14,0:0:0:0:
224,300,72577,1,2,0:0:0:0:
208,228,72658,6,10,L|204:180,3,48.750001859665,14|10|10|10,3:0|0:0|0:0|0:0,0:0:0:0:
244,108,72982,2,10,L|240:60,1,48.750001859665
324,92,73145,2,14,L|328:140,1,48.750001859665,14|10,0:0|0:0,0:0:0:0:
380,44,73307,5,14,3:0:0:0:
424,8,73388,1,8,0:0:0:0:
480,20,73469,1,10,0:0:0:0:
512,68,73550,1,10,0:0:0:0:
500,124,73631,5,10,0:0:0:0:
440,164,73712,1,8,0:0:0:0:
372,136,73793,1,14,0:0:0:0:
300,144,73874,1,8,0:0:0:0:
244,192,73955,6,8,L|248:224,3,32.5,14|8|8|8,3:0|0:0|0:0|0:0,0:0:0:0:
340,216,74280,5,8,0:0:0:0:
336,235,74361,1,8,0:0:0:0:
333,254,74442,1,8,0:0:0:0:
330,273,74523,1,8,0:0:0:0:
327,292,74604,1,8,0:0:0:0:
312,268,74685,1,8,0:0:0:0:
284,256,74766,1,8,0:0:0:0:
256,260,74847,1,8,0:0:0:0:
240,276,74928,6,0,P|236:299|237:324,1,48.750001859665,14|0,3:0|0:0,0:0:0:0:
204,368,75253,6,0,B|176:316|200:248|200:248|176:316|112:324,1,243.75,14|0,3:0|0:0,0:0:0:0:
48,372,75577,2,0,P|36:348|40:288,1,81.25,10|0,0:0|0:0,0:0:0:0:
119,240,75739,1,2,0:0:0:0:
119,240,75820,1,2,0:0:0:0:
119,240,75901,6,0,L|199:248,1,81.25,10|2,3:0|0:0,0:0:0:0:
324,204,76064,2,0,L|332:124,1,81.25,2|0,0:0|0:0,0:0:0:0:
504,240,76226,2,0,L|424:248,1,81.25,8|0,0:0|0:0,0:0:0:0:
292,304,76389,2,0,L|300:384,1,81.25,2|0,0:0|0:0,0:0:0:0:
407,344,76550,5,8,3:0:0:0:
411,320,76631,1,2,0:0:0:0:
415,296,76712,1,2,0:0:0:0:
419,272,76793,1,2,0:0:0:0:
423,248,76874,2,0,L|415:168,1,81.25,8|2,0:0|0:0,0:0:0:0:
339,69,77037,6,0,P|335:65|339:81,1,48.750001859665,2|0,2:0|0:0,0:0:0:0:
407,93,77199,1,8,3:0:0:0:
243,49,77361,1,2,0:0:0:0:
247,113,77442,1,2,0:0:0:0:
295,157,77523,1,8,0:0:0:0:
177,164,77685,2,0,L|96:168,1,81.25,2|0,0:0|0:0,0:0:0:0:
24,240,77847,6,0,P|20:300|40:344,2,108.333333333333,10|2|2,3:0|0:0|0:0,0:0:0:0:
96,168,78172,5,12,0:0:0:0:
112,140,78253,1,2,0:0:0:0:
112,108,78334,1,2,0:0:0:0:
92,80,78415,1,2,0:0:0:0:
16,108,78496,6,0,L|20:140,3,32.5,8|2|2|2,3:0|0:0|0:0|0:0,0:0:0:0:
96,168,78820,1,8,0:0:0:0:
132,164,78902,1,2,0:0:0:0:
168,160,78983,1,2,0:0:0:0:
204,156,79064,1,2,0:0:0:0:
176,232,79145,6,2,L|140:236,3,35.7500010910034,8|2|2|2,3:0|0:0|0:0|0:0,0:0:0:0:
96,168,79469,1,8,0:0:0:0:
68,196,79550,1,2,0:0:0:0:
56,232,79631,1,2,2:0:0:0:
60,268,79712,1,2,0:0:0:0:
146,271,79793,6,2,L|140:234,3,35.7500010910034,8|2|2|2,3:0|0:0|0:0|0:0,0:0:0:0:
96,168,80118,1,8,0:0:0:0:
88,119,80199,1,2,0:0:0:0:
82,72,80280,1,2,0:0:0:0:
74,25,80361,1,2,0:0:0:0:
160,40,80442,6,0,B|152:88|172:120|172:120|180:92,1,97.5,10|0,3:0|0:0,0:0:0:0:
312,52,80766,6,0,L|228:56,1,81.25,14|2,0:0|0:0,0:0:0:0:
276,140,80928,1,2,0:0:0:0:
404,88,81091,6,0,P|412:52|400:8,1,81.25,10|2,3:0|0:0,0:0:0:0:
356,168,81253,2,0,P|348:204|360:248,1,81.25,2|0,0:0|0:0,0:0:0:0:
332,344,81415,2,0,L|413:340,1,81.25,8|0,0:0|0:0,0:0:0:0:
512,198,81577,2,0,L|431:202,1,81.25,2|2,0:0|0:0,0:0:0:0:
428,88,81739,6,0,L|424:4,3,81.25,10|2|2|2,3:0|0:0|0:0|0:0,0:0:0:0:
230,55,82064,1,8,0:0:0:0:
252,80,82145,1,2,0:0:0:0:
284,88,82226,1,2,2:0:0:0:
316,84,82307,1,2,0:0:0:0:
340,64,82388,6,0,L|344:148,1,81.25,10|0,3:0|0:0,0:0:0:0:
240,248,82550,2,0,L|236:166,1,81.25,2|0,0:0|0:0,0:0:0:0:
436,224,82712,6,0,B|448:264|448:264|440:304,1,81.25,10|0,0:0|0:0,0:0:0:0:
320,384,82874,2,0,B|308:344|308:344|316:304,1,81.25,2|0,0:0|0:0,0:0:0:0:
343,145,83037,5,14,0:0:0:0:
140,216,83199,1,2,0:0:0:0:
356,66,83361,2,0,P|356:106|343:144,1,81.25,10|2,0:0|0:0,0:0:0:0:
160,112,83523,6,0,B|184:144|228:152|276:142|299:101|304:68|268:20|212:40|208:84,1,243.75,14|0,3:0|0:0,0:0:0:0:
204,220,83847,6,0,P|252:216|284:204,1,81.25,10|0,0:0|0:0,0:0:0:0:
356,66,84009,2,0,P|356:106|343:144,1,81.25,10|2,0:0|0:0,0:0:0:0:
204,236,84172,2,0,P|252:232|284:220,1,81.25,10|0,0:0|0:0,0:0:0:0:
372,56,84334,5,14,3:0:0:0:
380,88,84415,1,8,0:0:0:0:
380,120,84496,1,10,0:0:0:0:
372,152,84577,1,8,0:0:0:0:
352,180,84658,5,12,0:0:0:0:
340,228,84739,1,8,0:0:0:0:
352,276,84820,1,10,0:0:0:0:
380,316,84901,1,8,0:0:0:0:
424,332,84982,5,12,0:0:0:0:
399,267,85064,1,8,0:0:0:0:
401,196,85145,1,8,0:0:0:0:
426,133,85226,1,8,0:0:0:0:
476,85,85307,5,12,0:0:0:0:
426,133,85388,1,8,0:0:0:0:
355,141,85469,1,8,0:0:0:0:
288,109,85550,1,8,0:0:0:0:
256,40,85631,6,0,P|301:33|347:60,1,97.5,10|0,3:0|0:0,0:0:0:0:
427,133,85955,6,0,L|507:125,1,81.25,14|0,0:0|0:0,0:0:0:0:
296,190,86118,2,0,L|288:110,1,81.25,2|2,0:0|0:0,0:0:0:0:
400,204,86280,1,8,3:0:0:0:
404,244,86361,1,2,0:0:0:0:
408,284,86442,1,2,0:0:0:0:
412,324,86523,1,2,0:0:0:0:
416,364,86604,2,0,L|332:368,1,81.25,8|2,0:0|0:0,0:0:0:0:
192,304,86766,2,0,L|273:300,1,81.25,2|2,0:0|0:0,0:0:0:0:
400,204,86928,6,0,P|400:164|372:100,2,108.333333333333,10|2|2,3:0|0:0|0:0,0:0:0:0:
352,268,87253,1,8,0:0:0:0:
204,228,87415,2,0,L|292:224,1,81.25,2|0,2:0|0:0,0:0:0:0:
400,204,87577,5,8,3:0:0:0:
394,139,87658,1,2,0:0:0:0:
357,85,87739,1,2,0:0:0:0:
296,68,87820,1,2,0:0:0:0:
277,151,87901,5,8,0:0:0:0:
265,122,87982,1,2,0:0:0:0:
272,91,88064,1,2,0:0:0:0:
296,68,88145,1,2,0:0:0:0:
328,64,88226,6,0,B|508:52|508:52|456:88,1,243.75,14|0,3:0|0:0,0:0:0:0:
396,132,88550,1,8,0:0:0:0:
352,136,88631,1,2,0:0:0:0:
308,140,88712,1,2,0:0:0:0:
264,144,88793,1,2,0:0:0:0:
220,72,88874,6,2,L|280:68,3,32.5,8|2|2|2,3:0|0:0|0:0|0:0,0:0:0:0:
264,144,89199,1,8,0:0:0:0:
300,180,89280,1,2,0:0:0:0:
304,228,89361,1,2,0:0:0:0:
280,268,89442,1,2,0:0:0:0:
192,216,89523,6,2,L|260:212,3,35.7500010910034,8|2|2|2,3:0|0:0|0:0|0:0,0:0:0:0:
280,268,89847,1,8,0:0:0:0:
336,264,89928,1,2,0:0:0:0:
392,260,90009,1,2,2:0:0:0:
448,256,90091,1,2,0:0:0:0:
392,340,90172,6,0,L|324:344,3,35.7500010910034,8|2|2|2,3:0|0:0|0:0|0:0,0:0:0:0:
280,268,90496,1,8,0:0:0:0:
248,320,90577,1,2,0:0:0:0:
248,380,90658,1,2,0:0:0:0:
224,324,90739,1,2,0:0:0:0:
168,300,90820,5,14,3:0:0:0:
192,152,90982,1,0,0:0:0:0:
280,268,91145,1,10,0:0:0:0:
66,241,91307,5,2,0:0:0:0:
86,305,91388,1,2,0:0:0:0:
108,368,91469,2,0,B|156:364|156:364|196:340,1,94.2500028762818,10|0,3:0|0:0,0:0:0:0:
280,268,91631,2,0,L|268:172,1,94.2500028762818,2|0,0:0|0:0,0:0:0:0:
112,380,91793,2,0,B|160:376|160:376|204:348,1,94.2500028762818,8|0,0:0|0:0,0:0:0:0:
292,265,91955,2,0,L|280:169,1,94.2500028762818,2|0,0:0|0:0,0:0:0:0:
208,64,92118,5,14,3:0:0:0:
144,228,92280,1,2,0:0:0:0:
264,16,92442,1,10,0:0:0:0:
292,265,92604,1,2,2:0:0:0:
436,64,92766,5,8,3:0:0:0:
433,112,92847,1,0,0:0:0:0:
430,161,92928,1,2,0:0:0:0:
427,210,93009,1,0,0:0:0:0:
425,258,93091,2,0,L|332:252,1,94.2500028762818,10|0,0:0|0:0,0:0:0:0:
511,144,93253,2,0,B|523:194|523:194|504:235,1,94.2500028762818,10|0,0:0|0:0,0:0:0:0:
236,161,93415,6,0,B|312:165|312:165|360:157|360:157|430:160,1,195.00000743866,14|8,3:0|0:0,0:0:0:0:
505,233,93739,5,12,0:0:0:0:
500,292,93820,1,10,0:0:0:0:
460,336,93901,1,10,0:0:0:0:
404,344,93982,1,10,0:0:0:0:
352,316,94064,5,12,3:0:0:0:
304,364,94145,1,10,0:0:0:0:
236,372,94226,1,10,0:0:0:0:
180,332,94307,1,10,0:0:0:0:
128,384,94388,5,14,0:0:0:0:
112,308,94469,1,10,0:0:0:0:
172,260,94550,1,10,0:0:0:0:
240,296,94631,1,10,0:0:0:0:
236,372,94712,1,8,0:0:0:0:
172,260,94874,6,8,L|168:228,5,32.5,10|8|10|8|10|8,0:0|0:0|0:0|0:0|0:0|0:0,0:0:0:0:
228,167,95361,2,0,P|186:144|100:179,1,146.250005578995,10|0,0:0|0:0,0:0:0:0:
112,315,95685,5,2,0:0:0:0:
140,334,95766,1,2,0:0:0:0:
173,341,95847,1,2,0:0:0:0:
206,333,95928,1,2,0:0:0:0:
232,320,96009,6,0,B|282:334|322:294|322:294|358:338|414:322,1,195.00000743866,14|0,3:0|0:0,0:0:0:0:
388,240,96253,2,0,P|372:147|440:84,1,195.00000743866,14|0,3:0|0:0,0:0:0:0:
512,184,96496,2,0,L|420:172,1,48.750001859665,14|0,3:0|0:0,0:0:0:0:
288,156,96658,1,8,0:0:0:0:
176,76,96982,6,0,B|34:72|34:72|78:103,1,195.00000743866,14|0,3:0|0:0,0:0:0:0:
146,154,97226,2,0,B|287:157|287:157|243:126,1,195.00000743866,14|0,3:0|0:0,0:0:0:0:
172,230,97469,2,0,L|272:232,1,97.50000371933,14|0,3:0|0:0,0:0:0:0:
88,216,97631,5,10,0:0:0:0:
223,318,97793,1,2,0:0:0:0:
223,318,97874,1,2,0:0:0:0:
223,318,97955,2,0,L|288:320,1,65,10|2,3:0|0:0,0:0:0:0:
411,295,98118,2,0,L|360:256,1,65,2|0,0:0|0:0,0:0:0:0:
172,230,98280,6,0,L|344:234,2,86.6666666666667,10|2|2,0:0|0:0|0:0,0:0:0:0:
73,228,98604,5,14,3:0:0:0:
200,152,98766,1,2,0:0:0:0:
200,152,98847,1,0,0:0:0:0:
200,152,98928,2,0,P|248:144|284:156,1,81.25,10|0,0:0|0:0,0:0:0:0:
348,240,99091,1,2,0:0:0:0:
348,240,99172,1,0,0:0:0:0:
348,240,99253,6,0,P|330:285|304:308,1,81.25,10|0,3:0|0:0,0:0:0:0:
177,235,99415,2,0,L|258:232,1,81.25,2|2,0:0|0:0,0:0:0:0:
444,164,99577,2,0,B|411:162|411:162|399:155|399:155|364:153,1,81.25,10|2,0:0|0:0,0:0:0:0:
208,160,99739,5,2,0:0:0:0:
208,160,99820,1,2,0:0:0:0:
208,160,99901,2,0,P|147:137|60:175,1,162.5,14|2,3:0|0:0,0:0:0:0:
44,248,100145,1,2,0:0:0:0:
44,248,100226,2,0,L|48:332,1,81.25,10|0,0:0|0:0,0:0:0:0:
208,252,100388,2,0,B|168:244|168:244|48:248,1,81.25,10|0,3:0|0:0,0:0:0:0:
47,329,100550,5,10,3:0:0:0:
260,313,100712,1,10,3:0:0:0:
109,90,100874,1,10,0:0:0:0:
113,129,100955,1,2,0:0:0:0:
118,170,101036,1,2,0:0:0:0:
121,210,101117,1,2,0:0:0:0:
127,252,101199,6,0,B|144:296|144:296|244:320|244:320|280:292,1,195.00000743866,14|0,3:0|0:0,0:0:0:0:
272,204,101442,2,0,B|326:201|356:248|356:248|380:200|428:192,1,195.00000743866,14|0,3:0|0:0,0:0:0:0:
432,328,101685,2,0,P|440:284|432:260,1,48.750001859665,14|0,3:0|0:0,0:0:0:0:
352,344,101847,1,10,0:0:0:0:
512,172,102172,6,0,P|468:116|356:144,1,195.00000743866,14|0,3:0|0:0,0:0:0:0:
336,216,102415,2,0,B|208:188|208:188|204:156|172:136,1,195.00000743866,14|0,3:0|0:0,0:0:0:0:
44,228,102658,2,0,P|98:226|133:202,1,97.50000371933,14|0,3:0|0:0,0:0:0:0:
56,96,102820,6,0,L|68:144,1,48.750001859665,10|0,0:0|0:0,0:0:0:0:
144,64,102982,2,0,L|132:16,1,48.750001859665,2|2,0:0|0:0,0:0:0:0:
236,80,103145,1,10,3:0:0:0:
236,80,103226,1,2,0:0:0:0:
236,80,103307,2,0,L|300:68,1,65,10|2,3:0|0:0,0:0:0:0:
380,32,103469,6,0,P|387:74|376:115,2,86.6666666666667,10|2|2,0:0|0:0|0:0,0:0:0:0:
336,192,103793,6,0,B|400:188|400:188|428:172|428:172|496:164,1,162.5,14|2,3:0|0:0,0:0:0:0:
386,108,104037,5,2,0:0:0:0:
375,115,104118,2,0,P|368:72|380:32,1,87.0999958799746,10|0,0:0|0:0,0:0:0:0:
493,164,104280,2,0,P|505:204|493:244,1,81.25,2|2,0:0|0:0,0:0:0:0:
412,304,104442,6,0,L|328:296,1,81.25,10|0,3:0|0:0,0:0:0:0:
160,340,104604,2,0,L|240:332,1,81.25,2|0,0:0|0:0,0:0:0:0:
216,143,104766,2,0,P|236:177|236:217,1,81.25,10|0,0:0|0:0,0:0:0:0:
84,297,104928,2,0,P|72:257|88:205,1,81.25,2|0,0:0|0:0,0:0:0:0:
140,72,105091,5,14,3:0:0:0:
196,40,105172,1,2,0:0:0:0:
244,84,105253,1,2,0:0:0:0:
216,143,105334,1,2,0:0:0:0:
152,135,105415,2,0,L|104:128,1,48.750001859665,10|0,0:0|0:0,0:0:0:0:
31,212,105577,2,0,L|79:219,1,48.750001859665,2|0,0:0|0:0,0:0:0:0:
84,297,105739,5,10,3:0:0:0:
103,127,105901,1,2,0:0:0:0:
107,95,105982,1,2,0:0:0:0:
112,64,106064,2,0,P|160:48|248:92,1,146.250005578995,10|0,0:0|0:0,0:0:0:0:
248,108,106388,6,0,L|244:176,1,65,10|0,3:0|0:0,0:0:0:0:
288,236,106631,2,0,L|284:304,1,65,10|0,3:0|0:0,0:0:0:0:
348,344,106874,2,0,L|344:404,1,32.5,10|0,3:0|0:0,0:0:0:0:
220,372,107037,1,10,0:0:0:0:
348,344,107199,1,2,0:0:0:0:
220,372,107361,6,0,P|168:352|128:364,1,97.50000371933,10|0,3:0|0:0,0:0:0:0:
56,380,107604,2,0,B|52:340|52:340|44:324|44:324|40:284,1,97.50000371933,10|0,3:0|0:0,0:0:0:0:
112,236,107847,2,0,L|116:284,1,48.750001859665,10|0,3:0|0:0,0:0:0:0:
32,204,108009,1,10,0:0:0:0:
188,192,108172,1,2,0:0:0:0:
16,204,108334,5,10,3:0:0:0:
20,172,108415,1,2,0:0:0:0:
24,140,108496,1,10,3:0:0:0:
28,108,108577,1,2,0:0:0:0:
32,76,108658,2,0,P|72:64|116:72,2,86.6666666666667,10|2|2,0:0|0:0|0:0,0:0:0:0:
80,184,108982,6,0,P|136:192|164:180,1,81.25,14|0,3:0|0:0,0:0:0:0:
247,164,109145,2,0,P|286:154|325:164,1,81.25,2|0,0:0|0:0,0:0:0:0:
192,112,109307,2,0,P|200:52|192:32,1,81.25,10|0,0:0|0:0,0:0:0:0:
220,236,109469,2,0,P|212:296|220:316,1,81.25,2|0,0:0|0:0,0:0:0:0:
372,272,109631,6,0,L|288:276,1,81.25,10|0,3:0|0:0,0:0:0:0:
52,288,109793,2,0,L|136:284,1,81.25,10|0,3:0|0:0,0:0:0:0:
212,128,109955,2,0,B|220:236|220:236|234:211|263:200,1,162.5,10|2,0:0|0:0,0:0:0:0:
290,275,110199,5,2,0:0:0:0:
290,275,110280,2,0,P|299:315|290:353,1,81.25,14|0,3:0|0:0,0:0:0:0:
140,313,110442,2,0,P|180:304|218:313,1,81.25,2|0,0:0|0:0,0:0:0:0:
464,352,110604,2,0,P|424:360|386:351,1,81.25,10|0,0:0|0:0,0:0:0:0:
300,275,110766,2,0,P|308:319|300:354,1,81.25,2|0,0:0|0:0,0:0:0:0:
204,276,110928,5,10,3:0:0:0:
224,223,111009,1,0,0:0:0:0:
270,192,111090,1,2,0:0:0:0:
326,194,111171,1,0,0:0:0:0:
371,228,111253,2,0,L|452:224,1,81.25,10|0,0:0|0:0,0:0:0:0:
512,100,111415,2,0,L|431:104,1,81.25,2|0,0:0|0:0,0:0:0:0:
296,116,111577,6,0,P|335:58|431:106,1,195.00000743866,14|0,3:0|0:0,0:0:0:0:
480,36,111820,2,0,P|424:-8|304:-8,1,195.00000743866,14|0,3:0|0:0,0:0:0:0:
232,80,112064,2,0,P|240:56|254:33,1,48.750001859665,14|0,3:0|0:0,0:0:0:0:
364,120,112226,1,10,0:0:0:0:
96,88,112550,6,0,B|232:80|232:80|184:116,1,195.00000743866,14|0,3:0|0:0,0:0:0:0:
120,164,112793,2,0,P|80:204|104:332,1,195.00000743866,14|0,3:0|0:0,0:0:0:0:
160,228,113037,2,0,P|140:256|188:268,1,97.50000371933,14|0,3:0|0:0,0:0:0:0:
248,115,113199,6,0,P|232:111|184:115,1,65,10|0,0:0|0:0,0:0:0:0:
260,284,113361,2,0,P|280:288|332:280,1,65,2|0,0:0|0:0,0:0:0:0:
392,152,113523,1,10,3:0:0:0:
160,228,113685,1,2,0:0:0:0:
256,360,113847,6,0,P|302:363|344:356,2,86.6666666666667,10|2|2,0:0|0:0|0:0,0:0:0:0:
252,280,114172,6,0,B|288:284|288:284|312:272|312:272|348:276,1,97.50000371933,14|0,3:0|0:0,0:0:0:0:
440,244,114334,1,0,0:0:0:0:
440,244,114415,1,0,0:0:0:0:
440,244,114496,6,0,P|464:201|449:142,1,97.50000371933,10|0,0:0|0:0,0:0:0:0:
314,126,114658,2,0,P|338:168|397:185,1,97.50000371933,2|0,0:0|0:0,0:0:0:0:
476,72,114820,2,0,P|427:71|382:114,1,97.50000371933,10|0,3:0|0:0,0:0:0:0:
232,120,114982,6,0,B|193:123|193:123|154:107,1,81.25,2|0,0:0|0:0,0:0:0:0:
44,88,115145,2,0,B|73:113|73:113|89:151,1,81.25,10|0,0:0|0:0,0:0:0:0:
144,268,115307,2,0,B|140:228|140:228|156:190,1,81.25,2|2,0:0|0:0,0:0:0:0:
247,43,115469,6,0,B|308:56|316:120|316:120|343:143|343:143|382:140|382:140|399:203|455:208,1,292.50001115799,10|0,2:0|0:0,0:0:0:0:
464,124,115793,6,0,L|472:32,1,65,2|2,0:0|0:0,0:0:0:0:
455,208,115955,2,0,L|449:272,1,65,2|2,0:0|0:0,0:0:0:0:
472,364,116118,6,0,B|426:360|426:360|392:348|392:348|344:344,1,130,10|10,2:0|2:0,0:0:0:0:
208,252,116442,5,10,0:0:0:0:
192,256,116523,1,2,0:0:0:0:
96,272,116604,1,2,0:0:0:0:
83,282,116685,1,2,0:0:0:0:
60,380,116766,5,14,3:0:0:0:
256,192,125847,12,2,126982,0:0:0:0:
164,104,127145,6,0,P|196:124|212:148,2,65,6|0|8,0:0|0:0|0:0,0:0:0:0:
140,282,127631,2,0,P|212:218|284:278,1,195,2|8,0:0|0:0,0:0:0:0:
304,344,128280,5,2,0:0:0:0:
320,348,128361,1,2,0:0:0:0:
336,352,128442,2,0,L|400:348,1,65,2|0,0:0|0:0,0:0:0:0:
212,292,128766,2,0,L|208:356,1,65,8|2,0:0|0:0,0:0:0:0:
344,216,129091,5,2,0:0:0:0:
219,299,129253,1,2,0:0:0:0:
219,299,129334,1,2,0:0:0:0:
219,299,129415,1,10,0:0:0:0:
400,280,129577,2,0,P|420:256|420:180,1,97.5,2|0,0:0|0:0,0:0:0:0:
420,180,129901,5,2,0:0:0:0:
304,140,130064,1,10,0:0:0:0:
272,268,130226,1,2,0:0:0:0:
344,216,130388,1,2,0:0:0:0:
392,311,130550,1,2,0:0:0:0:
396,295,130631,1,2,0:0:0:0:
400,280,130712,1,10,0:0:0:0:
420,180,130874,6,0,P|372:136|304:144,1,130,2|0,0:0|0:0,0:0:0:0:
232,200,131361,1,10,0:0:0:0:
219,209,131442,1,2,0:0:0:0:
203,214,131523,1,2,0:0:0:0:
186,214,131604,1,2,0:0:0:0:
169,209,131685,1,2,0:0:0:0:
132,360,131847,1,2,0:0:0:0:
254,268,132009,1,10,0:0:0:0:
265,131,132172,6,0,P|188:96|108:160,1,195,2|8,0:0|0:0,0:0:0:0:
194,187,132820,2,0,B|206:219|194:251|194:251|182:283|194:315,1,130,2|0,0:0|0:0,0:0:0:0:
300,336,133307,1,10,0:0:0:0:
452,279,133469,5,2,0:0:0:0:
452,279,133550,1,2,0:0:0:0:
452,279,133631,1,2,0:0:0:0:
372,367,133793,1,2,0:0:0:0:
328,252,133955,1,10,0:0:0:0:
452,360,134118,1,2,0:0:0:0:
484,208,134280,1,2,0:0:0:0:
300,336,134442,1,2,0:0:0:0:
452,279,134604,1,10,0:0:0:0:
301,211,134766,6,0,B|319:160|289:107|209:75|141:123|125:219|161:311|238:350|301:335,1,455,2|8,0:0|0:0,0:0:0:0:
384,324,136064,2,0,P|408:329|416:333,2,32.5,0|2|2,0:0|0:0|0:0,0:0:0:0:
256,192,136307,12,2,137361,0:0:0:0:
212,136,137523,6,0,P|192:172|204:232,1,97.5,14|0,3:0|0:0,0:0:0:0:
208,240,137847,1,10,0:0:0:0:
328,184,138009,2,0,L|264:188,1,65,2|0,0:0|0:0,0:0:0:0:
180,312,138334,2,0,P|220:316|244:308,1,65,2|8,0:0|0:0,0:0:0:0:
100,140,138658,6,0,L|96:76,1,65,2|0,0:0|0:0,0:0:0:0:
159,197,138982,2,0,L|208:240,1,65,2|8,0:0|0:0,0:0:0:0:
71,220,139307,2,0,L|8:224,1,65,2|0,0:0|0:0,0:0:0:0:
36,32,139631,2,0,P|89:2|152:26,1,130,2|2,0:0|0:0,0:0:0:0:
168,40,140037,5,2,0:0:0:0:
168,40,140118,2,0,L|232:44,1,65,2|0,0:0|0:0,0:0:0:0:
324,52,140442,1,10,0:0:0:0:
272,128,140604,2,0,P|264:160|272:192,1,65,2|0,0:0|0:0,0:0:0:0:
407,236,140928,2,0,P|391:209|364:192,1,65,2|8,0:0|0:0,0:0:0:0:
205,261,141253,6,0,P|264:288|324:272,1,130,2|2,0:0|0:0,0:0:0:0:
271,190,141739,1,10,0:0:0:0:
180,196,141901,2,0,P|155:211|136:244,1,65,2|0,0:0|0:0,0:0:0:0:
124,332,142226,1,2,0:0:0:0:
205,261,142388,1,10,0:0:0:0:
28,300,142550,1,2,0:0:0:0:
224,256,142712,6,0,P|252:216|240:152,1,97.5,14|0,3:0|0:0,0:0:0:0:
180,196,143037,1,10,0:0:0:0:
164,296,143199,2,0,P|188:320|232:328,1,65,2|0,0:0|0:0,0:0:0:0:
308,328,143523,2,0,P|338:337|361:360,1,65,2|8,0:0|0:0,0:0:0:0:
452,352,143847,6,0,L|448:288,1,65,2|0,0:0|0:0,0:0:0:0:
492,224,144172,2,0,P|460:208|424:212,1,65,2|8,0:0|0:0,0:0:0:0:
324,143,144496,2,0,L|320:207,1,65,2|0,0:0|0:0,0:0:0:0:
364,271,144821,2,0,P|332:287|296:283,1,65,2|8,0:0|0:0,0:0:0:0:
232,232,145145,5,2,0:0:0:0:
232,232,145226,1,2,0:0:0:0:
232,232,145307,2,0,P|216:264|223:325,1,97.5,14|2,3:0|0:0,0:0:0:0:
364,300,145631,2,0,P|332:284|304:285,1,65,10|2,0:0|0:0,0:0:0:0:
232,232,145955,2,0,P|200:248|139:241,1,97.5,2|2,0:0|0:0,0:0:0:0:
164,100,146279,2,0,P|180:132|179:160,1,65,10|2,0:0|0:0,0:0:0:0:
140,241,146604,5,14,3:0:0:0:
104,144,146766,1,2,0:0:0:0:
104,144,146847,1,2,0:0:0:0:
104,144,146928,1,10,0:0:0:0:
232,232,147091,1,2,0:0:0:0:
28,224,147253,5,14,3:0:0:0:
116,340,147415,2,2,L|96:364,2,16.25
128,332,147577,2,0,L|192:336,1,65,10|2,0:0|0:0,0:0:0:0:
324,208,147901,6,0,P|267:164|196:173,1,146.250005578995,14|0,0:0|0:0,0:0:0:0:
180,184,148226,1,10,0:0:0:0:
192,336,148388,2,0,P|228:304|240:256,1,97.50000371933,2|8,0:0|0:0,0:0:0:0:
92,176,148712,2,0,P|56:208|44:256,1,97.50000371933,2|10,0:0|0:0,0:0:0:0:
80,352,149037,1,2,0:0:0:0:
192,336,149199,6,0,B|300:320|300:320|336:336,1,146.250005578995,10|2,0:0|0:0,0:0:0:0:
348,344,149523,1,10,0:0:0:0:
232,244,149685,1,2,0:0:0:0:
360,160,149847,2,0,L|356:257,1,97.50000371933,10|0,0:0|0:0,0:0:0:0:
232,244,150172,1,10,0:0:0:0:
484,192,150334,1,10,0:0:0:0:
344,56,150496,6,0,B|456:52|456:52|428:80,1,146.250005578995,14|0,0:0|0:0,0:0:0:0:
360,160,150820,2,0,B|248:164|248:164|276:136,1,146.250005578995,10|0,0:0|0:0,0:0:0:0:
80,64,151145,2,0,B|192:60|192:60|164:88,1,146.250005578995,10|0,0:0|0:0,0:0:0:0:
156,92,151469,1,10,0:0:0:0:
268,4,151631,1,2,0:0:0:0:
272,140,151793,6,0,B|276:240,1,97.50000371933,10|0,0:0|0:0,0:0:0:0:
280,264,152037,1,2,0:0:0:0:
280,264,152118,1,10,0:0:0:0:
156,188,152280,1,2,0:0:0:0:
236,56,152442,2,0,B|270:92|270:92|272:140,1,97.50000371933,10|2,0:0|0:0,0:0:0:0:
280,356,152766,1,10,0:0:0:0:
197,124,152928,1,10,0:0:0:0:
412,272,153091,6,0,L|428:168,1,104,14|8,0:0|0:0,0:0:0:0:
295,253,153415,2,0,L|280:355,1,104,10|8,0:0|0:0,0:0:0:0:
180,234,153739,2,0,L|196:131,1,104,10|8,0:0|0:0,0:0:0:0:
324,36,154064,1,10,0:0:0:0:
295,253,154226,1,10,0:0:0:0:
116,108,154388,6,0,P|152:60|200:48,1,110.50000210762,14|8,0:0|0:0,0:0:0:0:
420,92,154712,2,0,P|384:140|336:152,1,110.50000210762,10|8,0:0|0:0,0:0:0:0:
212,313,155037,2,0,P|248:265|296:253,1,110.50000210762,10|8,0:0|0:0,0:0:0:0:
504,264,155361,1,10,0:0:0:0:
292,336,155523,1,10,0:0:0:0:
296,152,155685,6,0,L|300:36,1,116.999996429443,14|0,0:0|0:0,0:0:0:0:
304,12,155928,1,2,0:0:0:0:
304,12,156009,2,0,B|332:4|332:4|368:16,1,58.4999982147217,10|0,0:0|0:0,0:0:0:0:
216,56,156172,2,0,B|188:64|188:64|152:52,1,58.4999982147217,10|0,0:0|0:0,0:0:0:0:
208,168,156334,6,0,L|212:292,1,123.499996702194,14|0,0:0|0:0,0:0:0:0:
216,324,156577,1,2,0:0:0:0:
216,324,156658,2,0,B|248:332|248:332|276:320,1,61.7499983510972,10|0,0:0|0:0,0:0:0:0:
120,272,156820,2,0,B|88:264|88:264|60:276,1,61.7499983510972,10|0,0:0|0:0,0:0:0:0:
208,168,156982,5,14,0:0:0:0:
244,192,157064,1,10,0:0:0:0:
288,192,157145,1,10,0:0:0:0:
324,168,157226,1,10,0:0:0:0:
336,88,157307,5,14,0:0:0:0:
292,59,157389,1,10,0:0:0:0:
240,59,157470,1,10,0:0:0:0:
196,88,157551,1,10,0:0:0:0:
180,192,157631,5,14,0:0:0:0:
232,226,157713,1,10,0:0:0:0:
295,226,157794,1,10,0:0:0:0:
348,192,157875,1,10,0:0:0:0:
364,72,157955,5,14,0:0:0:0:
301,31,158037,1,10,0:0:0:0:
225,31,158118,1,10,0:0:0:0:
162,72,158199,1,10,0:0:0:0:
120,272,158280,6,0,B|208:260|259:339|259:339|312:272|404:292,1,325,14|0,3:0|0:0,0:0:0:0:
484,308,159253,6,0,L|485:324,1,16.25,2|0,0:0|0:0,0:0:0:0:
403,291,159577,6,0,B|311:272|259:339|259:339|217:274|153:271,1,292.50001115799,14|0,3:0|0:0,0:0:0:0:
24,353,159901,2,0,B|61:295|117:282|216:292|236:368|236:368|206:364,1,292.50001115799,10|0,0:0|0:0,0:0:0:0:
120,272,160226,2,0,B|133:221|101:175|101:175|134:136|126:88,1,195.00000743866,10|2,3:0|0:0,0:0:0:0:
0,98,160550,1,10,0:0:0:0:
256,190,160712,1,2,0:0:0:0:
485,158,160874,6,0,B|424:177|384:127|384:127|335:143|335:143|290:86|221:108,1,292.50001115799,10|2,3:0|0:0,0:0:0:0:
256,190,161199,1,10,0:0:0:0:
453,80,161361,1,2,0:0:0:0:
221,107,161523,2,0,P|172:164|215:265,1,195.00000743866,10|0,3:0|0:0,0:0:0:0:
346,202,161847,2,0,B|320:206|320:206|286:184|286:184|256:189,1,97.50000371933,10|0,0:0|0:0,0:0:0:0:
133,334,162009,2,0,B|159:330|159:330|193:352|193:352|223:347,1,97.50000371933,2|0,0:0|0:0,0:0:0:0:
169,183,162172,6,0,P|180:230|214:264,1,97.5,10|0,3:0|0:0,0:0:0:0:
256,189,162496,1,10,0:0:0:0:
321,70,162658,5,2,0:0:0:0:
306,95,162739,1,2,0:0:0:0:
279,105,162820,2,0,P|243:102|216:111,1,65,10|0,3:0|0:0,0:0:0:0:
319,305,162982,1,2,0:0:0:0:
304,280,163063,1,2,0:0:0:0:
277,270,163145,2,0,P|241:273|214:264,1,65,10|0,0:0|0:0,0:0:0:0:
358,149,163307,2,0,P|367:179|363:211,1,65,2|0,0:0|0:0,0:0:0:0:
133,242,163469,6,0,P|111:181|133:123,1,130,10|2,3:0|0:0,0:0:0:0:
466,151,163793,2,0,P|425:200|362:211,1,130,10|2,0:0|0:0,0:0:0:0:
143,6,164118,2,0,P|206:25|257:136,1,195,10|2,3:0|0:0,0:0:0:0:
247,154,164442,5,10,0:0:0:0:
245,108,164523,1,2,0:0:0:0:
271,55,164604,1,2,0:0:0:0:
332,35,164685,1,2,0:0:0:0:
446,62,164766,6,0,P|402:81|377:123,1,97.5,14|0,3:0|0:0,0:0:0:0:
460,248,165091,2,0,L|466:151,1,97.50000371933,10|0,0:0|0:0,0:0:0:0:
328,248,165253,2,0,L|334:344,1,97.50000371933,2|0,0:0|0:0,0:0:0:0:
284,156,165415,6,0,B|236:144|236:144|196:172,1,97.50000371933,10|0,3:0|0:0,0:0:0:0:
172,316,165577,1,2,0:0:0:0:
172,316,165658,1,2,0:0:0:0:
172,316,165739,2,0,B|132:344|132:344|84:332,1,97.50000371933,10|0,0:0|0:0,0:0:0:0:
334,345,165901,2,0,B|374:317|374:317|422:329,1,97.50000371933,2|0,0:0|0:0,0:0:0:0:
460,248,166064,5,10,3:0:0:0:
256,276,166226,1,2,0:0:0:0:
512,312,166388,5,10,0:0:0:0:
284,156,166550,1,2,0:0:0:0:
421,328,166712,6,0,B|368:300|352:244|372:184|428:164|428:164|473:202|460:250,1,304.200010211792,10|0,3:0|0:0,0:0:0:0:
334,345,167037,6,0,P|309:302|300:252,1,101.400003403931,10|0,0:0|0:0,0:0:0:0:
284,156,167199,2,0,P|311:114|352:84,1,101.400003403931,10|0,0:0|0:0,0:0:0:0:
474,78,167361,1,14,0:0:0:0:
207,230,167523,1,10,0:0:0:0:
207,230,167604,1,2,0:0:0:0:
207,230,167685,1,10,0:0:0:0:
353,84,167847,1,10,0:0:0:0:
332,345,168009,5,14,0:0:0:0:
107,237,168172,1,10,0:0:0:0:
107,237,168253,1,0,0:0:0:0:
107,237,168334,1,10,0:0:0:0:
284,156,168496,1,10,0:0:0:0:
131,321,168658,6,8,P|87:324|59:311,3,65,14|8|10|10,0:0|0:0|0:0|0:0,0:0:0:0:
24,216,168982,2,8,P|44:177|70:160,3,65,14|8|10|8,0:0|0:0|0:0|0:0,0:0:0:0:
158,175,169307,2,8,P|181:212|182:243,3,65,14|10|10|10,0:0|0:0|0:0|0:0,0:0:0:0:
238,323,169631,5,14,0:0:0:0:
298,355,169712,1,10,0:0:0:0:
366,350,169793,1,10,0:0:0:0:
421,310,169874,1,10,0:0:0:0:
435,242,169955,5,14,3:0:0:0:
364,80,170118,1,2,0:0:0:0:
341,125,170199,1,2,0:0:0:0:
315,168,170280,2,0,L|322:251,1,81.25,10|0,0:0|0:0,0:0:0:0:
481,285,170442,2,0,P|462:258|434:241,1,65,2|0,0:0|0:0,0:0:0:0:
278,95,170604,5,10,3:0:0:0:
113,31,170767,1,2,0:0:0:0:
129,79,170848,1,2,0:0:0:0:
141,128,170929,2,0,L|205:182,1,81.25,10|0,0:0|0:0,0:0:0:0:
341,93,171091,2,0,P|309:88|278:95,1,65,2|0,0:0|0:0,0:0:0:0:
60,104,171253,5,10,3:0:0:0:
41,250,171416,1,2,0:0:0:0:
86,273,171497,1,2,0:0:0:0:
129,299,171578,2,0,L|212:292,1,81.25,10|0,0:0|0:0,0:0:0:0:
103,58,171740,2,0,P|76:76|59:104,1,65,2|0,0:0|0:0,0:0:0:0:
56,340,171901,5,10,3:0:0:0:
141,128,172064,1,2,0:0:0:0:
209,292,172226,5,10,0:0:0:0:
59,103,172388,1,2,0:0:0:0:
264,20,172550,6,0,L|248:184,1,162.5,10|2,3:0|0:0,0:0:0:0:
56,340,172874,2,0,L|40:178,1,162.5,10|2,0:0|0:0,0:0:0:0:
248,181,173199,2,0,B|332:184|332:184|404:152|404:152|488:156,1,243.75,10|0,3:0|0:0,0:0:0:0:
504,168,173523,1,10,0:0:0:0:
264,20,173685,1,2,0:0:0:0:
248,181,173847,5,10,3:0:0:0:
68,112,174009,1,2,0:0:0:0:
68,112,174091,1,2,0:0:0:0:
68,112,174172,5,10,0:0:0:0:
332,184,174334,1,2,0:0:0:0:
40,178,174496,6,0,P|74:183|104:173,1,65,10|0,3:0|0:0,0:0:0:0:
295,118,174658,2,0,P|325:108|357:113,1,65,2|0,0:0|0:0,0:0:0:0:
137,243,174820,6,0,P|164:222|180:180,1,81.25,10|0,0:0|0:0,0:0:0:0:
254,45,174982,2,0,P|222:70|210:108,1,81.25,2|0,0:0|0:0,0:0:0:0:
332,184,175145,5,14,3:0:0:0:
68,112,175307,1,2,0:0:0:0:
357,113,175469,5,10,0:0:0:0:
180,179,175631,1,2,0:0:0:0:
437,62,175793,6,0,B|399:12|335:21|335:21|316:-4|316:-4|295:19|295:19|233:2|189:46,1,292.50001115799,10|0,3:0|0:0,0:0:0:0:
283,207,176118,6,0,P|284:158|262:115,1,97.50000371933,10|0,0:0|0:0,0:0:0:0:
102,173,176280,2,0,P|100:221|122:264,1,97.50000371933,2|0,0:0|0:0,0:0:0:0:
307,301,176442,6,0,P|398:228|284:206,1,292.50001115799,14|0,3:0|0:0,0:0:0:0:
302,324,176766,2,0,P|421:266|352:159,1,292.50001115799,10|0,0:0|0:0,0:0:0:0:
286,342,177091,2,0,P|423:310|427:178,1,292.50001115799,10|0,3:0|0:0,0:0:0:0:
335,245,177415,1,10,0:0:0:0:
122,264,177577,1,10,0:0:0:0:
426,179,177739,6,8,P|403:153|378:140,3,65,14|8|8|8,3:0|0:0|0:0|0:0,0:0:0:0:
276,148,178064,1,10,0:0:0:0:
218,153,178145,1,10,0:0:0:0:
158,157,178226,1,10,0:0:0:0:
98,161,178307,1,10,0:0:0:0:
16,112,178388,6,8,P|39:85|64:72,3,65,14|8|8|8,3:0|0:0|0:0|0:0,0:0:0:0:
98,161,178712,1,10,0:0:0:0:
102,221,178793,1,10,0:0:0:0:
106,281,178874,1,10,0:0:0:0:
111,339,178955,1,10,0:0:0:0:
36,316,179037,5,14,3:0:0:0:
184,252,179199,1,2,0:0:0:0:
184,252,179280,1,2,0:0:0:0:
184,252,179361,2,0,P|218:264|239:283,1,65,2|0,0:0|0:0,0:0:0:0:
326,330,179523,2,0,P|350:351|381:361,1,65,2|0,0:0|0:0,0:0:0:0:
476,349,179685,6,8,L|472:301,3,48.750001859665,10|8|8|8,0:0|0:0|0:0|0:0,0:0:0:0:
484,214,180009,5,10,0:0:0:0:
471,213,180090,1,10,0:0:0:0:
458,214,180171,1,10,0:0:0:0:
445,218,180252,1,10,0:0:0:0:
432,224,180334,6,0,P|384:220|428:152,1,146.250005578995,10|0,3:0|0:0,0:0:0:0:
471,300,180658,5,14,0:0:0:0:
425,315,180739,1,0,0:0:0:0:
377,312,180820,1,2,0:0:0:0:
334,290,180901,1,0,0:0:0:0:
302,254,180982,6,0,P|288:224|284:176,1,81.25,10|0,3:0|0:0,0:0:0:0:
384,72,181145,2,0,P|403:108|406:148,1,81.25,2|0,0:0|0:0,0:0:0:0:
271,257,181307,6,0,L|284:176,1,81.25,10|0,0:0|0:0,0:0:0:0:
419,68,181469,2,0,L|406:149,1,81.25,2|0,0:0|0:0,0:0:0:0:
197,129,181631,6,0,P|229:93|285:77,2,108.333333333333,10|2|2,3:0|0:0|0:0,0:0:0:0:
172,285,181955,5,8,0:0:0:0:
290,182,182118,2,0,P|294:162|283:185,1,81.25,2|0,2:0|0:0,0:0:0:0:
358,251,182280,5,10,3:0:0:0:
351,282,182361,1,0,0:0:0:0:
344,314,182442,2,0,P|294:316|268:331,1,81.25,2|0,0:0|0:0,0:0:0:0:
172,285,182604,6,0,L|164:176,2,108.333333333333,10|2|2,0:0|0:0|0:0,0:0:0:0:
172,285,182928,6,0,B|178:244|178:244|157:217|157:217|164:177,2,116.133327839966,10|2|2,3:0|0:0|0:0,0:0:0:0:
76,331,183253,1,14,0:0:0:0:
71,296,183334,1,2,0:0:0:0:
66,261,183415,1,2,0:0:0:0:
61,226,183496,1,2,0:0:0:0:
73,145,183577,6,0,L|81:111,3,35.7500010910034,8|2|2|2,3:0|0:0|0:0|0:0,0:0:0:0:
17,207,183901,1,10,0:0:0:0:
61,226,183982,1,2,0:0:0:0:
107,218,184064,1,2,0:0:0:0:
143,188,184145,1,2,0:0:0:0:
81,110,184226,6,0,L|71:69,3,42.2499980659486,8|2|2|2,3:0|0:0|0:0|0:0,0:0:0:0:
143,188,184550,1,10,0:0:0:0:
186,152,184631,1,2,0:0:0:0:
241,142,184713,1,2,2:0:0:0:
294,165,184794,1,2,0:0:0:0:
227,238,184874,6,0,L|234:286,3,48.750001859665,8|2|2|2,3:0|0:0|0:0|0:0,0:0:0:0:
294,165,185199,1,10,0:0:0:0:
303,226,185280,1,2,0:0:0:0:
312,287,185361,1,2,0:0:0:0:
321,348,185442,1,2,0:0:0:0:
389,306,185523,6,0,B|437:302|464:314|464:314|444:320,1,97.5,10|0,3:0|0:0,0:0:0:0:
321,348,185847,6,0,L|309:268,1,81.25,14|0,0:0|0:0,0:0:0:0:
294,165,186009,1,2,0:0:0:0:
198,71,186172,6,0,B|206:111|206:111|186:146,1,81.25,10|0,3:0|0:0,0:0:0:0:
117,273,186334,2,0,B|97:238|97:238|105:198,1,81.25,2|2,0:0|0:0,0:0:0:0:
306,84,186496,6,0,L|294:164,1,81.25,10|0,0:0|0:0,0:0:0:0:
102,276,186658,2,0,B|82:241|82:241|90:201,1,81.25,2|2,0:0|0:0,0:0:0:0:
320,87,186820,6,0,L|309:167,3,81.25,10|2|2|2,3:0|0:0|0:0|0:0,0:0:0:0:
203,216,187145,5,10,0:0:0:0:
236,262,187226,1,2,0:0:0:0:
289,282,187307,1,2,2:0:0:0:
345,280,187388,1,2,0:0:0:0:
393,250,187469,6,0,P|434:241|470:253,1,81.25,10|0,3:0|0:0,0:0:0:0:
236,339,187631,2,0,P|195:348|159:336,1,81.25,2|2,0:0|0:0,0:0:0:0:
90,200,187793,1,10,0:0:0:0:
319,353,187955,1,2,0:0:0:0:
308,167,188118,6,0,B|259:114|277:32|277:32|248:108|169:120,1,292.50001115799,14|0,3:0|0:0,0:0:0:0:
91,114,188442,5,8,0:0:0:0:
367,29,188604,2,0,P|351:91|427:16,1,292.50001115799,14|0,3:0|0:0,0:0:0:0:
497,182,188928,6,0,P|459:206|408:216,1,97.50000371933,10|0,0:0|0:0,0:0:0:0:
240,155,189091,2,0,P|279:175|313:215,1,97.50000371933,10|0,0:0|0:0,0:0:0:0:
345,379,189253,2,0,P|343:334|360:284,1,97.50000371933,10|0,0:0|0:0,0:0:0:0:
240,155,189415,5,14,0:0:0:0:
193,170,189496,1,10,0:0:0:0:
144,168,189577,1,10,0:0:0:0:
102,143,189658,1,10,0:0:0:0:
79,90,189739,5,14,0:0:0:0:
133,113,189820,1,10,0:0:0:0:
144,168,189901,1,10,0:0:0:0:
118,221,189982,1,10,0:0:0:0:
56,252,190064,5,14,0:0:0:0:
30,305,190145,1,10,0:0:0:0:
41,360,190226,1,10,0:0:0:0:
95,383,190307,1,10,0:0:0:0:
148,326,190388,5,14,0:0:0:0:
221,299,190469,1,10,0:0:0:0:
295,320,190550,1,10,0:0:0:0:
345,379,190631,1,10,0:0:0:0:
372,303,190712,6,0,L|361:206,1,97.5,10|0,0:0|0:0,0:0:0:0:
243,224,191037,6,0,B|225:248|225:248|221:299,1,81.25,14|0,0:0|0:0,0:0:0:0:
425,359,191199,2,0,B|414:330|414:330|371:302,1,81.25,2|2,0:0|0:0,0:0:0:0:
148,326,191361,5,10,3:0:0:0:
176,368,191442,1,0,0:0:0:0:
228,380,191523,1,2,0:0:0:0:
272,360,191604,1,2,0:0:0:0:
295,320,191685,6,0,L|299:236,1,81.25,10|0,0:0|0:0,0:0:0:0:
152,244,191847,2,0,L|148:326,1,81.25,2|0,0:0|0:0,0:0:0:0:
172,168,192009,6,0,P|208:148|272:168,2,108.333333333333,10|2|2,3:0|0:0|0:0,0:0:0:0:
222,219,192334,5,8,0:0:0:0:
375,182,192496,2,0,P|386:172|362:179,1,81.25,2|0,2:0|0:0,0:0:0:0:
422,251,192658,5,10,3:0:0:0:
456,216,192739,1,0,0:0:0:0:
469,170,192820,1,2,0:0:0:0:
459,123,192901,1,0,0:0:0:0:
423,86,192982,6,0,P|384:72|344:76,1,81.25,10|0,0:0|0:0,0:0:0:0:
343,259,193145,2,0,P|383:263|421:250,1,81.25,2|0,0:0|0:0,0:0:0:0:
345,76,193307,6,0,P|276:167|343:259,1,243.75,14|0,3:0|0:0,0:0:0:0:
422,250,193631,6,0,P|456:219|464:194,3,38.9999988098145,8|2|2|2,0:0|0:0|0:0|0:0,0:0:0:0:
459,123,193955,1,8,3:0:0:0:
431,94,194037,1,2,0:0:0:0:
394,76,194118,1,2,0:0:0:0:
357,75,194199,1,2,0:0:0:0:
269,79,194280,6,0,L|224:81,3,45.4999986114502,8|2|2|2,0:0|0:0|0:0|0:0,0:0:0:0:
152,26,194604,1,8,3:0:0:0:
133,65,194685,1,2,0:0:0:0:
135,108,194766,1,2,0:0:0:0:
157,145,194847,1,2,0:0:0:0:
256,176,194928,6,0,L|309:173,3,52,8|2|2|2,0:0|0:0|2:0|0:0,0:0:0:0:
422,250,195253,1,2,0:0:0:0:
370,253,195334,1,2,0:0:0:0:
322,255,195415,1,2,0:0:0:0:
274,258,195496,1,2,0:0:0:0:
180,264,195577,6,0,P|146:295|140:316,3,58.4999982147217,8|2|2|2,0:0|0:0|0:0|0:0,0:0:0:0:
128,384,195901,6,0,L|228:376,1,97.50000371933,14|0,0:0|0:0,0:0:0:0:
370,253,196064,2,0,L|470:245,1,97.50000371933,10|0,0:0|0:0,0:0:0:0:
142,305,196226,2,0,L|242:297,1,97.50000371933,10|0,0:0|0:0,0:0:0:0:
321,182,196388,5,2,0:0:0:0:
368,177,196469,1,2,0:0:0:0:
415,174,196550,2,0,P|423:132|409:98,1,81.25,10|0,3:0|0:0,0:0:0:0:
230,220,196712,2,0,P|223:260|239:297,1,81.25,2|0,0:0|0:0,0:0:0:0:
295,108,196874,6,0,L|214:115,1,81.25,10|0,0:0|0:0,0:0:0:0:
370,253,197037,2,0,L|451:260,1,81.25,2|2,0:0|0:0,0:0:0:0:
321,182,197199,5,14,0:0:0:0:
225,376,197361,1,10,0:0:0:0:
415,174,197523,1,10,0:0:0:0:
239,297,197685,1,2,2:0:0:0:
450,259,197847,6,0,P|489:236|505:205,1,81.25,10|0,3:0|0:0,0:0:0:0:
324,159,198009,2,0,P|325:203|344:233,1,81.25,2|0,3:0|0:0,0:0:0:0:
474,109,198172,2,0,P|434:88|399:89,1,81.25,10|0,0:0|0:0,0:0:0:0:
242,121,198334,2,0,P|201:121|166:101,1,81.25,2|0,0:0|0:0,0:0:0:0:
26,115,198496,6,0,B|38:307|38:307|105:232,1,292.50001115799,14|8,3:0|0:0,0:0:0:0:
174,200,198820,5,14,0:0:0:0:
229,182,198901,1,10,0:0:0:0:
282,206,198982,1,10,0:0:0:0:
304,260,199064,1,10,0:0:0:0:
299,330,199145,5,14,0:0:0:0:
289,268,199226,1,10,0:0:0:0:
282,206,199307,1,10,0:0:0:0:
275,144,199388,1,10,0:0:0:0:
270,77,199469,5,14,0:0:0:0:
302,134,199550,1,10,0:0:0:0:
364,156,199631,1,10,0:0:0:0:
429,146,199712,1,10,0:0:0:0:
478,103,199793,5,14,3:0:0:0:
374,22,199955,2,8,L|371:55,5,32.5,14|8|14|8|14|8,0:0|0:0|0:0|0:0|0:0|0:0,0:0:0:0:
270,77,200442,5,14,0:0:0:0:
258,68,200523,1,8,0:0:0:0:
244,61,200604,1,8,0:0:0:0:
229,57,200685,1,8,0:0:0:0:
214,56,200766,5,8,0:0:0:0:
234,100,200847,1,10,0:0:0:0:
237,158,200928,1,10,0:0:0:0:
202,216,201009,1,10,0:0:0:0:
133,232,201091,6,0,B|32:236|32:236|76:252,1,146.250005578995,14|0,3:0|0:0,0:0:0:0:
192,284,201415,2,0,P|212:232|164:160,1,146.250005578995,10|0,0:0|0:0,0:0:0:0:
29,132,201739,2,0,B|-13:148|-13:148|88:152,1,146.250005578995,10|0,0:0|0:0,0:0:0:0:
166,161,202064,1,10,0:0:0:0:
44,56,202226,1,2,0:0:0:0:
133,232,202388,6,0,P|113:284|161:356,1,146.250005578995,10|2,0:0|0:0,0:0:0:0:
172,364,202712,2,0,L|268:348,1,97.50000371933,10|2,0:0|0:0,0:0:0:0:
392,328,203037,2,0,P|396:276|372:236,1,97.50000371933,10|0,0:0|0:0,0:0:0:0:
192,284,203361,1,10,0:0:0:0:
320,296,203523,1,10,0:0:0:0:
304,177,203685,6,0,B|204:185|204:185|160:157,1,146.250005578995,14|0,0:0|0:0,0:0:0:0:
228,104,204009,2,0,B|328:96|328:96|372:124,1,146.250005578995,10|0,0:0|0:0,0:0:0:0:
442,192,204334,2,0,B|342:201|342:201|304:177,1,146.250005578995,10|0,0:0|0:0,0:0:0:0:
366,120,204658,2,0,L|508:108,1,97.50000371933,10|2,0:0|0:0,0:0:0:0:
452,208,204982,5,10,0:0:0:0:
444,328,205145,1,0,0:0:0:0:
444,328,205226,1,2,0:0:0:0:
444,328,205307,2,0,P|388:328|352:356,1,97.50000371933,10|2,0:0|0:0,0:0:0:0:
176,312,205631,2,0,P|232:312|268:284,1,97.50000371933,10|2,0:0|0:0,0:0:0:0:
212,96,205955,1,10,0:0:0:0:
204,240,206118,1,10,0:0:0:0:
316,218,206280,6,0,L|324:72,1,136.499995834351,14|0,0:0|0:0,0:0:0:0:
202,104,206604,2,0,B|209:132|209:132|203:249,1,136.499995834351,10|0,0:0|0:0,0:0:0:0:
93,199,206928,2,0,L|101:52,1,136.499995834351,10|0,0:0|0:0,0:0:0:0:
104,40,207253,1,10,0:0:0:0:
0,128,207415,1,2,0:0:0:0:
202,104,207577,6,0,L|206:12,1,90.9999972229005,10|2,0:0|0:0,0:0:0:0:
204,0,207820,1,2,0:0:0:0:
204,0,207901,1,10,0:0:0:0:
93,199,208064,1,2,0:0:0:0:
220,192,208226,2,0,P|260:176|288:136,1,90.9999972229005,10|0,0:0|0:0,0:0:0:0:
205,13,208550,1,10,0:0:0:0:
160,288,208712,1,10,0:0:0:0:
304,276,208874,6,0,B|348:272|348:272|384:252|384:252|428:248,1,126.749994197846,14|0,0:0|0:0,0:0:0:0:
510,339,209199,2,0,B|484:302|484:302|449:281|449:281|425:248,1,126.749994197846,10|0,0:0|0:0,0:0:0:0:
462,130,209523,2,0,B|442:169|442:169|441:210|441:210|425:248,1,126.749994197846,10|0,0:0|0:0,0:0:0:0:
320,196,209847,2,0,L|233:201,1,84.4999961318971,10|2,0:0|0:0,0:0:0:0:
128,264,210172,6,0,P|146:203|117:144,1,126.749994197846,10|2,0:0|0:0,0:0:0:0:
59,209,210496,1,10,0:0:0:0:
236,201,210658,1,2,0:0:0:0:
176,80,210820,2,0,P|115:61|56:90,1,126.749994197846,10|2,0:0|0:0,0:0:0:0:
48,125,211145,2,0,L|59:209,1,84.4999961318971,10|10,0:0|0:0,0:0:0:0:
128,264,211469,6,0,B|184:276|184:276|244:268,1,116.999996429443,10|0,0:0|0:0,0:0:0:0:
324,356,211793,2,0,B|268:344|268:344|208:352,1,116.999996429443,10|0,0:0|0:0,0:0:0:0:
320,276,212118,2,0,B|376:288|376:288|436:280,1,116.999996429443,10|0,0:0|0:0,0:0:0:0:
456,276,212442,1,10,0:0:0:0:
380,200,212604,1,2,0:0:0:0:
248,192,212766,6,0,L|244:268,1,75.4000023010255,10|0,0:0|0:0,0:0:0:0:
248,284,213009,1,2,0:0:0:0:
248,284,213091,1,10,0:0:0:0:
324,356,213253,1,2,0:0:0:0:
152,328,213415,2,0,P|115:320|80:332,1,75.4000023010255,10|0,0:0|0:0,0:0:0:0:
16,204,213739,2,0,P|51:215|87:208,1,75.4000023010255,10|10,0:0|0:0,0:0:0:0:
168,156,214064,6,0,L|172:44,1,109.200001333008,14|0,0:0|0:0,0:0:0:0:
251,82,214388,2,0,L|247:191,1,109.200001333008,10|0,0:0|0:0,0:0:0:0:
328,164,214712,2,0,L|331:54,1,109.200001333008,10|0,0:0|0:0,0:0:0:0:
408,76,215037,2,0,L|404:184,1,72.8000008886719,10|2,0:0|0:0,0:0:0:0:
400,248,215361,5,0,0:0:0:0:
488,208,215523,1,0,0:0:0:0:
488,208,215604,1,2,0:0:0:0:
488,208,215685,1,10,0:0:0:0:
328,164,215847,1,2,0:0:0:0:
336,312,216009,2,0,L|340:384,1,67.5999995874024,10|0,0:0|0:0,0:0:0:0:
400,248,216334,1,10,0:0:0:0:
247,191,216496,1,10,0:0:0:0:
336,312,216658,5,14,0:0:0:0:
328,164,216820,1,8,0:0:0:0:
224,328,216982,1,10,0:0:0:0:
400,248,217145,1,8,0:0:0:0:
168,260,217307,1,10,0:0:0:0:
339,379,217469,1,10,0:0:0:0:
247,191,217631,1,10,0:0:0:0:
132,344,217793,1,10,0:0:0:0:
336,172,217955,5,14,0:0:0:0:
336,172,218037,1,0,0:0:0:0:
336,172,218118,1,8,0:0:0:0:
160,130,218280,1,8,0:0:0:0:
224,328,218442,1,8,0:0:0:0:
247,191,218604,1,8,0:0:0:0:
132,344,218766,1,8,0:0:0:0:
400,248,218928,1,8,0:0:0:0:
168,260,219091,1,8,0:0:0:0:
336,172,219253,6,0,B|400:120|400:120|404:40,1,162.5,14|0,0:0|0:0,0:0:0:0:
264,72,219577,1,8,0:0:0:0:
264,72,219739,1,8,0:0:0:0:
167,259,219901,6,0,B|104:188|104:188|96:88,1,195.00000743866,14|0,0:0|0:0,0:0:0:0:
264,72,220225,1,8,0:0:0:0:
264,72,220387,1,8,0:0:0:0:
318,248,220550,5,14,0:0:0:0:
320,270,220631,1,10,0:0:0:0:
322,292,220712,1,10,0:0:0:0:
324,314,220793,1,10,0:0:0:0:
280,285,220874,5,14,0:0:0:0:
228,277,220955,1,10,0:0:0:0:
176,287,221037,1,10,0:0:0:0:
142,326,221118,1,10,0:0:0:0:
134,380,221199,5,14,0:0:0:0:
180,344,221280,1,10,0:0:0:0:
176,287,221361,1,10,0:0:0:0:
135,244,221442,1,10,0:0:0:0:
68,246,221523,5,14,0:0:0:0:
14,208,221604,1,10,0:0:0:0:
0,145,221685,1,10,0:0:0:0:
34,89,221766,1,10,0:0:0:0:
97,159,221847,6,0,B|141:120|124:63|124:63|175:82|175:82|230:44|314:80|314:80|266:112|260:192|324:224|370:212|370:212|414:200|438:160|422:104|386:86|386:86|384:120|353:142|353:142|421:111|421:111|480:84|480:84|516:172|464:236,1,1040,14|0,3:0|0:0,0:0:0:0:
