osu file format v14

[General]
AudioFilename: audio.mp3
AudioLeadIn: 0
PreviewTime: 165070
Countdown: 0
SampleSet: Soft
StackLeniency: 0.7
Mode: 2
LetterboxInBreaks: 0
WidescreenStoryboard: 0

[Editor]
Bookmarks: 14213,27927,41641,55356,69070,82784,94784,96499,110213,123927,137641,143320,151356,165070,178784,192499,206213,219927,233641,247784
DistanceSpacing: 1
BeatDivisor: 4
GridSize: 16
TimelineZoom: 1

[Metadata]
Title:Sanshi Suimei
TitleUnicode:山紫水明
Artist:Tanchiky
ArtistUnicode:Tanchiky
Creator:wonjae
Version:Serenity
Source:
Tags:nika mika riparia records paranoid grapes stair featured artist electronic instrumental other
BeatmapID:2886891
BeatmapSetID:1399262

[Difficulty]
HPDrainRate:5
CircleSize:4.1
OverallDifficulty:9.5
ApproachRate:9.5
SliderMultiplier:2.3
SliderTickRate:2

[Events]
//Background and Video events
0,0,"216174.jpg",0,0
//Break Periods
//Storyboard Layer 0 (Background)
//Storyboard Layer 1 (Fail)
//Storyboard Layer 2 (Pass)
//Storyboard Layer 3 (Foreground)
//Storyboard Layer 4 (Overlay)
//Storyboard Sound Samples

[TimingPoints]
499,428.571428571429,4,2,1,80,1,0
21070,-90.9090909090909,4,2,1,80,0,0
27927,-80,4,2,1,80,0,1
28034,-80,4,2,1,80,0,0
55356,-80,4,2,2,80,0,1
55463,-80,4,2,2,80,0,0
61784,-80,4,2,1,80,0,0
62213,-80,4,2,2,80,0,0
68213,-80,4,2,1,80,0,0
68641,-80,4,2,1,80,0,0
69070,-75.187969924812,4,2,3,80,0,1
69177,-75.187969924812,4,2,3,80,0,0
94784,-75.187969924812,4,2,1,80,0,0
96499,-80,4,2,1,80,0,1
96606,-80,4,2,1,80,0,0
109677,-80,4,2,2,80,0,0
110213,-80,4,2,1,80,0,0
130784,-80,4,2,1,80,0,0
135927,-80,4,2,1,80,0,0
137641,-75.187969924812,4,2,1,80,0,1
137749,-75.187969924812,4,2,1,80,0,0
141499,-40,4,2,1,80,0,0
141927,-75.187969924812,4,2,1,80,0,0
148356,-40,4,2,1,80,0,0
148784,-75.187969924812,4,2,1,80,0,0
149641,-75.187969924812,4,2,1,80,0,0
151356,-75.187969924812,4,2,1,80,0,0
152213,-80,4,2,1,80,0,0
154784,-75.187969924812,4,2,1,80,0,0
155213,-40,4,2,1,80,0,0
155641,-75.187969924812,4,2,1,80,0,0
162070,-40,4,2,1,80,0,0
162499,-80,4,2,1,80,0,0
164213,-80,4,2,1,80,0,0
165070,-76.9230769230769,4,2,3,80,0,1
190784,-76.9230769230769,4,2,3,80,0,0
192070,-76.9230769230769,4,2,1,80,0,0
192499,-80,4,2,1,80,0,0
206641,-80,4,2,1,80,0,0
219927,-80,4,2,1,80,0,0
220999,-80,4,2,1,80,0,0
223356,-80,4,2,1,80,0,0
224213,-80,4,2,1,80,0,0
226784,-80,4,2,1,80,0,0
227856,-80,4,2,1,80,0,0
230213,-80,4,2,1,80,0,0
231284,-80,4,2,1,80,0,0

[Colours]
Combo1 : 159,159,159
Combo2 : 193,193,0
Combo3 : 13,174,227
Combo4 : 0,164,82

[HitObjects]
197,327,499,5,2,0:0:0:0:
311,303,713,1,0,0:0:0:0:
346,301,820,1,0,0:0:0:0:
311,303,927,1,0,1:0:0:0:
422,273,1141,1,0,0:0:0:0:
422,273,1249,1,0,0:0:0:0:
275,302,1356,1,10,0:0:0:0:
180,296,1570,1,0,0:0:0:0:
141,301,1677,1,0,0:0:0:0:
180,296,1784,1,0,0:0:0:0:
282,250,1999,1,0,0:0:0:0:
282,250,2106,1,0,0:0:0:0:
282,250,2213,5,2,0:0:0:0:
375,194,2427,1,0,0:0:0:0:
422,180,2534,1,0,0:0:0:0:
375,194,2641,1,0,1:0:0:0:
282,250,2856,1,0,0:0:0:0:
236,264,2963,1,0,0:0:0:0:
282,250,3070,1,2,0:0:0:0:
166,289,3284,1,0,0:0:0:0:
110,303,3391,1,0,0:0:0:0:
166,289,3499,1,0,0:0:0:0:
253,231,3713,1,0,0:0:0:0:
252,190,3820,1,0,0:0:0:0:
251,152,3927,5,2,0:0:0:0:
362,116,4141,1,0,0:0:0:0:
415,104,4249,1,0,0:0:0:0:
362,116,4356,1,0,1:0:0:0:
246,119,4570,1,0,0:0:0:0:
247,159,4677,1,0,0:0:0:0:
96,193,4784,1,10,0:0:0:0:
196,237,4999,1,0,0:0:0:0:
253,236,5106,1,0,0:0:0:0:
196,237,5213,1,0,0:0:0:0:
310,308,5427,1,0,0:0:0:0:
310,308,5534,1,0,0:0:0:0:
310,308,5641,5,2,0:0:0:0:
202,340,5856,1,0,0:0:0:0:
147,344,5963,1,0,0:0:0:0:
202,340,6070,1,0,1:0:0:0:
312,282,6284,1,0,0:0:0:0:
371,277,6391,1,0,0:0:0:0:
312,280,6499,1,2,0:0:0:0:
207,240,6713,1,0,0:0:0:0:
262,237,6820,1,0,0:0:0:0:
207,240,6927,1,0,0:0:0:0:
79,233,7141,1,0,0:0:0:0:
79,233,7249,1,0,0:0:0:0:
79,233,7356,5,0,1:0:0:0:
202,174,7570,1,2,0:0:0:0:
261,175,7677,1,0,0:0:0:0:
202,174,7784,1,0,0:0:0:0:
327,122,7999,1,0,0:0:0:0:
327,122,8106,1,0,0:0:0:0:
476,121,8213,1,8,0:0:0:0:
374,203,8427,1,2,0:0:0:0:
435,201,8534,1,0,0:0:0:0:
374,203,8641,1,0,0:0:0:0:
268,216,8856,1,0,0:0:0:0:
268,216,8963,1,0,0:0:0:0:
268,216,9070,5,0,1:0:0:0:
159,289,9284,1,2,0:0:0:0:
100,292,9391,1,0,0:0:0:0:
159,289,9499,1,0,0:0:0:0:
277,327,9713,1,0,0:0:0:0:
336,327,9820,1,0,0:0:0:0:
277,327,9927,1,0,1:0:0:0:
161,326,10141,1,2,0:0:0:0:
218,326,10249,1,0,0:0:0:0:
161,326,10356,1,0,0:0:0:0:
39,331,10570,1,0,0:0:0:0:
39,331,10677,1,0,0:0:0:0:
39,331,10784,5,0,1:0:0:0:
161,326,10999,1,2,0:0:0:0:
103,328,11106,1,0,0:0:0:0:
161,326,11213,1,0,0:0:0:0:
262,280,11427,1,0,0:0:0:0:
262,280,11534,1,0,0:0:0:0:
113,276,11641,1,8,0:0:0:0:
196,229,11856,1,2,0:0:0:0:
260,230,11963,1,0,0:0:0:0:
196,229,12070,1,0,0:0:0:0:
340,177,12284,1,0,0:0:0:0:
340,177,12391,1,0,0:0:0:0:
340,177,12499,5,0,1:0:0:0:
283,178,12606,1,0,0:0:0:0:
141,165,12713,1,0,1:0:0:0:
141,165,12820,1,0,1:0:0:0:
283,123,12927,1,0,1:0:0:0:
283,123,13034,1,0,0:0:0:0:
423,78,13141,1,0,1:0:0:0:
423,78,13249,1,0,0:0:0:0:
283,123,13356,1,10,0:0:0:0:
169,160,13570,1,0,0:0:0:0:
237,157,13677,1,0,0:0:0:0:
169,160,13784,1,0,0:0:0:0:
279,223,13999,1,0,0:0:0:0:
279,223,14106,1,0,0:0:0:0:
486,221,14213,5,0,1:0:0:0:
486,221,14427,1,0,0:0:0:0:
259,239,14641,2,0,B|356:238|356:238|360:152,1,172.5,2|0,0:0|0:0,0:0:0:0:
259,239,15070,2,0,B|356:238|356:238|360:152,1,172.5,2|2,0:0|0:0,0:0:0:0:
259,239,15499,2,0,L|346:237,1,57.5,2|0,0:0|0:0,0:0:0:0:
201,212,15713,2,0,L|265:212,1,57.5,2|0,0:0|0:0,0:0:0:0:
150,167,15927,5,0,1:0:0:0:
257,117,16141,1,0,0:0:0:0:
257,117,16249,1,0,0:0:0:0:
392,110,16356,2,0,B|295:109|295:109|291:23,1,172.5,2|0,0:0|0:0,0:0:0:0:
392,110,16784,2,0,B|295:109|295:109|291:23,1,172.5,2|2,0:0|0:0,0:0:0:0:
392,110,17213,2,0,L|305:108,1,57.5,2|0,0:0|0:0,0:0:0:0:
459,81,17427,2,0,L|395:81,1,57.5,2|0,0:0|0:0,0:0:0:0:
166,210,17641,5,0,1:0:0:0:
96,272,17856,1,2,0:0:0:0:
153,269,17963,1,0,0:0:0:0:
94,259,18070,2,0,B|94:368|94:368|200:363,1,172.5,2|0,0:0|0:0,0:0:0:0:
277,351,18499,2,0,L|74:348,1,172.5,2|0,1:0|0:0,0:0:0:0:
217,293,18927,2,0,L|300:282,1,57.5,2|0,0:0|0:0,0:0:0:0:
149,249,19141,2,0,L|67:247,1,57.5
216,176,19356,5,0,1:0:0:0:
334,132,19570,1,2,0:0:0:0:
270,129,19677,1,2,0:0:0:0:
334,132,19784,2,0,B|332:228|332:228|228:236,1,172.5,0|0,1:0|0:0,0:0:0:0:
130,305,20213,2,0,L|336:302,1,172.5,2|0,1:0|0:0,0:0:0:0:
423,347,20641,2,0,L|366:351,1,57.5,2|0,1:0|0:0,0:0:0:0:
241,306,20856,2,0,L|300:300,1,57.5,2|0,0:0|0:0,0:0:0:0:
422,236,21070,5,0,1:0:0:0:
292,240,21284,1,0,0:0:0:0:
292,240,21391,1,0,0:0:0:0:
159,220,21499,2,0,B|163:124|163:124|277:116,1,189.750005790711,2|0,1:2|0:0,0:0:0:0:
141,211,21927,2,0,B|145:115|145:115|259:107,1,189.750005790711,2|2,1:0|0:0,0:0:0:0:
126,77,22356,2,0,L|195:75,1,63.2500019302369,0|0,1:0|0:0,0:0:0:0:
83,43,22570,2,0,L|150:40,1,63.2500019302369,2|0,0:0|0:0,0:0:0:0:
243,37,22784,5,0,1:0:0:0:
323,163,22999,2,0,L|251:178,1,63.2500019302369
356,220,23213,2,0,B|352:124|352:124|238:116,1,189.750005790711,2|0,1:2|1:0,0:0:0:0:
374,211,23641,2,0,B|370:115|370:115|256:107,1,189.750005790711,2|0,1:0|0:0,0:0:0:0:
381,72,24070,2,0,L|444:73,1,63.2500019302369,2|0,1:2|0:0,0:0:0:0:
326,45,24284,2,0,L|263:38,1,63.2500019302369,0|0,0:0|0:0,0:0:0:0:
123,59,24499,5,0,1:0:0:0:
239,122,24713,1,0,0:0:0:0:
179,119,24820,1,0,0:0:0:0:
309,135,24927,2,0,B|411:134|411:134|426:21,1,189.750005790711,2|0,1:2|0:0,0:0:0:0:
282,203,25356,2,0,B|196:191|196:191|195:89,1,189.750005790711,2|0,1:0|0:0,0:0:0:0:
330,240,25784,2,0,B|432:239|432:239|447:126,1,189.750005790711,2|0,1:2|0:0,0:0:0:0:
182,200,26213,5,4,3:0:0:0:
182,200,26641,1,0,0:0:0:0:
315,231,26963,1,0,0:0:0:0:
261,232,27070,1,0,0:0:0:0:
137,239,27284,1,8,0:0:0:0:
214,234,27391,1,0,0:0:0:0:
135,163,27499,1,0,0:0:0:0:
179,153,27552,1,0,0:0:0:0:
200,148,27606,1,0,0:0:0:0:
179,153,27659,1,0,0:0:0:0:
135,163,27713,1,8,0:0:0:0:
275,187,27784,1,0,0:0:0:0:
331,187,27856,1,0,0:0:0:0:
110,245,27927,5,0,1:0:0:0:
256,299,28141,1,0,0:0:0:0:
256,299,28249,1,0,0:0:0:0:
428,294,28356,1,2,1:0:0:0:
256,299,28570,1,0,0:0:0:0:
256,299,28678,1,0,0:0:0:0:
67,303,28784,1,2,1:0:0:0:
252,255,28999,1,0,0:0:0:0:
83,259,29106,2,0,L|296:258,1,143.75,0|0,2:0|0:0,0:0:0:0:
21,232,29427,2,0,L|93:229,1,71.875,8|0,0:0|0:0,0:0:0:0:
357,235,29641,5,2,1:0:0:0:
471,133,29856,1,0,0:0:0:0:
471,133,29963,1,0,0:0:0:0:
269,139,30070,1,2,1:0:0:0:
170,137,30284,1,10,0:0:0:0:
170,137,30391,1,0,0:0:0:0:
384,126,30499,1,2,1:0:0:0:
210,191,30713,1,8,0:0:0:0:
332,195,30820,1,0,0:0:0:0:
210,191,30927,1,2,1:0:0:0:
106,258,31141,1,2,0:0:0:0:
106,258,31249,1,0,0:0:0:0:
404,248,31356,5,10,1:0:0:0:
233,257,31570,1,0,0:0:0:0:
233,257,31677,1,0,0:0:0:0:
28,261,31784,1,2,1:0:0:0:
194,199,31999,1,0,0:0:0:0:
194,199,32106,1,0,0:0:0:0:
396,186,32213,1,2,1:0:0:0:
199,142,32427,2,0,L|199:64,1,71.875,0|0,0:0|0:0,0:0:0:0:
396,67,32641,2,2,L|301:71,1,71.875,2|0,1:0|0:0,0:0:0:0:
432,39,32856,2,0,L|345:39,1,71.875,8|0,0:0|0:0,0:0:0:0:
158,118,33070,5,2,1:0:0:0:
350,138,33284,2,0,L|350:214,1,71.875,0|0,0:0|0:0,0:0:0:0:
134,292,33499,2,0,L|366:293,1,215.625,2|0,1:0|0:0,0:0:0:0:
171,244,33927,1,2,1:0:0:0:
171,244,34034,1,0,0:0:0:0:
306,196,34141,2,0,L|306:105,1,71.875,2|0,0:0|0:0,0:0:0:0:
430,116,34356,2,0,L|429:28,1,71.875,2|2,1:2|0:0,0:0:0:0:
308,198,34570,2,0,L|307:108,1,71.875,2|2,0:0|0:0,0:0:0:0:
171,244,34784,6,0,L|249:243,1,71.875,10|0,1:2|0:0,0:0:0:0:
124,199,34999,2,0,L|216:197,1,71.875,0|0,0:0|0:0,0:0:0:0:
367,97,35213,2,0,L|276:98,1,71.875,2|0,1:0|0:0,0:0:0:0:
403,56,35427,2,0,L|296:56,1,71.875,0|0,0:0|0:0,0:0:0:0:
84,57,35641,2,0,L|243:56,1,143.75,2|0,1:0|0:0,0:0:0:0:
160,59,35963,1,0,0:0:0:0:
379,211,36070,1,2,1:0:0:0:
264,309,36284,1,8,0:0:0:0:
332,309,36391,1,0,0:0:0:0:
66,175,36499,6,0,L|224:173,1,143.75,2|0,1:0|0:0,0:0:0:0:
138,173,36820,1,0,0:0:0:0:
209,173,36927,1,2,1:0:0:0:
362,222,37141,1,10,0:0:0:0:
362,222,37249,1,0,0:0:0:0:
171,247,37356,1,2,1:0:0:0:
362,222,37570,1,10,0:0:0:0:
362,222,37677,1,0,0:0:0:0:
102,237,37784,1,2,1:0:0:0:
275,229,37999,1,0,0:0:0:0:
346,227,38106,1,0,0:0:0:0:
103,145,38213,6,0,L|330:144,1,215.625,10|0,1:2|0:0,0:0:0:0:
109,79,38641,2,0,L|192:79,1,71.875,2|0,1:2|0:0,0:0:0:0:
269,42,38856,2,0,L|172:45,1,71.875
479,128,39070,2,0,L|396:128,1,71.875,2|0,1:2|0:0,0:0:0:0:
320,186,39284,2,0,L|402:182,1,71.875,0|0,0:0|0:0,0:0:0:0:
125,311,39499,2,0,L|219:304,1,71.875,2|0,1:2|0:0,0:0:0:0:
392,182,39713,2,0,L|305:188,1,71.875,8|0,0:0|0:0,0:0:0:0:
123,312,39927,6,0,L|111:194,1,71.875,2|0,1:2|0:0,0:0:0:0:
220,188,40141,2,0,L|137:195,1,71.875,0|2,0:0|0:0,0:0:0:0:
258,136,40356,2,0,L|160:145,1,71.875,2|0,1:2|0:0,0:0:0:0:
304,86,40570,2,0,L|232:90,1,71.875,0|0,0:0|0:0,0:0:0:0:
441,34,40784,2,0,L|515:36,1,71.875,10|0,1:2|0:0,0:0:0:0:
399,74,40999,2,0,L|490:76,1,71.875
222,250,41213,1,14,1:2:0:0:
157,251,41284,1,0,0:0:0:0:
222,250,41356,1,0,0:0:0:0:
157,251,41427,1,0,0:0:0:0:
78,251,41534,1,0,0:0:0:0:
302,195,41641,6,0,L|378:191,1,71.875,14|0,1:2|0:0,0:0:0:0:
467,137,41856,2,0,L|395:140,1,71.875,2|0,0:0|0:0,0:0:0:0:
301,193,42070,2,0,L|375:191,1,71.875,2|0,1:0|0:0,0:0:0:0:
265,146,42284,2,0,L|186:151,1,71.875,2|0,0:0|0:0,0:0:0:0:
458,92,42499,1,2,1:0:0:0:
317,90,42713,2,0,L|406:100,1,71.875,0|2,0:0|1:0,0:0:0:0:
315,56,42927,2,0,L|243:61,1,71.875
360,95,43142,2,0,L|288:98,1,71.875,8|0,0:0|0:0,0:0:0:0:
86,224,43356,5,2,1:2:0:0:
212,260,43570,2,0,L|283:260,1,71.875
387,265,43784,2,0,L|301:265,1,71.875,2|0,1:0|0:0,0:0:0:0:
99,269,43999,2,0,L|181:264,1,71.875,10|0,0:0|0:0,0:0:0:0:
57,222,44213,2,0,L|128:218,1,71.875,2|0,1:0|0:0,0:0:0:0:
364,136,44427,2,0,L|280:129,1,71.875,8|0,0:0|0:0,0:0:0:0:
219,73,44641,2,0,L|316:71,1,71.875,2|0,1:0|0:0,0:0:0:0:
71,48,44856,2,0,L|147:46,1,71.875,2|0,0:0|0:0,0:0:0:0:
356,172,45070,6,0,L|270:171,1,71.875,8|0,1:2|0:0,0:0:0:0:
397,115,45284,2,0,L|314:114,1,71.875,2|0,0:0|0:0,0:0:0:0:
208,81,45499,2,0,L|285:79,1,71.875,2|0,1:0|0:0,0:0:0:0:
397,115,45713,2,0,L|279:114,1,71.875,2|0,0:0|0:0,0:0:0:0:
86,229,45927,2,0,L|201:231,1,71.875,2|0,1:0|0:0,0:0:0:0:
265,305,46141,2,0,L|170:310,1,71.875,2|0,0:0|0:0,0:0:0:0:
433,186,46356,2,0,L|344:191,1,71.875,2|0,1:0|0:0,0:0:0:0:
258,120,46570,2,0,L|345:122,1,71.875,8|0,0:0|0:0,0:0:0:0:
94,54,46784,6,0,L|256:58,1,143.75,2|0,1:2|0:0,0:0:0:0:
156,99,47106,1,0,0:0:0:0:
363,240,47213,2,0,L|176:252,1,143.75,2|2,1:0|0:0,0:0:0:0:
304,283,47534,1,0,0:0:0:0:
88,199,47641,2,0,L|92:301,1,71.875,2|0,1:0|0:0,0:0:0:0:
205,343,47856,2,0,L|207:255,1,71.875,2|0,0:0|0:0,0:0:0:0:
476,221,48070,2,0,L|395:229,1,71.875,2|0,1:0|0:0,0:0:0:0:
292,164,48284,2,0,L|395:165,1,71.875
120,101,48499,6,0,L|191:95,1,71.875,10|0,0:0|0:0,0:0:0:0:
279,136,48713,2,0,L|354:133,1,71.875,0|0,0:0|0:0,0:0:0:0:
243,223,48927,2,0,L|324:219,1,71.875,2|0,1:0|0:0,0:0:0:0:
414,301,49141,2,0,L|497:298,1,71.875,2|0,0:0|0:0,0:0:0:0:
223,329,49356,1,2,1:0:0:0:
359,264,49570,1,2,0:0:0:0:
154,241,49677,2,0,L|226:276,1,71.875,0|2,0:0|1:0,0:0:0:0:
122,181,49891,1,0,0:0:0:0:
230,165,49999,2,0,L|159:127,1,71.875,8|0,0:0|0:0,0:0:0:0:
364,105,50213,5,2,1:2:0:0:
238,178,50427,1,0,0:0:0:0:
238,178,50534,1,0,0:0:0:0:
454,245,50641,1,2,1:0:0:0:
317,284,50856,1,10,0:0:0:0:
317,284,50963,1,0,0:0:0:0:
93,333,51070,1,2,1:0:0:0:
218,251,51284,1,10,0:0:0:0:
157,251,51391,1,0,0:0:0:0:
357,153,51499,2,0,L|265:155,1,71.875,2|0,1:0|0:0,0:0:0:0:
172,77,51713,2,0,L|263:79,1,71.875,8|0,0:0|0:0,0:0:0:0:
494,174,51927,6,0,L|334:176,1,143.75,4|2,1:2|0:0,0:0:0:0:
432,220,52249,1,0,0:0:0:0:
202,315,52356,2,0,L|383:311,1,143.75,2|2,1:0|0:0,0:0:0:0:
273,319,52677,1,0,0:0:0:0:
51,239,52784,2,0,L|148:234,1,71.875,2|0,1:2|0:0,0:0:0:0:
224,37,52999,2,0,L|139:36,1,71.875,2|0,0:0|0:0,0:0:0:0:
35,81,53213,2,0,L|137:69,1,71.875,2|0,1:0|0:0,0:0:0:0:
325,137,53427,2,0,L|240:137,1,71.875,10|0,0:0|0:0,0:0:0:0:
480,85,53641,6,0,L|390:88,2,71.875,6|0|2,1:2|0:0|0:0,0:0:0:0:
266,198,53963,1,8,1:0:0:0:
480,85,54070,2,0,L|388:90,2,71.875,10|0|0,1:0|0:0|1:0,0:0:0:0:
264,206,54391,1,0,0:0:0:0:
480,85,54499,2,0,L|382:91,1,71.875,10|0,1:0|0:0,0:0:0:0:
221,221,54713,2,0,L|326:222,1,71.875,0|0,0:0|0:0,0:0:0:0:
65,343,54927,1,2,1:0:0:0:
13,347,54999,1,0,0:0:0:0:
65,343,55070,1,0,0:0:0:0:
13,347,55141,1,0,0:0:0:0:
110,343,55249,1,0,0:0:0:0:
358,207,55356,6,0,B|215:213|215:213|212:291,1,215.625,6|0,0:0|0:0,0:0:0:0:
345,180,55784,2,0,B|202:186|202:186|199:264,1,215.625,2|8,0:0|0:0,0:0:0:0:
336,196,56213,1,10,0:0:0:0:
186,229,56427,1,2,0:0:0:0:
242,227,56499,1,0,0:0:0:0:
186,229,56570,1,0,0:0:0:0:
242,227,56641,1,10,0:0:0:0:
108,228,56856,1,0,0:0:0:0:
326,199,57070,5,10,0:0:0:0:
202,172,57284,1,2,0:0:0:0:
258,170,57356,1,0,0:0:0:0:
202,172,57427,1,0,0:0:0:0:
258,170,57499,1,10,0:0:0:0:
372,166,57713,1,2,0:0:0:0:
158,288,57927,2,0,L|254:282,1,71.875,14|0,0:0|0:0,0:0:0:0:
353,224,58141,2,0,L|255:226,1,71.875,0|0,0:0|0:0,0:0:0:0:
153,196,58356,2,0,L|249:190,1,71.875,8|0,0:0|0:0,0:0:0:0:
303,162,58570,2,0,L|374:155,1,71.875,0|0,0:0|0:0,0:0:0:0:
160,144,58784,6,0,B|303:150|303:150|306:228,1,215.625,6|0,0:0|0:0,0:0:0:0:
182,126,59212,2,0,B|325:132|325:132|328:210,1,215.625,2|8,0:0|0:0,0:0:0:0:
203,159,59641,1,10,0:0:0:0:
367,207,59856,1,2,0:0:0:0:
311,205,59928,1,0,0:0:0:0:
367,207,59999,1,0,0:0:0:0:
311,205,60071,1,10,0:0:0:0:
151,242,60284,1,2,0:0:0:0:
468,245,60499,6,0,L|467:173,1,71.875,14|0,0:0|0:0,0:0:0:0:
354,151,60713,2,0,L|353:62,1,71.875
241,44,60927,2,0,L|242:121,1,71.875,8|0,0:0|0:0,0:0:0:0:
129,55,61141,1,0,0:0:0:0:
169,55,61195,1,0,0:0:0:0:
129,55,61249,1,0,0:0:0:0:
41,33,61356,2,0,L|179:42,1,71.875,10|0,0:0|0:0,0:0:0:0:
200,131,61570,2,0,L|116:132,1,71.875,2|0,0:0|0:0,0:0:0:0:
224,214,61784,1,12,0:0:0:0:
188,216,61837,1,0,0:0:0:0:
152,218,61891,1,0,0:0:0:0:
45,303,61999,2,0,L|116:300,1,71.875,2|0,0:0|0:0,0:0:0:0:
352,254,62213,5,6,1:2:0:0:
243,261,62427,1,0,0:0:0:0:
243,261,62534,1,0,0:0:0:0:
372,255,62641,1,6,1:2:0:0:
241,181,62856,1,2,0:0:0:0:
241,181,62963,1,8,0:0:0:0:
369,123,63070,2,0,L|291:121,1,71.875,10|0,1:2|0:0,0:0:0:0:
426,87,63284,2,0,L|350:87,1,71.875,2|0,0:0|0:0,0:0:0:0:
235,64,63499,2,0,L|421:62,1,143.75,8|0,1:0|0:0,0:0:0:0:
309,86,63820,1,0,0:0:0:0:
133,169,63927,6,0,L|208:169,1,71.875,6|0,1:2|0:0,0:0:0:0:
96,219,64141,2,0,L|177:220,1,71.875,2|0,0:0|0:0,0:0:0:0:
262,287,64356,2,0,L|173:293,1,71.875,10|0,1:0|0:0,0:0:0:0:
86,324,64570,2,0,L|157:320,1,71.875,2|0,0:0|0:0,0:0:0:0:
413,225,64784,2,0,L|314:231,1,71.875,2|2,1:2|0:0,0:0:0:0:
451,169,64999,2,0,L|362:170,1,71.875,2|2,0:0|0:0,0:0:0:0:
282,93,65213,2,0,L|401:92,1,71.875,4|0,1:2|0:0,0:0:0:0:
472,153,65427,2,0,L|377:156,1,71.875,0|0,0:0|0:0,0:0:0:0:
125,166,65641,5,6,1:2:0:0:
268,166,65856,1,0,0:0:0:0:
268,166,65963,1,0,0:0:0:0:
125,166,66070,1,6,1:2:0:0:
295,130,66284,1,2,0:0:0:0:
295,130,66391,1,8,0:0:0:0:
150,131,66499,2,0,L|143:42,1,71.875,10|0,1:2|0:0,0:0:0:0:
263,110,66713,2,0,L|269:19,1,71.875,2|0,0:0|0:0,0:0:0:0:
387,55,66927,2,0,L|310:54,1,71.875,8|0,1:0|0:0,0:0:0:0:
434,124,67141,2,0,L|359:123,1,71.875,2|0,0:0|0:0,0:0:0:0:
108,94,67356,6,0,L|205:92,1,71.875,4|0,0:0|0:0,0:0:0:0:
287,168,67570,2,0,L|194:180,1,71.875,4|0,0:0|0:0,0:0:0:0:
331,247,67784,2,0,L|403:254,1,71.875,4|0,0:0|0:0,0:0:0:0:
164,319,67999,2,0,L|84:338,1,71.875,4|0,0:0|0:0,0:0:0:0:
320,254,68213,2,0,L|197:286,1,71.875,12|0,0:0|0:0,0:0:0:0:
488,266,68427,1,0,0:0:0:0:
413,236,68641,2,0,L|331:245,1,71.875,10|2,0:0|0:0,0:0:0:0:
77,185,68856,2,0,L|157:186,1,71.875,2|2,0:0|0:0,0:0:0:0:
413,236,69070,6,0,L|226:235,1,152.949993698654,14|2,0:1|0:0,0:0:0:0:
358,238,69391,1,2,0:0:0:0:
259,242,69499,2,0,L|463:245,1,152.949993698654,10|0,0:0|1:0,0:0:0:0:
321,239,69820,1,0,0:0:0:0:
412,245,69927,1,10,0:0:0:0:
252,176,70141,1,2,0:0:0:0:
252,176,70249,1,2,0:0:0:0:
366,170,70356,2,0,L|281:167,1,76.4749968493272,10|0,0:0|0:0,0:0:0:0:
490,104,70570,2,0,L|408:102,1,76.4749968493272,8|0,0:0|0:0,0:0:0:0:
99,236,70784,6,0,L|304:246,1,152.949993698654,10|2,0:0|1:2,0:0:0:0:
154,230,71105,1,0,0:0:0:0:
252,243,71213,2,0,L|146:246,1,76.4749968493272,10|0,0:0|0:0,0:0:0:0:
288,205,71427,2,0,L|195:208,1,76.4749968493272,2|0,1:2|0:0,0:0:0:0:
330,156,71641,2,0,L|253:155,1,76.4749968493272,10|0,0:0|0:0,0:0:0:0:
76,81,71856,2,0,L|167:82,1,76.4749968493272,2|0,1:2|0:0,0:0:0:0:
360,157,72070,1,10,1:0:0:0:
186,238,72284,1,2,0:0:0:0:
186,238,72391,1,0,0:0:0:0:
434,305,72499,6,0,L|261:311,1,152.949993698654,10|8,0:0|0:0,0:0:0:0:
185,315,72820,1,0,0:0:0:0:
281,310,72927,2,0,L|92:320,1,152.949993698654,10|8,1:2|0:0,0:0:0:0:
225,326,73249,1,0,0:0:0:0:
129,319,73356,1,10,1:2:0:0:
298,241,73570,2,0,L|207:247,1,76.4749968493272,2|2,0:0|0:0,0:0:0:0:
115,198,73784,2,0,L|204:188,1,76.4749968493272,10|0,0:0|0:0,0:0:0:0:
77,149,73999,2,0,L|170:138,1,76.4749968493272,8|0,0:0|0:0,0:0:0:0:
365,101,74213,5,10,0:0:0:0:
461,127,74320,1,0,0:0:0:0:
365,101,74427,1,0,1:0:0:0:
274,141,74534,1,0,0:0:0:0:
365,101,74641,2,0,L|365:17,1,76.4749968493272,10|0,0:1|0:0,0:0:0:0:
245,149,74856,2,0,L|336:148,1,76.4749968493272
31,44,75070,2,0,L|201:46,1,152.949993698654,10|0,1:0|0:0,0:0:0:0:
280,64,75391,1,0,0:0:0:0:
184,46,75499,2,0,L|283:48,1,76.4749968493272,10|0,1:0|0:0,0:0:0:0:
142,169,75713,2,0,L|65:168,1,76.4749968493272,10|0,0:0|0:0,0:0:0:0:
360,296,75927,5,4,1:2:0:0:
199,308,76141,2,0,L|196:211,1,76.4749968493272,2|2,0:0|0:0,0:0:0:0:
397,188,76356,2,0,L|183:193,1,152.949993698654,10|0,0:0|1:0,0:0:0:0:
161,189,76677,1,0,0:0:0:0:
383,151,76784,1,10,0:0:0:0:
211,143,76999,2,0,L|210:47,1,76.4749968493272,2|2,0:0|0:0,0:0:0:0:
417,49,77213,2,0,L|302:55,1,76.4749968493272,10|0,0:0|0:0,0:0:0:0:
222,166,77427,2,0,L|298:159,1,76.4749968493272,0|0,1:0|0:0,0:0:0:0:
176,243,77641,5,10,0:0:0:0:
348,223,77856,2,0,L|349:142,1,76.4749968493272,2|0,1:2|0:0,0:0:0:0:
139,113,78070,2,0,L|226:112,1,76.4749968493272,10|0,0:0|0:0,0:0:0:0:
100,78,78284,2,0,L|192:73,1,76.4749968493272,2|0,1:2|0:0,0:0:0:0:
287,141,78499,2,0,L|193:143,1,76.4749968493272,8|0,1:2|0:0,0:0:0:0:
326,200,78713,2,0,L|402:201,1,76.4749968493272,10|0,0:0|0:0,0:0:0:0:
124,318,78927,1,10,0:0:0:0:
291,251,79141,1,2,0:0:0:0:
291,251,79249,1,2,0:0:0:0:
50,245,79356,6,0,L|145:241,1,76.4749968493272,10|0,1:0|0:0,0:0:0:0:
339,139,79570,2,0,L|234:137,1,76.4749968493272,8|0,0:0|0:0,0:0:0:0:
50,245,79784,2,0,L|147:241,1,76.4749968493272,10|0,1:0|0:0,0:0:0:0:
300,148,79999,2,0,L|206:148,1,76.4749968493272,8|0,0:0|0:0,0:0:0:0:
497,51,80213,2,0,L|316:56,1,152.949993698654,10|2,1:2|0:0,0:0:0:0:
436,40,80534,1,2,0:0:0:0:
207,208,80641,2,0,L|379:210,1,152.949993698654,10|8,0:0|1:0,0:0:0:0:
438,213,80963,1,0,0:0:0:0:
136,328,81070,6,0,L|58:332,1,76.4749968493272,10|0,1:0|0:0,0:0:0:0:
173,265,81284,2,0,L|271:262,1,76.4749968493272,2|0,0:0|0:0,0:0:0:0:
365,189,81499,2,0,L|270:195,1,76.4749968493272,10|0,1:0|0:0,0:0:0:0:
404,126,81713,2,0,L|494:127,1,76.4749968493272,0|0,0:0|0:0,0:0:0:0:
223,166,81927,2,0,L|323:161,1,76.4749968493272,10|0,1:0|0:0,0:0:0:0:
193,126,82141,2,0,L|282:123,1,76.4749968493272,2|0,1:0|0:0,0:0:0:0:
35,119,82356,1,10,1:0:0:0:
33,80,82409,1,0,0:0:0:0:
32,42,82463,1,0,0:0:0:0:
256,31,82570,2,0,L|170:30,1,76.4749968493272,2|0,0:0|0:0,0:0:0:0:
448,279,82784,6,0,L|270:279,1,152.949993698654,6|2,0:0|0:0,0:0:0:0:
205,284,83106,1,2,0:0:0:0:
448,279,83213,2,0,L|287:278,1,152.949993698654,10|0,0:0|1:0,0:0:0:0:
384,260,83534,1,0,0:0:0:0:
193,200,83641,2,0,L|360:198,1,152.949993698654,10|2,0:0|0:0,0:0:0:0:
138,139,83963,2,0,L|240:138,1,76.4749968493272,2|10,0:0|0:0,0:0:0:0:
105,115,84177,2,0,L|200:114,1,76.4749968493272,0|0,0:0|1:0,0:0:0:0:
14,73,84391,1,0,0:0:0:0:
189,116,84499,6,0,L|391:118,1,152.949993698654,14|2,0:0|1:2,0:0:0:0:
433,125,84820,1,0,0:0:0:0:
189,116,84927,2,0,L|317:117,1,76.4749968493272,14|0,0:0|0:0,0:0:0:0:
147,74,85141,2,0,L|254:73,1,76.4749968493272,2|0,1:2|0:0,0:0:0:0:
443,84,85356,2,0,L|333:88,1,76.4749968493272,14|0,0:0|0:0,0:0:0:0:
152,232,85570,2,0,L|230:231,1,76.4749968493272,2|0,1:2|0:0,0:0:0:0:
346,311,85784,2,0,L|267:314,1,76.4749968493272,10|0,1:2|0:0,0:0:0:0:
484,208,85999,2,0,L|407:212,1,76.4749968493272,2|0,0:0|0:0,0:0:0:0:
161,165,86213,6,0,L|376:163,1,152.949993698654,10|8,1:0|0:0,0:0:0:0:
411,162,86534,1,0,0:0:0:0:
215,302,86641,2,0,L|32:306,1,152.949993698654,10|8,1:0|0:0,0:0:0:0:
146,301,86963,1,0,0:0:0:0:
360,225,87070,2,0,L|207:225,1,152.949993698654,10|2,0:0|0:0,0:0:0:0:
123,226,87391,1,2,0:0:0:0:
329,179,87499,2,0,L|424:178,1,76.4749968493272,10|0,0:0|0:0,0:0:0:0:
291,131,87713,2,0,L|199:134,1,76.4749968493272,8|0,0:0|0:0,0:0:0:0:
476,71,87927,6,0,L|370:69,2,76.4749968493272,10|0|2,0:0|0:0|1:0,0:0:0:0:
264,191,88249,1,0,0:0:0:0:
476,71,88356,2,0,L|477:177,1,76.4749968493272,10|0,1:0|0:0,0:0:0:0:
355,219,88570,2,0,L|452:222,1,76.4749968493272
181,149,88784,2,0,L|385:138,1,152.949993698654,10|0,1:0|0:0,0:0:0:0:
425,131,89106,1,0,0:0:0:0:
162,295,89213,2,0,L|68:302,1,76.4749968493272,10|0,0:0|0:0,0:0:0:0:
307,215,89427,2,0,L|187:222,1,76.4749968493272,0|0,1:0|0:0,0:0:0:0:
446,143,89641,6,0,L|326:153,1,76.4749968493272,10|0,0:0|0:0,0:0:0:0:
256,253,89856,2,0,L|362:264,1,76.4749968493272,2|2,0:0|0:0,0:0:0:0:
130,234,90070,2,0,L|209:237,1,76.4749968493272,10|0,0:0|0:0,0:0:0:0:
87,178,90284,2,0,L|174:177,1,76.4749968493272,0|0,1:0|0:0,0:0:0:0:
425,106,90499,2,0,L|318:110,1,76.4749968493272,10|0,0:0|0:0,0:0:0:0:
134,226,90713,1,2,0:0:0:0:
328,96,90820,2,0,L|242:105,2,76.4749968493272,0|2|0,0:0|0:0|0:0,0:0:0:0:
492,160,91141,2,0,L|404:168,1,76.4749968493272,2|0,1:0|0:0,0:0:0:0:
197,243,91356,6,0,L|281:244,1,76.4749968493272,10|0,0:0|0:0,0:0:0:0:
159,313,91570,2,0,L|74:321,1,76.4749968493272,2|0,1:2|0:0,0:0:0:0:
203,187,91784,2,0,L|89:189,1,76.4749968493272,10|0,0:0|0:0,0:0:0:0:
388,243,91999,2,0,L|483:247,1,76.4749968493272,2|0,1:2|0:0,0:0:0:0:
361,181,92213,2,0,L|460:175,1,76.4749968493272,2|0,1:2|0:0,0:0:0:0:
296,145,92427,2,0,L|193:146,1,76.4749968493272,2|0,0:0|0:0,0:0:0:0:
338,117,92641,2,0,L|227:116,1,76.4749968493272,10|0,0:0|0:0,0:0:0:0:
382,83,92856,2,0,L|471:85,1,76.4749968493272
203,270,93070,6,0,L|284:267,1,76.4749968493272,14|0,1:0|0:0,0:0:0:0:
21,165,93284,2,0,L|104:169,1,76.4749968493272,8|0,0:0|0:0,0:0:0:0:
296,311,93499,2,0,L|186:321,1,76.4749968493272,10|0,1:0|0:0,0:0:0:0:
477,190,93713,2,0,L|400:196,1,76.4749968493272,8|0,0:0|0:0,0:0:0:0:
146,315,93927,2,0,L|356:320,1,152.949993698654,10|2,0:0|1:2,0:0:0:0:
392,321,94249,1,2,1:2:0:0:
76,267,94356,2,0,L|153:259,1,76.4749968493272,8|0,1:0|0:0,0:0:0:0:
363,143,94570,2,0,L|453:140,1,76.4749968493272,8|0,1:0|0:0,0:0:0:0:
395,143,94731,1,0,0:0:0:0:
121,151,94784,5,2,1:0:0:0:
121,151,95213,1,2,0:0:0:0:
261,153,95427,1,0,0:0:0:0:
186,150,95534,1,0,0:0:0:0:
261,153,95641,1,2,0:0:0:0:
363,151,95856,1,0,0:0:0:0:
269,198,96070,1,2,0:0:0:0:
307,198,96123,1,0,0:0:0:0:
330,199,96177,1,0,0:0:0:0:
307,198,96231,1,0,0:0:0:0:
269,198,96284,1,0,0:0:0:0:
345,199,96391,1,2,0:0:0:0:
108,304,96499,5,4,0:2:0:0:
275,315,96713,2,0,L|275:145,1,143.75,2|0,0:0|0:0,0:0:0:0:
457,136,97141,1,2,0:0:0:0:
275,171,97356,2,0,L|275:326,1,143.75,0|2,0:0|0:0,0:0:0:0:
105,307,97784,1,2,0:0:0:0:
277,166,97999,1,2,0:0:0:0:
456,137,98213,5,0,1:2:0:0:
277,166,98427,2,0,L|276:69,1,71.875,0|0,0:0|0:0,0:0:0:0:
158,169,98641,2,0,L|159:66,1,71.875,2|2,1:2|0:0,0:0:0:0:
38,164,98856,2,0,L|37:52,1,71.875,2|2,0:0|0:0,0:0:0:0:
150,67,99070,1,0,1:0:0:0:
39,64,99177,1,0,0:0:0:0:
150,67,99284,1,0,0:0:0:0:
150,67,99391,1,0,0:0:0:0:
256,62,99499,2,0,L|353:64,1,71.875,2|0,1:0|0:0,0:0:0:0:
106,315,99713,2,0,L|35:318,1,71.875,2|0,0:0|0:0,0:0:0:0:
256,170,99927,5,4,0:2:0:0:
93,187,100141,2,0,L|91:17,1,143.75,2|0,0:0|0:0,0:0:0:0:
256,170,100570,1,2,0:0:0:0:
432,139,100784,1,0,0:0:0:0:
256,170,100999,1,2,0:0:0:0:
432,139,101213,2,0,L|432:326,1,143.75,2|2,0:0|0:0,0:0:0:0:
256,170,101641,6,0,L|349:168,1,71.875,0|0,1:0|0:0,0:0:0:0:
221,132,101856,2,0,L|309:133,1,71.875,2|0,0:0|0:0,0:0:0:0:
190,79,102070,2,0,L|305:80,1,71.875,2|2,1:2|0:0,0:0:0:0:
458,37,102284,2,0,L|370:40,1,71.875,2|2,0:0|0:0,0:0:0:0:
274,98,102499,2,0,L|358:98,1,71.875,0|0,1:0|0:0,0:0:0:0:
455,165,102713,2,0,L|383:165,1,71.875,0|0,0:0|0:0,0:0:0:0:
480,208,102927,2,0,L|480:298,1,71.875,10|0,1:0|0:0,0:0:0:0:
297,191,103141,2,0,L|296:85,1,71.875,2|0,0:0|0:0,0:0:0:0:
481,206,103356,5,4,0:2:0:0:
310,334,103570,2,0,L|488:336,1,143.75,2|8,0:0|1:0,0:0:0:0:
269,256,103999,1,2,0:0:0:0:
451,237,104213,1,0,1:0:0:0:
269,256,104427,2,0,L|269:72,1,143.75,2|2,0:0|1:0,0:0:0:0:
82,90,104856,1,2,0:0:0:0:
271,111,105070,5,0,1:0:0:0:
82,90,105284,2,0,L|81:175,1,71.875
196,169,105499,2,0,L|196:254,1,71.875,2|2,1:2|0:0,0:0:0:0:
312,155,105713,2,0,L|312:77,1,71.875,2|2,0:0|0:0,0:0:0:0:
194,170,105927,2,0,L|287:167,1,71.875,0|0,1:0|0:0,0:0:0:0:
156,122,106141,2,0,L|240:121,1,71.875,2|0,0:0|0:0,0:0:0:0:
21,39,106356,2,0,L|24:124,1,71.875,2|0,1:0|0:0,0:0:0:0:
263,183,106570,2,0,L|353:182,1,71.875,2|0,0:0|0:0,0:0:0:0:
93,317,106784,5,2,1:0:0:0:
240,313,106999,2,0,L|240:152,1,143.75,2|0,0:0|1:0,0:0:0:0:
67,109,107427,1,2,0:0:0:0:
240,169,107641,1,0,1:0:0:0:
67,109,107856,2,0,L|237:108,1,143.75,2|2,0:0|1:0,0:0:0:0:
413,186,108284,1,2,0:0:0:0:
240,169,108498,6,0,L|241:259,1,71.875,2|0,1:0|0:0,0:0:0:0:
352,264,108713,2,0,L|354:351,1,71.875,0|0,0:0|0:0,0:0:0:0:
241,240,108927,2,0,L|367:240,1,71.875,2|2,1:2|0:0,0:0:0:0:
200,195,109141,2,0,L|296:189,1,71.875,2|2,0:0|0:0,0:0:0:0:
376,144,109356,2,0,L|285:145,1,71.875,2|0,1:2|0:0,0:0:0:0:
406,81,109570,2,0,L|514:77,1,71.875,2|0,0:0|0:0,0:0:0:0:
276,64,109784,1,8,1:0:0:0:
276,64,109837,1,0,0:0:0:0:
276,135,109891,1,0,0:0:0:0:
276,135,109944,1,0,0:0:0:0:
88,191,109998,1,0,0:0:0:0:
61,187,110052,1,0,0:0:0:0:
61,187,110106,1,0,0:0:0:0:
88,191,110159,1,0,0:0:0:0:
276,135,110213,5,4,0:0:0:0:
141,199,110427,2,0,L|139:340,1,71.875,2|0,0:0|0:0,0:0:0:0:
213,309,110641,2,0,B|397:302,1,143.75,2|0,1:0|0:0,0:0:0:0:
258,286,110963,1,0,0:0:0:0:
352,242,111070,2,0,B|195:248,1,143.75,2|0,1:0|0:0,0:0:0:0:
118,252,111391,1,0,0:0:0:0:
216,175,111499,2,0,L|303:166,1,71.875,2|0,1:2|0:0,0:0:0:0:
195,114,111713,2,0,L|289:102,1,71.875,8|0,0:0|0:0,0:0:0:0:
477,48,111927,5,0,1:0:0:0:
319,139,112141,2,0,L|319:277,1,71.875,0|0,0:0|0:0,0:0:0:0:
213,238,112356,2,0,B|356:232,1,143.75,2|0,1:0|0:0,0:0:0:0:
262,276,112677,1,0,0:0:0:0:
361,294,112785,2,0,B|217:299,1,143.75,2|0,1:0|0:0,0:0:0:0:
315,236,113106,1,0,0:0:0:0:
208,97,113213,2,0,L|112:100,1,71.875,2|0,1:0|0:0,0:0:0:0:
386,204,113427,2,0,L|484:198,1,71.875,2|0,0:0|0:0,0:0:0:0:
208,97,113641,5,4,0:0:0:0:
69,128,113856,2,0,L|69:268,1,71.875,2|0,0:0|0:0,0:0:0:0:
171,236,114070,2,0,B|314:230,1,143.75,2|0,1:0|0:0,0:0:0:0:
409,266,114391,1,0,0:0:0:0:
318,285,114499,2,0,B|174:290,1,143.75,2|0,1:0|0:0,0:0:0:0:
81,263,114820,1,0,0:0:0:0:
180,192,114927,2,0,L|261:191,1,71.875,2|0,1:2|0:0,0:0:0:0:
356,147,115141,2,0,L|277:146,1,71.875,2|0,0:0|0:0,0:0:0:0:
74,145,115356,6,0,L|73:250,1,71.875,2|2,1:2|0:0,0:0:0:0:
184,279,115570,1,2,0:0:0:0:
184,279,115677,1,2,0:0:0:0:
73,216,115784,1,8,1:2:0:0:
184,279,115891,1,0,0:0:0:0:
184,279,115999,1,2,0:0:0:0:
298,238,116106,1,0,0:0:0:0:
184,279,116213,2,0,L|79:280,1,71.875,0|0,1:2|0:0,0:0:0:0:
225,189,116427,2,0,L|147:189,1,71.875
261,128,116641,2,0,L|339:128,1,71.875,8|0,1:0|0:0,0:0:0:0:
444,79,116856,2,0,L|365:79,1,71.875
160,127,117070,5,4,0:0:0:0:
312,163,117284,2,0,L|314:305,1,71.875,2|0,0:0|0:0,0:0:0:0:
199,279,117499,2,0,L|366:282,1,143.75,2|0,1:0|0:0,0:0:0:0:
439,247,117820,1,0,0:0:0:0:
342,281,117927,2,0,L|509:284,1,143.75,2|0,1:0|0:0,0:0:0:0:
400,264,118249,1,0,0:0:0:0:
173,327,118356,2,0,L|268:324,1,71.875,2|0,1:2|0:0,0:0:0:0:
155,288,118570,2,0,L|75:288,1,71.875,8|0,0:0|0:0,0:0:0:0:
344,199,118784,5,0,1:0:0:0:
189,205,118999,2,0,L|106:204,1,71.875
224,102,119213,2,0,L|296:101,1,71.875,2|2,1:2|0:0,0:0:0:0:
408,142,119427,2,0,L|319:149,1,71.875,2|2,0:0|0:0,0:0:0:0:
451,191,119641,2,0,L|366:197,1,71.875,0|0,1:0|0:0,0:0:0:0:
270,226,119856,2,0,L|341:223,1,71.875,2|0,0:0|0:0,0:0:0:0:
108,320,120070,2,0,L|190:326,1,71.875,2|0,1:0|0:0,0:0:0:0:
423,263,120284,2,0,L|349:264,1,71.875,2|0,0:0|0:0,0:0:0:0:
108,320,120499,5,4,0:0:0:0:
281,276,120713,2,0,L|285:144,1,71.875,2|0,0:0|0:0,0:0:0:0:
185,154,120927,2,0,L|365:152,1,143.75,2|0,1:0|0:0,0:0:0:0:
424,150,121249,1,0,0:0:0:0:
321,100,121356,2,0,L|464:101,1,143.75,2|0,1:0|0:0,0:0:0:0:
368,77,121677,1,0,0:0:0:0:
127,52,121784,2,0,L|216:45,1,71.875,2|0,1:2|0:0,0:0:0:0:
116,108,121999,2,0,L|30:118,1,71.875,2|0,0:0|0:0,0:0:0:0:
323,150,122213,5,2,1:2:0:0:
227,183,122320,1,2,0:0:0:0:
227,183,122427,1,2,0:0:0:0:
125,230,122534,1,2,0:0:0:0:
227,183,122641,2,0,L|309:184,1,71.875,8|0,1:2|0:0,0:0:0:0:
193,141,122856,2,0,L|282:134,1,71.875,0|0,0:0|0:0,0:0:0:0:
498,59,123070,2,0,L|342:63,1,143.75,0|0,1:0|0:0,0:0:0:0:
165,161,123391,1,8,1:0:0:0:
354,62,123499,2,0,L|449:55,1,71.875,8|0,1:0|0:0,0:0:0:0:
208,239,123713,2,0,L|280:239,1,71.875,0|0,1:0|0:0,0:0:0:0:
66,188,123927,6,0,L|65:35,1,143.75,2|0,0:0|0:0,0:0:0:0:
241,39,124356,2,0,L|61:44,1,143.75,2|0,0:0|0:0,0:0:0:0:
47,47,124677,1,0,0:0:0:0:
135,88,124784,2,0,L|321:89,1,143.75,2|0,0:0|0:0,0:0:0:0:
336,88,125106,1,0,0:0:0:0:
256,143,125213,2,0,L|332:142,1,71.875
229,210,125427,2,0,L|157:210,1,71.875,0|0,0:0|0:0,0:0:0:0:
402,168,125641,6,0,L|403:332,1,143.75,2|0,0:0|0:0,0:0:0:0:
214,337,126070,2,0,L|406:338,1,143.75,2|0,0:0|0:0,0:0:0:0:
418,338,126391,1,0,0:0:0:0:
316,277,126499,2,0,L|132:277,1,143.75,2|0,0:0|0:0,0:0:0:0:
115,281,126820,1,0,0:0:0:0:
209,198,126927,2,0,L|126:203,1,71.875
241,139,127141,2,0,L|326:140,1,71.875
41,106,127356,6,0,L|39:298,1,143.75,2|0,0:0|0:0,0:0:0:0:
237,303,127784,2,0,B|388:317|408:222,1,143.75,2|0,0:0|0:0,0:0:0:0:
401,243,128106,1,0,0:0:0:0:
283,205,128213,2,0,B|435:207|460:142,1,143.75,2|0,0:0|0:0,0:0:0:0:
446,149,128534,1,0,0:0:0:0:
339,133,128641,2,0,L|259:127,1,71.875,0|0,0:0|0:0,0:0:0:0:
156,65,128856,2,0,L|259:54,1,71.875,0|0,0:0|0:0,0:0:0:0:
477,51,129070,6,0,L|478:207,1,143.75,2|0,0:0|0:0,0:0:0:0:
307,258,129499,2,0,B|163:270|163:270,1,143.75,2|0,0:0|0:0,0:0:0:0:
131,311,129820,1,0,0:0:0:0:
234,334,129927,2,0,L|411:334,1,143.75,2|2,0:0|0:0,0:0:0:0:
444,333,130249,1,0,0:0:0:0:
230,284,130356,2,0,L|310:281,1,71.875,2|2,0:0|0:0,0:0:0:0:
214,230,130570,2,0,L|118:234,1,71.875,2|0,0:0|0:0,0:0:0:0:
470,150,130784,5,4,1:2:0:0:
318,154,130999,1,0,0:0:0:0:
318,154,131106,1,0,0:0:0:0:
198,167,131213,2,0,L|376:164,1,143.75,2|0,0:0|0:0,0:0:0:0:
431,159,131534,1,0,0:0:0:0:
140,259,131641,1,0,1:0:0:0:
299,298,131856,1,0,0:0:0:0:
299,298,131963,1,0,0:0:0:0:
422,325,132070,2,0,L|237:333,1,143.75,2|0,0:0|0:0,0:0:0:0:
204,336,132391,1,0,0:0:0:0:
447,211,132499,5,0,1:0:0:0:
293,177,132713,1,0,0:0:0:0:
363,174,132820,1,0,0:0:0:0:
119,144,132927,2,0,L|311:138,1,143.75,2|0,0:0|0:0,0:0:0:0:
337,139,133249,1,0,0:0:0:0:
96,90,133356,1,0,1:0:0:0:
274,61,133570,1,0,0:0:0:0:
204,66,133677,1,0,0:0:0:0:
417,51,133784,2,0,L|259:62,1,143.75,2|0,0:0|0:0,0:0:0:0:
191,71,134106,1,0,0:0:0:0:
410,160,134213,6,0,L|490:171,1,71.875,2|0,1:0|0:0,0:0:0:0:
372,219,134427,2,0,L|447:224,1,71.875
223,269,134641,2,0,L|120:304,1,71.875,2|0,1:0|0:0,0:0:0:0:
349,325,134856,2,0,L|444:338,1,71.875,0|0,0:0|0:0,0:0:0:0:
94,218,135070,2,0,L|19:239,1,71.875,2|0,1:0|0:0,0:0:0:0:
129,156,135284,2,0,L|34:172,1,71.875
284,79,135499,2,0,L|208:97,1,71.875,2|0,1:0|0:0,0:0:0:0:
413,195,135713,2,0,L|505:216,1,71.875,0|0,0:0|0:0,0:0:0:0:
172,272,135927,5,12,0:2:0:0:
256,192,136141,12,14,137213,3:0:0:0:
123,217,137641,6,0,L|424:208,1,229.424990547982,6|0,0:0|0:0,0:0:0:0:
433,204,138070,2,0,L|150:213,1,229.424990547982,2|0,1:0|0:0,0:0:0:0:
117,213,138499,2,0,L|115:79,1,76.4749968493272,8|0,1:0|0:0,0:0:0:0:
305,202,138713,2,0,L|306:79,1,76.4749968493272,2|0,0:0|0:0,0:0:0:0:
112,96,138927,1,2,0:0:0:0:
269,76,139141,1,2,0:0:0:0:
269,76,139249,1,0,0:0:0:0:
477,62,139356,5,4,0:0:0:0:
280,181,139570,2,0,L|398:191,1,76.4749968493272,10|0,0:0|0:0,0:0:0:0:
240,231,139784,2,0,L|331:242,1,76.4749968493272,10|0,0:0|0:0,0:0:0:0:
201,289,139999,2,0,L|92:298,1,76.4749968493272,2|0,1:2|0:0,0:0:0:0:
325,142,140213,2,0,L|408:141,1,76.4749968493272,10|0,1:0|0:0,0:0:0:0:
199,98,140427,1,0,1:0:0:0:
401,141,140534,2,0,L|496:140,2,76.4749968493272,0|2|0,1:0|1:0|0:0,0:0:0:0:
180,200,140856,2,0,L|267:201,1,76.4749968493272,2|0,1:0|0:0,0:0:0:0:
477,140,141070,6,0,L|229:143,1,229.424990547982,6|0,0:0|0:0,0:0:0:0:
14,124,141499,2,0,L|488:127,1,431.25,10|0,1:0|0:0,0:0:0:0:
368,126,141927,2,0,L|445:126,1,76.4749968493272,8|0,1:0|0:0,0:0:0:0:
115,217,142141,2,0,L|240:217,1,76.4749968493272,10|0,0:0|0:0,0:0:0:0:
276,232,142356,2,0,L|199:233,1,76.4749968493272,10|0,0:0|0:0,0:0:0:0:
419,201,142570,2,0,L|294:201,1,76.4749968493272,2|0,0:0|0:0,0:0:0:0:
102,184,142784,6,0,L|179:183,1,76.4749968493272,2|0,1:0|0:0,0:0:0:0:
102,184,142999,2,0,L|-10:184,1,76.4749968493272,0|0,1:0|1:0,0:0:0:0:
336,160,143213,2,0,L|232:160,1,76.4749968493272,10|0,1:0|0:0,0:0:0:0:
299,191,143374,1,0,0:0:0:0:
336,192,143427,2,0,L|412:192,1,76.4749968493272,0|0,1:0|0:0,0:0:0:0:
115,273,143641,2,0,L|193:241,1,76.4749968493272,2|0,1:0|1:0,0:0:0:0:
71,229,143856,2,0,L|148:198,1,76.4749968493272,0|0,0:0|0:0,0:0:0:0:
451,140,144070,2,0,L|266:139,1,152.949993698654,2|0,1:0|0:0,0:0:0:0:
235,138,144391,1,0,0:0:0:0:
480,246,144499,6,0,L|179:237,1,229.424990547982,6|0,0:0|0:0,0:0:0:0:
170,233,144928,2,0,L|453:242,1,229.424990547982,0|0,1:0|0:0,0:0:0:0:
486,242,145357,2,0,L|488:108,1,76.4749968493272,10|0,1:0|0:0,0:0:0:0:
298,231,145571,2,0,L|297:108,1,76.4749968493272,2|0,0:0|0:0,0:0:0:0:
491,125,145785,1,0,1:0:0:0:
334,105,145999,1,2,0:0:0:0:
334,105,146107,1,0,0:0:0:0:
85,118,146213,5,10,1:0:0:0:
255,209,146427,2,0,L|162:219,1,76.4749968493272,8|0,0:0|0:0,0:0:0:0:
408,286,146641,2,0,L|512:291,1,76.4749968493272,8|0,0:0|0:0,0:0:0:0:
388,233,146856,2,0,L|464:229,1,76.4749968493272,2|0,1:2|0:0,0:0:0:0:
201,137,147070,2,0,L|91:144,1,76.4749968493272,10|0,1:0|0:0,0:0:0:0:
356,249,147284,2,0,L|465:252,1,76.4749968493272,0|0,1:0|1:0,0:0:0:0:
218,300,147499,1,0,1:0:0:0:
430,213,147606,2,0,L|329:220,2,76.4749968493272,0|0|0,0:0|1:0|0:0,0:0:0:0:
245,159,147927,6,0,B|400:162|400:162|403:246,1,229.424990547982,4|0,0:0|0:0,0:0:0:0:
42,139,148356,2,0,B|420:131|420:131|425:215,1,431.25,10|0,1:0|0:0,0:0:0:0:
186,333,148784,2,0,L|-22:333,1,152.949993698654,8|8,1:0|0:0,0:0:0:0:
272,264,149106,1,0,0:0:0:0:
25,274,149213,2,0,L|115:259,1,76.4749968493272
292,151,149427,2,0,L|215:159,1,76.4749968493272,8|0,0:0|0:0,0:0:0:0:
418,230,149641,1,0,1:0:0:0:
256,192,149749,12,0,151141,0:0:0:0:
262,167,151356,6,0,L|563:158,1,229.424990547982,6|0,0:0|0:0,0:0:0:0:
248,146,151785,2,0,L|-35:155,1,229.424990547982,8|0,1:0|0:0,0:0:0:0:
220,244,152213,2,0,L|291:241,1,71.875,2|0,1:2|0:0,0:0:0:0:
194,242,152427,2,0,L|275:240,1,71.875,0|0,0:0|0:0,0:0:0:0:
491,94,152641,2,0,L|419:95,1,71.875,10|0,1:0|0:0,0:0:0:0:
326,149,152856,2,0,L|412:148,1,71.875,2|0,0:0|0:0,0:0:0:0:
159,190,153070,6,0,L|159:317,1,71.875,4|0,1:2|0:0,0:0:0:0:
338,314,153284,2,0,L|415:321,1,71.875,8|0,0:0|0:0,0:0:0:0:
327,256,153498,2,0,L|403:266,1,71.875,2|0,1:0|0:0,0:0:0:0:
492,199,153713,2,0,L|416:206,1,71.875,10|0,0:0|0:0,0:0:0:0:
180,130,153927,2,0,L|257:130,1,71.875,0|0,1:2|0:0,0:0:0:0:
30,250,154141,1,0,1:0:0:0:
256,130,154248,2,0,L|333:130,2,71.875,0|8|0,1:0|1:0|0:0,0:0:0:0:
39,190,154570,2,0,L|115:190,1,71.875,0|0,1:0|0:0,0:0:0:0:
431,167,154784,6,0,L|183:170,1,229.424990547982,6|0,0:0|0:0,0:0:0:0:
381,170,155213,2,0,B|96:167|96:167|188:4,1,431.25,10|0,1:0|0:0,0:0:0:0:
368,126,155641,2,0,L|445:126,1,76.4749968493272,2|0,1:0|0:0,0:0:0:0:
338,77,155855,2,0,L|415:77,1,76.4749968493272,8|0,0:0|0:0,0:0:0:0:
209,151,156070,2,0,L|132:152,1,76.4749968493272,10|0,1:0|0:0,0:0:0:0:
50,214,156284,2,0,L|126:214,1,76.4749968493272,8|0,0:0|0:0,0:0:0:0:
375,295,156498,6,0,L|283:295,1,76.4749968493272,2|0,1:0|0:0,0:0:0:0:
375,240,156713,2,0,L|451:240,1,76.4749968493272,0|0,1:0|0:0,0:0:0:0:
176,160,156927,2,0,L|280:160,1,76.4749968493272,10|0,1:0|0:0,0:0:0:0:
213,191,157088,1,0,0:0:0:0:
176,192,157141,2,0,L|100:192,1,76.4749968493272,2|0,0:0|0:0,0:0:0:0:
397,273,157355,2,0,L|314:266,1,76.4749968493272,2|0,1:0|1:0,0:0:0:0:
433,223,157570,2,0,L|344:214,1,76.4749968493272,0|0,0:0|0:0,0:0:0:0:
106,133,157784,2,0,L|301:133,1,152.949993698654,2|0,1:0|0:0,0:0:0:0:
315,135,158105,1,0,0:0:0:0:
11,239,158213,6,0,L|278:231,1,229.424990547982,6|0,1:2|0:0,0:0:0:0:
491,274,158642,2,0,L|223:282,1,229.424990547982,8|0,1:0|0:0,0:0:0:0:
54,243,159071,2,0,L|52:144,1,76.4749968493272,2|0,1:2|0:0,0:0:0:0:
135,130,159285,2,0,L|41:134,1,76.4749968493272
161,87,159499,2,0,L|64:91,1,76.4749968493272,8|0,1:0|0:0,0:0:0:0:
295,99,159713,2,0,L|421:103,1,76.4749968493272,2|0,0:0|0:0,0:0:0:0:
181,142,159927,6,0,L|182:254,1,76.4749968493272,4|0,1:2|0:0,0:0:0:0:
276,260,160141,2,0,L|200:252,1,76.4749968493272,10|0,0:0|0:0,0:0:0:0:
101,293,160355,2,0,L|178:290,1,76.4749968493272,8|0,1:0|0:0,0:0:0:0:
417,205,160570,2,0,L|341:201,1,76.4749968493272,10|0,1:2|0:0,0:0:0:0:
68,136,160784,2,0,L|144:140,1,76.4749968493272,4|0,1:2|0:0,0:0:0:0:
41,77,160998,2,0,L|118:75,1,76.4749968493272,0|0,1:0|1:0,0:0:0:0:
396,74,161213,2,0,L|319:72,1,76.4749968493272,10|0,1:0|0:0,0:0:0:0:
117,72,161427,2,0,L|41:77,1,76.4749968493272,0|0,1:0|0:0,0:0:0:0:
345,119,161641,6,0,B|500:122|500:122|503:206,1,229.424990547982,6|0,0:0|0:0,0:0:0:0:
131,159,162070,2,0,B|430:167|430:167|411:278|253:321,1,431.25,2|0,1:0|0:0,0:0:0:0:
42,336,162499,2,0,L|192:329,1,143.75,6|8,1:2|0:0,0:0:0:0:
431,275,162820,1,0,0:0:0:0:
202,318,162927,2,0,L|96:329,1,71.875,10|0,1:0|0:0,0:0:0:0:
392,293,163141,2,0,L|284:306,1,71.875,8|0,0:0|0:0,0:0:0:0:
129,150,163355,1,8,0:0:0:0:
256,192,163463,12,2,164856,0:0:0:0:
383,190,165070,5,4,0:0:0:0:
203,255,165284,1,2,0:0:0:0:
270,250,165392,1,2,0:0:0:0:
132,256,165499,1,10,0:0:0:0:
354,308,165713,1,0,1:0:0:0:
293,308,165821,1,0,0:0:0:0:
425,309,165927,2,0,L|423:196,1,74.7499965782167,10|0,0:0|0:0,0:0:0:0:
316,186,166141,2,0,L|409:188,1,74.7499965782167,2|2,0:0|0:0,0:0:0:0:
484,135,166356,2,0,L|400:134,1,74.7499965782167,8|0,0:0|0:0,0:0:0:0:
175,87,166570,2,0,L|270:85,1,74.7499965782167,2|0,1:0|0:0,0:0:0:0:
109,93,166784,5,10,0:0:0:0:
324,196,166999,2,0,L|231:198,1,74.7499965782167,2|0,1:2|0:0,0:0:0:0:
479,287,167213,2,0,L|361:285,1,74.7499965782167,10|0,0:0|0:0,0:0:0:0:
183,218,167427,1,2,1:2:0:0:
261,215,167534,1,0,0:0:0:0:
29,157,167641,2,0,L|118:159,1,74.7499965782167,10|0,0:2|0:0,0:0:0:0:
417,217,167856,1,2,1:2:0:0:
233,264,168070,1,10,1:2:0:0:
303,265,168178,1,0,0:0:0:0:
198,263,168285,1,2,0:0:0:0:
303,265,168391,1,0,0:0:0:0:
233,264,168499,5,10,1:0:0:0:
86,267,168713,2,0,L|182:267,1,74.7499965782167,8|0,0:0|0:0,0:0:0:0:
33,269,168927,1,10,1:0:0:0:
204,200,169141,2,0,L|103:200,1,74.7499965782167,8|0,0:0|0:0,0:0:0:0:
390,197,169356,1,10,1:2:0:0:
213,283,169570,2,0,L|305:287,1,74.7499965782167,2|2,0:0|0:0,0:0:0:0:
385,323,169784,2,0,L|277:324,1,74.7499965782167,10|0,0:0|0:0,0:0:0:0:
418,262,169999,2,0,L|288:269,1,74.7499965782167,2|0,0:0|0:0,0:0:0:0:
234,224,170213,6,0,L|321:225,1,74.7499965782167,10|0,0:0|0:0,0:0:0:0:
192,173,170427,2,0,L|296:171,1,74.7499965782167,0|0,1:0|0:0,0:0:0:0:
147,128,170641,2,0,L|243:123,1,74.7499965782167,10|0,1:0|0:0,0:0:0:0:
37,81,170856,2,0,L|130:74,1,74.7499965782167
386,148,171070,2,0,L|286:144,1,74.7499965782167,10|0,1:0|0:0,0:0:0:0:
415,202,171284,2,0,L|506:208,1,74.7499965782167,0|0,0:0|0:0,0:0:0:0:
382,151,171499,2,0,L|478:138,1,74.7499965782167,10|0,1:0|0:0,0:0:0:0:
242,104,171713,2,0,L|341:99,1,74.7499965782167,2|0,0:0|0:0,0:0:0:0:
36,81,171927,6,0,L|232:68,1,149.499993156433,14|2,0:0|0:0,0:0:0:0:
74,74,172249,1,2,0:0:0:0:
185,71,172356,2,0,L|21:79,1,149.499993156433,2|0,0:0|1:0,0:0:0:0:
141,90,172677,1,0,0:0:0:0:
392,177,172784,2,0,L|392:299,1,74.7499965782167,10|0,0:0|0:0,0:0:0:0:
286,298,172999,2,0,L|374:298,1,74.7499965782167,2|2,0:0|0:0,0:0:0:0:
244,333,173213,2,0,L|143:339,1,74.7499965782167,10|0,0:0|0:0,0:0:0:0:
282,343,173427,2,0,L|375:346,1,74.7499965782167,0|0,1:0|0:0,0:0:0:0:
139,231,173641,6,0,L|304:237,1,149.499993156433,10|2,0:0|1:2,0:0:0:0:
369,238,173963,1,0,0:0:0:0:
133,119,174070,2,0,L|133:226,1,74.7499965782167,10|0,0:0|0:0,0:0:0:0:
247,242,174284,2,0,L|148:234,1,74.7499965782167,2|0,1:2|0:0,0:0:0:0:
380,149,174499,2,0,L|261:151,1,74.7499965782167,10|0,1:2|0:0,0:0:0:0:
504,98,174713,1,2,0:2:0:0:
305,150,174927,2,0,L|306:264,1,74.7499965782167,10|0,0:0|0:0,0:0:0:0:
199,241,175141,2,0,L|195:112,1,74.7499965782167,2|2,0:0|0:0,0:0:0:0:
438,133,175356,6,0,L|317:133,1,74.7499965782167,10|0,1:0|0:0,0:0:0:0:
178,203,175570,2,0,L|85:199,1,74.7499965782167,8|0,0:0|0:0,0:0:0:0:
438,133,175784,2,0,L|326:129,1,74.7499965782167,10|0,1:0|0:0,0:0:0:0:
178,203,175999,2,0,L|49:202,1,74.7499965782167,8|0,0:0|0:0,0:0:0:0:
438,133,176213,2,0,L|437:237,1,74.7499965782167,10|0,1:2|0:0,0:0:0:0:
235,214,176427,2,0,L|234:106,1,74.7499965782167,2|2,0:0|0:0,0:0:0:0:
11,84,176641,2,0,L|125:84,1,74.7499965782167,10|0,0:0|0:0,0:0:0:0:
184,135,176856,2,0,L|102:137,1,74.7499965782167,8|0,1:0|0:0,0:0:0:0:
429,174,177070,6,0,L|428:259,1,74.7499965782167,10|0,1:0|0:0,0:0:0:0:
318,282,177284,2,0,L|410:286,1,74.7499965782167,0|0,0:0|0:0,0:0:0:0:
288,327,177499,2,0,L|197:333,1,74.7499965782167,10|0,1:0|0:0,0:0:0:0:
114,270,177713,2,0,L|201:282,1,74.7499965782167,0|0,0:0|0:0,0:0:0:0:
425,190,177927,2,0,L|340:192,1,74.7499965782167,10|0,0:0|0:0,0:0:0:0:
470,138,178141,2,0,L|381:142,1,74.7499965782167,0|0,1:0|0:0,0:0:0:0:
152,87,178356,1,10,1:0:0:0:
194,107,178409,1,0,0:0:0:0:
238,126,178463,1,2,0:0:0:0:
454,300,178570,2,0,L|372:297,1,74.7499965782167,2|2,0:0|0:0,0:0:0:0:
129,190,178784,5,14,0:0:0:0:
297,255,178998,1,2,0:0:0:0:
239,256,179106,1,2,0:0:0:0:
364,256,179213,1,10,0:0:0:0:
161,308,179427,1,2,1:0:0:0:
228,309,179535,1,0,0:0:0:0:
110,302,179641,2,0,L|187:303,1,74.7499965782167,10|0,0:0|0:0,0:0:0:0:
290,265,179855,2,0,L|201:264,1,74.7499965782167,2|2,0:0|0:0,0:0:0:0:
429,18,180070,2,0,L|423:151,1,74.7499965782167,10|0,0:0|0:0,0:0:0:0:
167,147,180284,2,0,L|259:151,1,74.7499965782167,2|0,1:0|0:0,0:0:0:0:
121,195,180498,5,10,0:0:0:0:
308,220,180713,2,0,L|197:220,1,74.7499965782167,2|0,1:2|0:0,0:0:0:0:
347,237,180927,2,0,L|345:324,1,74.7499965782167,10|0,0:0|0:0,0:0:0:0:
166,217,181141,1,2,1:2:0:0:
242,214,181248,1,0,0:0:0:0:
133,160,181355,2,0,L|227:157,1,74.7499965782167,10|0,0:0|0:0,0:0:0:0:
41,89,181570,1,2,1:2:0:0:
220,209,181784,1,10,1:0:0:0:
150,210,181892,1,0,0:0:0:0:
262,210,181999,1,2,0:0:0:0:
150,210,182105,1,0,0:0:0:0:
220,209,182213,5,10,1:0:0:0:
423,268,182427,2,0,L|335:267,1,74.7499965782167,8|0,0:0|0:0,0:0:0:0:
459,271,182641,1,10,1:0:0:0:
293,200,182855,2,0,L|381:199,1,74.7499965782167,8|0,0:0|0:0,0:0:0:0:
109,201,183069,1,2,0:0:0:0:
291,285,183284,2,0,L|208:288,1,74.7499965782167,2|2,0:0|0:0,0:0:0:0:
127,323,183498,2,0,L|219:325,1,74.7499965782167,10|0,0:0|0:0,0:0:0:0:
94,262,183713,2,0,L|204:268,1,74.7499965782167,8|0,1:0|0:0,0:0:0:0:
270,224,183927,6,0,L|195:225,1,74.7499965782167,10|0,0:0|0:0,0:0:0:0:
320,173,184141,2,0,L|236:173,1,74.7499965782167,0|0,1:0|0:0,0:0:0:0:
359,181,184356,2,0,L|357:273,1,74.7499965782167,10|0,1:0|0:0,0:0:0:0:
245,173,184570,2,0,L|346:172,1,74.7499965782167
126,148,184784,2,0,L|209:148,1,74.7499965782167,10|0,1:0|0:0,0:0:0:0:
97,202,184998,2,0,L|16:202,1,74.7499965782167,0|0,0:0|0:0,0:0:0:0:
130,151,185213,2,0,L|37:148,1,74.7499965782167,10|0,0:0|0:0,0:0:0:0:
270,104,185427,2,0,L|178:100,1,74.7499965782167,2|0,1:0|0:0,0:0:0:0:
475,79,185641,6,0,L|300:71,1,149.499993156433,14|2,0:0|0:0,0:0:0:0:
438,74,185963,1,2,0:0:0:0:
332,72,186070,2,0,L|483:82,1,149.499993156433,2|0,0:0|1:0,0:0:0:0:
371,90,186391,1,0,0:0:0:0:
120,177,186498,2,0,L|122:277,1,74.7499965782167,10|0,0:0|0:0,0:0:0:0:
226,298,186713,2,0,L|146:296,1,74.7499965782167,2|2,0:0|0:0,0:0:0:0:
267,332,186927,2,0,L|355:338,1,74.7499965782167,8|0,0:0|0:0,0:0:0:0:
230,343,187141,2,0,L|146:345,1,74.7499965782167,2|0,1:0|0:0,0:0:0:0:
373,231,187355,6,0,L|206:232,1,149.499993156433,10|2,0:0|1:2,0:0:0:0:
143,238,187677,1,0,0:0:0:0:
379,119,187784,2,0,L|378:206,1,74.7499965782167,12|0,0:0|0:0,0:0:0:0:
265,242,187998,2,0,L|354:235,1,74.7499965782167,2|0,1:2|0:0,0:0:0:0:
142,146,188213,2,0,L|253:144,1,74.7499965782167,10|0,1:2|0:0,0:0:0:0:
26,100,188427,1,6,0:0:0:0:
217,145,188641,2,0,L|215:247,1,74.7499965782167,12|0,0:0|0:0,0:0:0:0:
318,262,188855,2,0,L|220:271,1,74.7499965782167,2|2,0:0|0:0,0:0:0:0:
462,36,189070,6,0,L|462:139,1,74.7499965782167,8|0,1:0|0:0,0:0:0:0:
249,260,189284,2,0,L|248:177,1,74.7499965782167,10|0,0:0|0:0,0:0:0:0:
33,73,189499,2,0,L|33:151,1,74.7499965782167,8|0,1:0|0:0,0:0:0:0:
249,260,189713,2,0,L|249:172,1,74.7499965782167,10|0,0:0|0:0,0:0:0:0:
462,36,189927,2,0,L|463:140,1,74.7499965782167,8|0,1:2|0:0,0:0:0:0:
251,184,190141,1,2,1:0:0:0:
462,107,190249,1,0,1:0:0:0:
251,184,190356,2,0,L|137:184,1,74.7499965782167,8|0,1:0|0:0,0:0:0:0:
390,106,190570,2,0,L|472:108,1,74.7499965782167,2|0,1:0|0:0,0:0:0:0:
427,109,190731,1,0,0:0:0:0:
121,151,190784,5,4,0:0:0:0:
121,151,191213,1,0,1:0:0:0:
261,153,191427,1,0,0:0:0:0:
186,150,191534,1,0,0:0:0:0:
261,153,191641,1,0,1:0:0:0:
363,151,191856,1,0,0:0:0:0:
269,198,192070,1,2,1:2:0:0:
307,198,192123,1,0,0:0:0:0:
333,197,192177,1,0,0:0:0:0:
307,198,192231,1,0,0:0:0:0:
269,198,192284,1,0,0:0:0:0:
345,199,192391,1,2,0:0:0:0:
101,303,192499,5,14,1:0:0:0:
276,302,192713,1,0,0:0:0:0:
276,302,192820,1,0,0:0:0:0:
404,303,192927,1,10,1:0:0:0:
189,303,193141,1,0,0:0:0:0:
189,303,193249,1,0,0:0:0:0:
1,302,193355,1,2,1:0:0:0:
198,266,193570,1,2,0:0:0:0:
429,259,193677,2,0,L|216:258,1,143.75,2|0,0:0|0:0,0:0:0:0:
491,207,193998,2,0,L|419:204,1,71.875,2|0,0:0|0:0,0:0:0:0:
193,189,194212,5,2,1:0:0:0:
381,238,194427,1,0,0:0:0:0:
381,238,194534,1,0,0:0:0:0:
253,243,194641,1,2,1:0:0:0:
31,141,194855,1,0,0:0:0:0:
31,141,194962,1,0,0:0:0:0:
244,135,195070,1,2,1:0:0:0:
57,217,195284,1,0,0:0:0:0:
171,228,195391,1,2,0:0:0:0:
57,217,195498,1,2,1:0:0:0:
233,257,195712,1,2,0:0:0:0:
150,257,195820,1,0,0:0:0:0:
404,248,195927,5,2,1:0:0:0:
233,257,196141,1,0,0:0:0:0:
233,257,196248,1,0,0:0:0:0:
104,264,196355,1,2,1:0:0:0:
271,193,196570,1,0,0:0:0:0:
199,193,196677,1,0,0:0:0:0:
438,188,196784,1,2,1:0:0:0:
251,165,196999,2,0,L|251:87,1,71.875
45,84,197212,2,0,L|140:88,1,71.875,2|0,1:0|0:0,0:0:0:0:
355,72,197427,2,0,L|268:72,1,71.875,0|0,0:0|0:0,0:0:0:0:
56,120,197641,5,2,1:0:0:0:
257,171,197855,2,0,L|257:247,1,71.875,2|2,0:0|0:0,0:0:0:0:
495,306,198070,2,0,L|263:307,1,215.625,2|0,1:0|0:0,0:0:0:0:
385,261,198498,1,2,1:0:0:0:
385,261,198605,1,0,0:0:0:0:
284,211,198712,2,0,L|395:206,1,71.875,2|0,0:0|0:0,0:0:0:0:
128,142,198927,2,0,L|219:136,1,71.875,0|0,1:0|0:0,0:0:0:0:
79,94,199141,2,0,L|170:87,1,71.875,2|0,0:0|0:0,0:0:0:0:
376,239,199355,6,0,L|479:243,1,71.875,2|0,1:0|0:0,0:0:0:0:
365,204,199570,2,0,L|273:202,1,71.875
68,56,199784,2,0,L|69:143,1,71.875,2|0,1:0|0:0,0:0:0:0:
164,51,199998,2,0,L|92:51,1,71.875,0|0,0:0|0:0,0:0:0:0:
292,60,200212,2,0,L|136:60,1,143.75,2|2,1:0|0:0,0:0:0:0:
248,60,200534,1,2,0:0:0:0:
148,60,200641,1,2,1:0:0:0:
289,251,200855,1,2,0:0:0:0:
221,251,200962,1,0,0:0:0:0:
446,175,201070,6,0,L|288:173,1,143.75,2|2,1:0|0:0,0:0:0:0:
374,173,201391,1,2,0:0:0:0:
303,173,201498,1,2,1:0:0:0:
150,222,201712,1,0,0:0:0:0:
150,222,201820,1,0,0:0:0:0:
341,247,201927,1,6,0:0:0:0:
150,222,202141,1,0,1:0:0:0:
150,222,202248,1,0,0:0:0:0:
410,237,202355,1,2,1:0:0:0:
237,229,202570,1,0,0:0:0:0:
166,227,202677,1,0,0:0:0:0:
409,145,202784,6,0,L|242:148,1,143.75,2|2,1:0|0:0,0:0:0:0:
359,143,203106,1,0,0:0:0:0:
109,79,203212,2,0,L|192:79,1,71.875,2|0,1:0|0:0,0:0:0:0:
284,45,203427,2,0,L|187:48,1,71.875,2|0,0:0|0:0,0:0:0:0:
486,128,203641,2,0,L|403:128,1,71.875,2|0,1:0|0:0,0:0:0:0:
223,187,203855,2,0,L|305:183,1,71.875,2|0,0:0|0:0,0:0:0:0:
95,277,204070,2,0,L|189:270,1,71.875,2|0,1:0|0:0,0:0:0:0:
86,222,204284,2,0,L|-1:228,1,71.875,2|0,0:0|0:0,0:0:0:0:
274,321,204498,6,0,L|164:324,1,71.875,2|0,1:0|0:0,0:0:0:0:
389,202,204712,2,0,L|388:287,1,71.875,0|0,0:0|0:0,0:0:0:0:
269,127,204927,2,0,L|266:224,1,71.875,2|0,1:0|0:0,0:0:0:0:
156,221,205141,2,0,L|228:225,1,71.875,2|0,0:0|0:0,0:0:0:0:
454,105,205355,2,0,L|383:103,1,71.875,2|0,1:0|0:0,0:0:0:0:
481,58,205570,2,0,L|390:60,1,71.875,2|0,0:0|0:0,0:0:0:0:
57,244,205784,1,0,1:2:0:0:
122,243,205855,1,0,0:0:0:0:
57,244,205927,1,0,0:0:0:0:
122,243,205998,1,0,0:0:0:0:
196,240,206106,1,0,0:0:0:0:
390,210,206213,6,0,L|314:208,1,71.875,10|0,1:0|0:0,0:0:0:0:
405,170,206427,2,0,L|499:187,1,71.875,2|0,0:0|0:0,0:0:0:0:
198,202,206641,2,0,B|83:194|83:194|79:61,1,215.625,2|0,1:0|0:0,0:0:0:0:
228,191,207070,2,0,B|116:180|116:180|120:41,1,215.625,2|2,1:0|0:0,0:0:0:0:
370,78,207499,2,0,L|290:84,1,71.875,0|0,1:0|0:0,0:0:0:0:
409,128,207713,2,0,L|326:137,1,71.875,2|0,0:0|0:0,0:0:0:0:
109,220,207927,6,0,L|185:218,1,71.875,10|0,1:0|0:0,0:0:0:0:
94,180,208141,2,0,L|0:197,1,71.875,0|0,0:0|0:0,0:0:0:0:
301,213,208355,2,0,B|416:205|416:205|420:72,1,215.625,2|0,1:0|0:0,0:0:0:0:
269,200,208784,2,0,B|381:189|381:189|377:50,1,215.625,2|2,1:0|0:0,0:0:0:0:
129,88,209213,2,0,L|209:94,1,71.875,0|0,1:0|0:0,0:0:0:0:
410,156,209427,2,0,L|327:165,1,71.875,2|0,0:0|0:0,0:0:0:0:
100,207,209641,6,0,L|93:297,1,71.875,10|0,1:0|0:0,0:0:0:0:
210,208,209856,2,0,L|214:126,1,71.875,2|0,0:0|0:0,0:0:0:0:
328,73,210070,2,0,L|330:167,1,71.875,0|0,1:0|0:0,0:0:0:0:
448,132,210284,2,0,L|454:221,1,71.875,2|0,0:0|0:0,0:0:0:0:
343,285,210499,2,0,L|430:285,1,71.875,10|0,1:0|0:0,0:0:0:0:
305,224,210713,2,0,L|394:220,1,71.875,2|0,0:0|0:0,0:0:0:0:
116,167,210927,2,0,L|214:169,1,71.875,8|0,1:0|0:0,0:0:0:0:
459,95,211141,2,0,L|370:97,1,71.875,2|0,0:0|0:0,0:0:0:0:
157,260,211356,6,0,L|234:262,1,71.875,10|0,1:0|0:0,0:0:0:0:
138,204,211570,2,0,L|43:206,1,71.875,2|0,0:0|0:0,0:0:0:0:
353,147,211784,2,0,B|238:194|238:194|223:284,1,215.625,2|0,1:0|0:0,0:0:0:0:
371,167,212213,2,0,B|256:214|256:214|242:304,1,215.625,2|0,1:0|0:0,0:0:0:0:
480,336,212641,2,0,L|397:341,1,71.875,2|0,1:0|0:0,0:0:0:0:
184,347,212856,2,0,L|94:348,1,71.875,2|0,0:0|0:0,0:0:0:0:
401,287,213070,6,0,L|315:287,1,71.875,8|0,1:0|0:0,0:0:0:0:
423,235,213284,2,0,L|500:233,1,71.875,0|0,0:0|0:0,0:0:0:0:
395,180,213499,2,0,L|497:176,1,71.875,2|0,1:0|0:0,0:0:0:0:
361,132,213713,2,0,L|449:131,1,71.875,0|0,0:0|0:0,0:0:0:0:
118,194,213927,2,0,L|40:193,1,71.875,2|0,1:0|0:0,0:0:0:0:
154,111,214141,2,0,L|158:210,1,71.875,2|2,0:0|0:0,0:0:0:0:
269,130,214356,2,0,L|273:34,1,71.875,2|0,1:0|0:0,0:0:0:0:
382,21,214570,2,0,L|387:153,1,71.875,2|0,0:0|0:0,0:0:0:0:
60,303,214784,6,0,L|146:303,1,71.875,8|2,1:0|0:0,0:0:0:0:
237,257,214998,2,0,L|160:255,1,71.875,2|2,0:0|0:0,0:0:0:0:
70,193,215213,2,0,L|141:195,1,71.875,2|0,1:0|0:0,0:0:0:0:
41,126,215427,2,0,L|112:126,1,71.875,0|0,0:0|0:0,0:0:0:0:
385,117,215641,2,0,L|390:215,1,71.875,6|0,0:0|0:0,0:0:0:0:
277,200,215856,2,0,L|271:284,1,71.875,0|0,1:0|0:0,0:0:0:0:
379,197,216070,2,0,L|295:211,1,71.875,0|0,1:0|0:0,0:0:0:0:
200,236,216284,2,0,L|118:246,1,71.875,0|0,0:0|0:0,0:0:0:0:
401,301,216499,6,0,L|477:313,1,71.875,10|0,1:0|0:0,0:0:0:0:
361,258,216713,2,0,L|356:157,1,71.875,2|0,0:0|0:0,0:0:0:0:
242,122,216927,2,0,L|346:119,1,71.875,0|0,1:0|0:0,0:0:0:0:
199,100,217141,2,0,L|199:16,1,71.875,2|0,0:0|0:0,0:0:0:0:
434,61,217356,2,0,L|343:59,1,71.875,2|0,1:0|0:0,0:0:0:0:
468,111,217570,2,0,L|468:192,1,71.875,2|0,0:0|0:0,0:0:0:0:
363,77,217784,2,0,L|284:78,1,71.875,0|0,1:0|0:0,0:0:0:0:
401,123,217999,2,0,L|403:212,1,71.875,2|0,0:0|0:0,0:0:0:0:
157,277,218213,6,0,L|234:275,1,71.875,10|0,1:0|0:0,0:0:0:0:
120,237,218427,2,0,L|209:235,1,71.875,2|2,0:0|0:0,0:0:0:0:
85,197,218641,2,0,L|168:191,1,71.875,0|0,1:0|0:0,0:0:0:0:
246,133,218856,2,0,L|152:135,1,71.875,0|0,0:0|0:0,0:0:0:0:
413,64,219070,2,0,L|414:178,1,71.875,10|2,1:2|0:0,0:0:0:0:
159,150,219284,2,0,L|159:253,1,71.875,2|2,0:0|0:0,0:0:0:0:
413,135,219499,1,10,0:2:0:0:
375,135,219552,1,0,0:0:0:0:
344,134,219606,1,0,0:0:0:0:
375,135,219660,1,0,0:0:0:0:
413,135,219713,1,0,0:0:0:0:
482,141,219820,1,2,0:0:0:0:
214,294,219927,6,0,L|60:297,1,143.75,14|0,0:0|0:0,0:0:0:0:
142,295,220249,1,0,0:0:0:0:
351,294,220356,2,0,B|227:274|227:274|227:164,1,215.625,2|0,1:0|0:0,0:0:0:0:
360,265,220784,2,0,B|236:245|236:245|254:139,1,215.625,2|2,1:0|0:0,0:0:0:0:
375,239,221213,2,0,L|285:230,1,71.875,2|0,0:0|0:0,0:0:0:0:
404,197,221427,2,0,L|294:188,1,71.875,8|0,0:0|0:0,0:0:0:0:
88,157,221641,5,10,1:0:0:0:
258,185,221856,1,0,0:0:0:0:
258,185,221963,1,0,0:0:0:0:
397,184,222070,1,2,1:0:0:0:
258,185,222284,1,0,0:0:0:0:
333,186,222391,1,0,0:0:0:0:
124,252,222499,1,2,1:0:0:0:
301,325,222713,2,0,L|406:322,1,71.875,0|2,0:0|0:0,0:0:0:0:
170,200,222927,2,0,L|263:200,1,71.875,2|0,1:0|0:0,0:0:0:0:
130,147,223141,2,0,L|41:145,1,71.875,2|0,0:0|0:0,0:0:0:0:
332,301,223356,6,0,L|486:304,1,143.75,10|0,0:0|0:0,0:0:0:0:
404,301,223678,1,0,0:0:0:0:
193,301,223785,2,0,B|317:281|317:281|332:167,1,215.625,2|0,1:0|0:0,0:0:0:0:
189,270,224213,2,0,B|313:250|313:250|302:139,1,215.625,0|0,1:0|0:0,0:0:0:0:
163,246,224642,2,0,L|253:237,1,71.875,8|0,0:0|0:0,0:0:0:0:
132,204,224856,2,0,L|242:195,1,71.875,2|0,0:0|0:0,0:0:0:0:
458,163,225070,5,10,1:0:0:0:
281,208,225284,1,0,0:0:0:0:
281,208,225391,1,0,0:0:0:0:
143,232,225499,1,10,1:0:0:0:
303,273,225713,1,0,0:0:0:0:
229,275,225820,1,0,0:0:0:0:
472,235,225927,1,2,1:0:0:0:
310,180,226141,1,2,0:0:0:0:
112,141,226249,2,0,L|297:137,1,143.75,0|0,0:0|0:0,0:0:0:0:
45,95,226570,2,0,L|139:93,1,71.875,2|0,0:0|0:0,0:0:0:0:
379,85,226784,5,10,0:0:0:0:
226,154,226999,2,0,L|312:158,1,71.875,0|0,0:0|0:0,0:0:0:0:
59,163,227213,2,0,B|168:149|168:149|188:22,1,215.625,2|0,1:0|0:0,0:0:0:0:
324,214,227641,2,0,B|215:200|215:200|195:73,1,215.625,0|10,1:0|0:0,0:0:0:0:
337,73,228070,2,0,L|240:82,1,71.875,10|0,0:0|0:0,0:0:0:0:
373,108,228284,2,0,L|265:114,1,71.875,8|0,0:0|0:0,0:0:0:0:
23,227,228499,6,0,L|201:233,1,143.75,10|2,1:0|0:0,0:0:0:0:
68,287,228820,1,2,0:0:0:0:
166,231,228927,2,0,L|-12:237,1,143.75,2|0,1:0|0:0,0:0:0:0:
125,186,229249,1,0,0:0:0:0:
350,88,229356,2,0,L|436:93,1,71.875,2|0,0:0|0:0,0:0:0:0:
331,137,229570,2,0,L|237:143,1,71.875,8|0,0:0|0:0,0:0:0:0:
371,172,229784,6,0,L|290:175,1,71.875,10|0,1:0|0:0,0:0:0:0:
398,217,229999,2,0,L|470:226,1,71.875,8|0,0:0|0:0,0:0:0:0:
225,295,230213,2,0,L|316:291,1,71.875,10|0,0:0|0:0,0:0:0:0:
177,244,230427,2,0,L|169:158,1,71.875,0|0,0:0|0:0,0:0:0:0:
272,105,230641,2,0,L|164:106,1,71.875,2|0,0:0|0:0,0:0:0:0:
314,60,230856,2,0,L|215:60,1,71.875,0|0,0:0|0:0,0:0:0:0:
139,48,231070,2,0,L|232:44,1,71.875,2|0,0:0|0:0,0:0:0:0:
110,100,231284,2,0,L|106:205,1,71.875,10|0,0:0|0:0,0:0:0:0:
221,185,231499,2,0,L|303:191,1,71.875,8|0,1:2|0:0,0:0:0:0:
186,210,231713,2,0,L|175:293,1,71.875,2|0,0:0|0:0,0:0:0:0:
408,317,231927,6,0,L|309:322,1,71.875,10|0,1:2|0:0,0:0:0:0:
425,256,232141,2,0,L|336:262,1,71.875,0|0,0:0|0:0,0:0:0:0:
441,195,232356,2,0,L|339:200,1,71.875,10|0,0:0|0:0,0:0:0:0:
460,135,232570,2,0,L|363:140,1,71.875
145,93,232784,2,0,L|145:201,1,71.875,10|0,1:0|0:0,0:0:0:0:
267,165,232999,2,0,L|269:255,1,71.875,0|0,0:0|0:0,0:0:0:0:
396,164,233213,2,0,L|391:67,1,71.875,10|0,1:0|0:0,0:0:0:0:
266,166,233427,2,0,L|267:273,1,71.875,0|0,0:0|0:0,0:0:0:0:
29,280,233641,6,0,L|120:279,1,71.875,2|0,1:0|0:0,0:0:0:0:
221,216,233856,2,0,L|123:217,1,71.875
29,280,234070,2,0,L|120:279,1,71.875,2|0,1:0|0:0,0:0:0:0:
221,216,234285,2,0,L|123:217,1,71.875,0|0,0:0|0:0,0:0:0:0:
414,138,234499,2,0,L|301:134,1,71.875,2|0,1:0|0:0,0:0:0:0:
423,90,234713,1,0,0:0:0:0:
219,192,234820,2,0,L|35:197,1,143.75,0|0,0:0|0:0,0:0:0:0:
297,143,235141,2,0,L|368:143,1,71.875,12|0,0:0|0:0,0:0:0:0:
122,79,235356,6,0,L|300:74,1,143.75,2|0,1:0|0:0,0:0:0:0:
183,77,235677,1,0,0:0:0:0:
265,74,235784,2,0,L|122:79,1,143.75,2|0,1:0|0:0,0:0:0:0:
46,85,236106,1,0,0:0:0:0:
321,173,236213,2,0,L|510:189,1,143.75,2|0,1:0|0:0,0:0:0:0:
368,193,236534,1,0,0:0:0:0:
464,185,236641,2,0,L|321:173,1,143.75,2|12,1:0|0:0,0:0:0:0:
430,139,236963,1,0,0:0:0:0:
166,212,237070,6,0,L|65:220,1,71.875,2|0,1:0|0:0,0:0:0:0:
199,254,237284,2,0,L|283:262,1,71.875,0|0,0:0|0:0,0:0:0:0:
166,212,237499,2,0,L|65:220,1,71.875,2|0,1:0|0:0,0:0:0:0:
199,254,237713,2,0,L|283:262,1,71.875,0|0,0:0|0:0,0:0:0:0:
481,101,237927,2,0,L|480:200,1,71.875,2|0,1:0|0:0,0:0:0:0:
356,139,238141,2,0,L|355:238,1,71.875,0|0,0:0|0:0,0:0:0:0:
226,187,238356,2,0,L|225:286,1,71.875,2|0,1:0|0:0,0:0:0:0:
20,267,238570,2,0,L|119:267,1,71.875,12|0,0:0|0:0,0:0:0:0:
416,316,238784,6,0,L|226:315,1,143.75,2|0,1:0|0:0,0:0:0:0:
378,262,239106,1,0,0:0:0:0:
272,315,239213,2,0,L|416:316,1,143.75,2|0,1:0|0:0,0:0:0:0:
311,256,239534,1,0,0:0:0:0:
416,316,239641,2,0,L|272:315,1,143.75,2|0,1:0|0:0,0:0:0:0:
204,314,239963,1,0,0:0:0:0:
272,315,240070,2,0,L|362:317,1,71.875,2|0,1:0|0:0,0:0:0:0:
230,263,240284,2,0,L|155:261,1,71.875,12|0,0:0|0:0,0:0:0:0:
440,137,240499,6,0,L|346:149,1,71.875,2|0,1:0|0:0,0:0:0:0:
449,84,240713,2,0,L|354:93,1,71.875,0|0,0:0|0:0,0:0:0:0:
294,62,240927,2,0,L|381:75,1,71.875,2|0,1:0|0:0,0:0:0:0:
289,20,241141,2,0,L|374:31,1,71.875
110,191,241356,1,2,1:0:0:0:
314,202,241570,1,0,0:0:0:0:
314,202,241677,1,0,0:0:0:0:
448,195,241784,1,2,1:0:0:0:
262,274,241999,1,12,0:0:0:0:
337,272,242106,1,0,0:0:0:0:
79,290,242213,5,2,1:0:0:0:
205,117,242427,1,0,0:0:0:0:
254,168,242534,1,0,0:0:0:0:
210,225,242641,1,0,1:0:0:0:
52,253,242856,1,2,0:0:0:0:
52,253,242963,1,0,0:0:0:0:
236,258,243070,1,0,1:0:0:0:
392,195,243284,1,2,0:0:0:0:
392,195,243391,1,0,0:0:0:0:
252,202,243499,1,0,1:0:0:0:
361,248,243713,1,2,0:0:0:0:
28,337,243927,6,0,L|186:337,1,143.75,4|0,1:2|0:0,0:0:0:0:
361,330,244356,2,0,L|203:330,1,143.75,0|2,0:0|0:0,0:0:0:0:
28,337,244784,2,0,L|186:337,1,143.75,4|0,1:2|0:0,0:0:0:0:
361,330,245213,2,0,L|203:330,1,143.75,0|10,0:0|0:0,0:0:0:0:
512,259,245641,5,0,1:0:0:0:
276,256,246070,2,0,L|435:254,1,143.75,0|0,1:0|0:0,0:0:0:0:
18,260,246499,1,0,1:0:0:0:
256,189,246927,1,2,0:0:0:0:
220,188,246980,1,0,0:0:0:0:
184,188,247034,1,0,0:0:0:0:
148,187,247087,1,0,0:0:0:0:
112,187,247141,1,0,0:0:0:0:
21,187,247570,1,0,0:0:0:0:
70,185,247641,1,0,0:0:0:0:
119,185,247713,1,0,0:0:0:0:
475,66,247784,5,14,1:2:0:0:
