osu file format v14

[General]
AudioFilename: audio.mp3
AudioLeadIn: 0
PreviewTime: 68527
Countdown: 0
SampleSet: Soft
StackLeniency: 0.3
Mode: 0
LetterboxInBreaks: 0
WidescreenStoryboard: 0

[Editor]
Bookmarks: 14190,27904,55333,69047,96476,123904,130761,137618,165047,192476,219904,233634
DistanceSpacing: 1
BeatDivisor: 4
GridSize: 4
TimelineZoom: 1.5

[Metadata]
Title:Sanshi Suimei
TitleUnicode:山紫水明
Artist:Tanchiky
ArtistUnicode:Tanchiky
Creator:nika mika
Version:Insane
Source:
Tags:Riparia Records
BeatmapID:1768517
BeatmapSetID:811685

[Difficulty]
HPDrainRate:6
CircleSize:4
OverallDifficulty:7
ApproachRate:8.5
SliderMultiplier:2.1
SliderTickRate:1

[Events]
//Background and Video events
0,0,"LM7.full.1227965.jpg",0,0
//Break Periods
//Storyboard Layer 0 (Background)
//Storyboard Layer 1 (Fail)
//Storyboard Layer 2 (Pass)
//Storyboard Layer 3 (Foreground)
//Storyboard Sound Samples

[TimingPoints]
652,428.571428571429,4,2,1,100,1,0
652,-166.666666666667,4,2,1,60,0,0
14366,-100,4,2,1,60,0,0
27636,-500,4,2,1,60,0,0
28064,-100,4,2,1,60,0,0
54652,-166.666666666667,4,2,1,60,0,0
55509,-125,4,2,2,60,0,0
61937,-500,4,2,1,60,0,0
62366,-125,4,2,2,60,0,0
68366,-500,4,2,1,60,0,0
69223,-100,4,2,3,80,0,1
82509,-500,4,2,3,80,0,1
82937,-100,4,2,3,80,0,1
94937,-100,4,2,1,60,0,0
96223,-500,4,2,1,60,0,0
96652,-100,4,2,1,60,0,0
99652,-333.333333333336,4,2,1,60,0,0
100080,-100,4,2,1,60,0,0
102652,-166.666666666667,4,2,1,60,0,0
102973,-100,4,2,1,60,0,0
106509,-333.333333333334,4,2,1,60,0,0
106937,-100,4,2,1,60,0,0
109830,-166.666666666667,4,2,2,60,0,0
110366,-100,4,2,1,60,0,0
113366,-333.333333333334,4,2,1,60,0,0
113794,-100,4,2,1,60,0,0
116366,-166.666666666667,4,2,1,60,0,0
116794,-100,4,2,1,60,0,0
120223,-333.333333333334,4,2,1,60,0,0
120652,-100,4,2,1,60,0,0
129223,-200,4,2,1,60,0,0
130294,-100,4,2,1,60,0,0
130937,-200,4,2,1,50,0,0
134366,-100,4,2,1,50,0,0
136080,-500,4,2,1,100,0,0
137794,-166.666666666667,4,2,1,100,0,1
138223,-55.5555555555556,4,2,1,100,0,1
138652,-500,4,2,1,100,0,1
139294,-55.5555555555556,4,2,1,100,0,1
139509,-166.666666666667,4,2,1,100,0,1
141223,-166.666666666667,4,2,1,100,0,1
141652,-55.5555555555556,4,2,1,100,0,1
142080,-500,4,2,1,100,0,1
142723,-55.5555555555556,4,2,1,100,0,1
144652,-166.666666666667,4,2,1,100,0,1
145080,-55.5555555555556,4,2,1,100,0,1
145509,-55.5555555555556,4,2,1,100,0,1
145937,-500,4,2,1,100,0,1
146366,-166.666666666667,4,2,1,100,0,1
147009,-55.5555555555556,4,2,1,100,0,1
147223,-166.666666666667,4,2,1,100,0,1
148509,-55.5555555555556,4,2,1,100,0,1
149794,-250,4,2,1,60,0,0
151509,-55.5555555555556,4,2,1,100,0,1
152366,-500,4,2,1,100,0,1
153009,-55.5555555555556,4,2,1,100,0,1
153223,-166.666666666667,4,2,1,100,0,1
154080,-55.5555555555556,4,2,1,100,0,1
155794,-111.111111111111,4,2,1,100,0,1
156866,-55.5555555555555,4,2,1,100,0,1
159652,-55.5555555555555,4,2,1,100,0,1
160080,-166.666666666667,4,2,1,100,0,1
160723,-55.5555555555555,4,2,1,100,0,1
160937,-166.666666666667,4,2,1,100,0,1
161794,-55.5555555555555,4,2,1,100,0,1
162652,-500,4,2,1,60,0,0
163509,-1000,4,2,1,60,0,0
165223,-100,4,2,3,100,0,1
192223,-500,4,2,1,80,0,0
192652,-100,4,2,1,80,0,0
205937,-500,4,2,1,80,0,0
206366,-100,4,2,1,80,0,0
220080,-500,4,2,0,80,0,0
221152,-100,4,2,1,80,0,0
223509,-500,4,2,0,80,0,0
224366,-100,4,2,1,80,0,0
226937,-500,4,2,0,80,0,0
228009,-100,4,2,1,80,0,0
230366,-500,4,2,0,80,0,0
231437,-100,4,2,1,80,0,0
233794,-100,4,2,1,80,0,0
247080,-500,4,2,1,80,0,0
247723,-100,4,2,1,80,0,0
248044,-100,4,2,1,70,0,0
248366,-100,4,2,1,68,0,0
248794,-100,4,2,1,66,0,0
249223,-100,4,2,1,64,0,0
249652,-100,4,2,1,60,0,0
250080,-100,4,2,1,54,0,0
250509,-100,4,2,1,50,0,0
250937,-100,4,2,1,46,0,0
251794,-100,4,2,1,40,0,0
252223,-100,4,2,1,30,0,0
252652,-100,4,2,1,20,0,0
253080,-100,4,2,1,10,0,0
253509,-100,4,2,1,5,0,0

[Colours]
Combo1 : 184,232,104
Combo2 : 168,206,249
Combo3 : 181,113,255

[HitObjects]
347,269,652,6,0,L|441:255,1,94.499997116089,2|0,0:0|0:0,0:0:0:0:
280,207,1080,2,0,P|255:248|260:299,1,94.499997116089,0|0,1:0|0:0,0:0:0:0:
323,358,1509,1,10,0:0:0:0:
369,181,1937,5,0,0:0:0:0:
337,98,2152,1,0,0:0:0:0:
251,125,2366,6,0,L|158:113,1,94.499997116089,2|0,0:0|0:0,0:0:0:0:
85,60,2794,2,0,P|119:28|165:21,1,94.499997116089,0|0,1:0|0:0,0:0:0:0:
78,146,3223,1,2,0:0:0:0:
183,206,3652,5,0,0:0:0:0:
97,231,3866,1,0,0:0:0:0:
163,295,4080,6,0,L|257:278,1,94.499997116089,2|0,0:0|0:0,0:0:0:0:
408,230,4509,2,0,P|367:206|321:208,1,94.499997116089,0|0,1:0|0:0,0:0:0:0:
348,292,4937,1,10,0:0:0:0:
291,132,5366,5,0,0:0:0:0:
321,49,5580,1,0,0:0:0:0:
233,67,5794,6,0,L|134:57,1,94.499997116089,2|0,0:0|0:0,0:0:0:0:
1,152,6223,2,0,P|51:149|90:118,1,94.499997116089,0|0,1:0|0:0,0:0:0:0:
56,47,6652,1,2,0:0:0:0:
119,211,7080,5,0,0:0:0:0:
205,243,7294,1,0,0:0:0:0:
279,182,7509,5,0,1:0:0:0:
382,314,7723,2,0,B|480:300|480:300|457:320,1,125.999996154785,2|0,0:0|0:0,0:0:0:0:
292,327,8366,5,8,0:0:0:0:
120,252,8580,2,0,B|22:238|22:238|45:258,1,125.999996154785,2|0,0:0|0:0,0:0:0:0:
210,265,9223,5,0,1:0:0:0:
390,210,9437,2,0,B|488:196|488:196|465:216,1,125.999996154785,2|0,0:0|0:0,0:0:0:0:
300,223,10080,5,0,1:0:0:0:
127,157,10294,2,0,B|29:143|29:143|52:163,1,125.999996154785,2|0,0:0|0:0,0:0:0:0:
217,170,10937,5,0,1:0:0:0:
395,109,11152,2,0,B|493:95|493:95|472:112,1,125.999996154785,2|0,0:0|0:0,0:0:0:0:
305,122,11795,5,8,0:0:0:0:
134,62,12009,2,0,B|36:48|36:48|59:68,1,125.999996154785,2|0,0:0|0:0,0:0:0:0:
224,75,12652,5,0,1:0:0:0:
305,122,12866,1,0,1:0:0:0:
301,150,12973,1,0,1:0:0:0:
298,174,13080,1,0,1:0:0:0:
148,208,13294,1,0,1:0:0:0:
309,30,13509,1,10,0:0:0:0:
56,245,13937,1,0,0:0:0:0:
56,143,14366,6,0,L|166:116,1,105,0|0,1:0|0:0,0:0:0:0:
273,221,14794,1,2,0:0:0:0:
273,221,15223,1,2,0:0:0:0:
273,221,15544,1,2,0:0:0:0:
272,220,15652,1,2,0:0:0:0:
171,246,15866,1,2,0:0:0:0:
278,107,16080,6,0,P|333:115|366:151,1,105,0|0,1:0|0:0,0:0:0:0:
245,318,16509,1,2,0:0:0:0:
245,318,16937,1,2,0:0:0:0:
245,318,17259,1,2,0:0:0:0:
245,318,17366,1,2,0:0:0:0:
72,271,17580,1,2,0:0:0:0:
142,354,17794,5,0,1:0:0:0:
142,354,18009,1,2,0:0:0:0:
142,354,18223,1,0,0:0:0:0:
292,179,18437,1,2,0:0:0:0:
227,114,18652,5,0,1:0:0:0:
227,114,18866,1,2,0:0:0:0:
227,114,19080,1,0,0:0:0:0:
213,304,19294,1,2,0:0:0:0:
303,199,19509,5,0,1:0:0:0:
123,138,19723,1,2,0:0:0:0:
123,138,19830,1,2,0:0:0:0:
123,138,19937,1,0,1:0:0:0:
57,323,20152,1,2,0:0:0:0:
237,384,20366,5,0,1:0:0:0:
304,253,20580,1,2,0:0:0:0:
162,304,20794,1,0,1:0:0:0:
229,173,21009,1,2,0:0:0:0:
404,250,21223,6,0,P|412:189|389:146,1,105,0|0,1:0|0:0,0:0:0:0:
304,253,21652,2,0,P|313:307|348:341,1,105,2|0,1:2|0:0,0:0:0:0:
505,182,22080,1,0,1:0:0:0:
244,145,22294,1,2,0:0:0:0:
244,145,22402,1,2,0:0:0:0:
244,145,22509,1,0,1:0:0:0:
495,75,22723,1,2,0:0:0:0:
348,0,22937,6,0,L|338:52,3,52.5,2|2|2|2,1:2|0:0|0:0|0:0,0:0:0:0:
402,98,23366,2,0,P|329:57|256:52,1,157.5,2|0,1:2|1:0,0:0:0:0:
141,114,23794,5,0,1:0:0:0:
171,210,24009,1,2,1:2:0:0:
35,276,24223,2,0,P|35:224|76:183,1,105,2|0,1:2|0:0,0:0:0:0:
213,319,24652,6,0,L|319:313,1,105,0|0,1:0|0:0,0:0:0:0:
488,254,25080,2,0,P|432:248|396:216,1,105,2|0,1:2|0:0,0:0:0:0:
293,105,25509,1,0,1:0:0:0:
425,360,25937,1,2,1:2:0:0:
486,28,26366,5,4,3:0:0:0:
486,28,27437,1,8,0:0:0:0:
486,28,27544,1,0,0:0:0:0:
486,28,27652,1,0,0:0:0:0:
436,160,27866,1,8,0:0:0:0:
336,61,28080,6,0,P|284:41|236:45,1,105,0|0,1:0|0:0,0:0:0:0:
169,162,28509,2,0,P|223:167|269:143,2,105,0|0|0,1:0|0:0|1:0,0:0:0:0:
47,121,29152,1,0,0:0:0:0:
47,121,29259,1,0,0:0:0:0:
47,121,29366,1,0,1:0:0:0:
113,27,29580,1,8,0:0:0:0:
176,259,29794,1,0,1:0:0:0:
176,259,30223,5,0,1:0:0:0:
61,237,30437,1,2,0:0:0:0:
176,259,30652,1,0,1:0:0:0:
35,206,30866,1,8,0:0:0:0:
176,259,31080,1,0,1:0:0:0:
87,270,31294,1,2,0:0:0:0:
232,336,31509,6,0,P|288:344|330:313,1,105,0|0,1:0|0:0,0:0:0:0:
449,245,31937,2,0,L|464:354,2,105,0|0|0,1:0|0:0|1:0,0:0:0:0:
375,130,32580,1,0,0:0:0:0:
296,213,32794,1,0,1:0:0:0:
483,176,33009,1,8,0:0:0:0:
296,213,33223,1,0,1:0:0:0:
296,213,33652,6,0,P|260:180|250:127,1,105,0|2,1:0|0:0,0:0:0:0:
375,130,34080,1,0,1:0:0:0:
155,71,34294,1,2,0:0:0:0:
318,30,34509,1,2,1:2:0:0:
318,30,34616,1,2,0:0:0:0:
318,30,34723,1,2,0:0:0:0:
318,30,34830,1,2,0:0:0:0:
318,30,34937,6,0,L|303:141,1,105,8|0,1:2|0:0,0:0:0:0:
425,216,35366,2,0,L|411:322,1,105,0|0,1:0|0:0,0:0:0:0:
239,322,35794,2,0,P|278:282|329:277,2,105,0|0|0,1:0|0:0|1:0,0:0:0:0:
323,369,36437,1,8,0:0:0:0:
355,144,36652,1,0,1:0:0:0:
355,144,37080,5,0,1:0:0:0:
448,89,37294,1,2,0:0:0:0:
355,144,37509,1,0,1:0:0:0:
438,52,37723,1,2,0:0:0:0:
355,144,37937,1,0,1:0:0:0:
428,16,38152,1,8,0:0:0:0:
184,105,38366,6,0,P|239:108|280:77,1,105,2|0,1:2|0:0,0:0:0:0:
458,159,38794,2,0,L|352:143,2,105,2|0|2,1:2|0:0|1:2,0:0:0:0:
293,210,39437,1,0,0:0:0:0:
386,250,39652,1,2,1:2:0:0:
168,312,39866,1,8,0:0:0:0:
478,357,40080,5,2,1:2:0:0:
478,357,40402,1,2,0:0:0:0:
478,357,40509,1,2,1:2:0:0:
386,250,40723,1,0,0:0:0:0:
346,376,40937,5,10,1:2:0:0:
252,282,41152,1,0,0:0:0:0:
475,185,41366,1,6,1:2:0:0:
475,185,41473,1,0,0:0:0:0:
475,185,41580,1,0,0:0:0:0:
475,185,41687,1,0,0:0:0:0:
475,185,41794,1,14,1:2:0:0:
319,125,42009,5,2,0:0:0:0:
504,71,42223,2,0,P|449:39|408:41,1,105,0|2,1:0|0:0,0:0:0:0:
215,141,42652,2,0,L|327:123,2,105,0|2|0,1:0|0:0|1:0,0:0:0:0:
288,15,43294,1,8,0:0:0:0:
366,224,43509,1,2,1:2:0:0:
366,224,43937,5,0,1:0:0:0:
336,325,44152,1,2,0:0:0:0:
366,224,44366,1,0,1:0:0:0:
419,361,44580,1,8,0:0:0:0:
366,224,44794,1,0,1:0:0:0:
377,343,45009,1,2,0:0:0:0:
256,252,45223,6,0,P|251:194|277:153,1,105,2|2,1:2|0:0,0:0:0:0:
470,209,45652,2,0,L|365:223,2,105,0|2|0,1:0|0:0|1:0,0:0:0:0:
382,114,46294,1,2,0:0:0:0:
173,195,46509,1,0,1:0:0:0:
227,38,46723,1,8,0:0:0:0:
256,252,46937,1,2,1:2:0:0:
256,252,47366,6,0,L|245:357,1,105,0|2,1:0|0:0,0:0:0:0:
71,325,47794,2,0,P|111:291|165:295,1,105,0|2,1:0|0:0,0:0:0:0:
341,344,48223,1,0,1:0:0:0:
173,195,48437,1,8,0:0:0:0:
173,195,48544,1,0,0:0:0:0:
173,195,48652,1,0,1:0:0:0:
173,195,49080,6,0,L|64:186,1,105,0|2,1:0|0:0,0:0:0:0:
239,114,49509,2,0,L|352:105,2,105,0|2|0,1:0|0:0|1:0,0:0:0:0:
104,69,50152,1,8,0:0:0:0:
272,212,50366,1,2,1:2:0:0:
272,212,50794,5,0,1:0:0:0:
327,298,51009,1,2,0:0:0:0:
272,212,51223,1,0,1:0:0:0:
359,313,51437,1,2,0:0:0:0:
272,212,51652,1,0,1:0:0:0:
391,328,51866,1,8,0:0:0:0:
478,240,52080,6,0,L|466:132,1,105,6|2,1:2|0:0,0:0:0:0:
295,99,52509,2,0,P|351:99|390:70,2,105,0|2|0,1:0|0:0|1:2,0:0:0:0:
315,2,53152,1,2,0:0:0:0:
350,190,53366,1,0,1:0:0:0:
500,71,53580,1,10,0:0:0:0:
206,130,53794,5,6,1:2:0:0:
206,130,54116,1,8,1:0:0:0:
206,130,54223,1,8,1:0:0:0:
336,182,54437,1,0,1:0:0:0:
100,261,54652,2,0,P|152:224|221:231,1,125.999996154785,8|0,1:0|1:0,0:0:0:0:
317,317,55509,5,4,0:0:0:0:
317,317,55937,1,4,0:0:0:0:
175,356,56259,1,8,0:0:0:0:
175,356,56366,1,8,0:0:0:0:
317,317,56580,1,2,0:0:0:0:
460,276,56794,1,8,0:0:0:0:
175,356,57223,5,8,0:0:0:0:
317,317,57437,1,2,0:0:0:0:
460,276,57651,1,8,0:0:0:0:
481,249,57866,1,2,0:0:0:0:
350,169,58080,6,0,L|362:215,3,42,12|0|0|0,0:0|0:0|0:0|0:0,0:0:0:0:
434,108,58509,2,0,P|381:68|319:72,1,126,8|0,0:0|0:0,0:0:0:0:
249,139,58937,5,4,0:0:0:0:
249,139,59366,1,4,0:0:0:0:
197,13,59687,1,8,0:0:0:0:
197,13,59794,1,8,0:0:0:0:
249,139,60009,1,2,0:0:0:0:
305,262,60223,1,8,0:0:0:0:
288,292,60437,1,2,0:0:0:0:
413,177,60652,6,0,L|370:164,3,42,12|0|0|0,0:0|0:0|0:0|0:0,0:0:0:0:
477,249,61080,2,0,P|476:291|452:337,2,84,8|0|8,0:0|0:0|0:0,0:0:0:0:
426,90,61723,1,2,0:0:0:0:
217,144,61937,2,0,L|241:138,1,21,12|2,0:0|0:0,0:0:0:0:
164,229,62366,6,0,L|77:220,1,84,4|0,1:2|0:0,0:0:0:0:
164,229,62794,1,4,1:2:0:0:
53,320,63009,1,2,0:0:0:0:
53,320,63116,1,8,0:0:0:0:
53,320,63223,1,8,1:2:0:0:
164,229,63437,1,2,0:0:0:0:
19,176,63652,2,0,L|106:161,1,84,8|0,1:0|0:0,0:0:0:0:
53,320,64080,5,4,1:2:0:0:
164,229,64294,1,2,0:0:0:0:
19,176,64509,1,8,1:0:0:0:
156,337,64723,1,2,0:0:0:0:
257,161,64937,5,2,1:2:0:0:
253,139,65044,1,2,0:0:0:0:
248,117,65152,1,2,0:0:0:0:
243,97,65259,1,2,0:0:0:0:
239,77,65366,1,4,1:2:0:0:
164,229,65580,1,0,0:0:0:0:
346,325,65794,6,0,P|392:322|429:302,1,84,4|0,1:2|0:0,0:0:0:0:
346,325,66223,1,4,1:2:0:0:
504,249,66437,1,2,0:0:0:0:
504,249,66544,1,8,0:0:0:0:
504,249,66652,1,8,1:2:0:0:
361,154,66866,1,2,0:0:0:0:
471,34,67080,2,0,L|458:117,1,84,8|2,1:0|0:0,0:0:0:0:
264,224,67509,5,4,0:0:0:0:
361,154,67723,1,4,0:0:0:0:
116,159,67937,5,4,0:0:0:0:
264,224,68152,1,4,0:0:0:0:
12,277,68366,6,0,L|46:268,1,31.5,12|0,0:0|0:0,0:0:0:0:
128,329,68794,1,2,0:0:0:0:
128,329,68902,1,2,0:0:0:0:
128,329,69009,1,2,0:0:0:0:
128,329,69116,1,2,0:0:0:0:
128,329,69223,5,4,0:0:0:0:
277,293,69437,2,0,L|330:300,2,52.5,2|2|2,0:0|0:0|0:0,0:0:0:0:
128,329,69866,1,0,1:0:0:0:
177,184,70080,5,4,0:0:0:0:
327,148,70294,2,0,L|380:155,2,52.5,2|2|2,0:0|0:0|0:0,0:0:0:0:
177,184,70723,1,0,1:0:0:0:
218,43,70937,5,4,0:0:0:0:
177,184,71152,2,0,P|149:184|124:174,1,52.5,2|0,1:2|0:0,0:0:0:0:
32,93,71366,2,0,P|56:83|82:84,1,52.5,6|0,0:0|0:0,0:0:0:0:
258,219,71580,2,0,L|249:278,1,52.5,2|0,1:2|0:0,0:0:0:0:
87,311,71794,5,6,0:0:0:0:
114,292,71902,1,0,0:0:0:0:
144,294,72009,1,2,1:2:0:0:
254,360,72223,5,0,1:0:0:0:
284,362,72437,1,2,0:0:0:0:
311,343,72652,1,0,1:0:0:0:
267,129,72866,5,8,0:0:0:0:
239,210,73080,1,0,1:2:0:0:
267,129,73294,1,8,0:0:0:0:
267,129,73509,1,8,1:2:0:0:
372,184,73723,6,0,L|363:242,2,52.5,2|2|2,0:0|0:0|0:0,0:0:0:0:
312,17,74152,1,8,0:0:0:0:
478,69,74366,6,0,L|424:61,1,52.5,4|0,0:0|0:0,0:0:0:0:
260,26,74580,2,0,L|325:14,1,52.5,0|0,1:0|0:0,0:0:0:0:
169,150,74794,6,0,P|222:124|268:129,1,105,8|0,0:1|0:0,0:0:0:0:
372,184,75116,1,0,0:0:0:0:
384,201,75223,1,0,1:0:0:0:
257,288,75437,5,0,0:0:0:0:
278,274,75544,1,0,0:0:0:0:
283,300,75652,1,8,1:0:0:0:
168,363,75866,1,2,0:0:0:0:
214,173,76080,5,4,1:2:0:0:
92,247,76294,2,0,L|102:302,2,52.5,2|2|2,0:0|0:0|0:0,0:0:0:0:
214,173,76723,1,0,1:0:0:0:
338,231,76937,5,4,0:0:0:0:
216,305,77151,2,0,L|226:360,2,52.5,2|2|2,0:0|0:0|0:0,0:0:0:0:
338,231,77580,1,0,1:0:0:0:
461,285,77794,5,4,0:0:0:0:
427,144,78009,2,0,P|459:148|484:164,1,52.5,2|0,1:2|0:0,0:0:0:0:
338,231,78223,2,0,P|314:242|288:244,1,52.5,6|0,0:0|0:0,0:0:0:0:
209,95,78437,2,0,L|220:38,1,52.5,2|0,1:2|0:0,0:0:0:0:
112,150,78652,5,2,1:2:0:0:
118,180,78759,1,0,0:0:0:0:
124,209,78866,1,12,0:0:0:0:
124,209,79080,1,12,0:0:0:0:
202,342,79294,5,2,0:0:0:0:
208,312,79401,1,2,0:0:0:0:
214,282,79509,1,0,1:0:0:0:
45,329,79723,5,8,0:0:0:0:
8,244,79937,1,0,1:0:0:0:
45,329,80152,1,8,0:0:0:0:
45,329,80366,1,8,1:2:0:0:
229,165,80580,6,0,L|285:173,2,52.5,2|2|2,0:0|0:0|0:0,0:0:0:0:
114,46,81009,1,8,1:0:0:0:
6,174,81223,6,0,P|66:166|96:132,1,105,0|2,1:0|0:0,0:0:0:0:
114,46,81544,1,0,0:0:0:0:
104,23,81651,1,8,1:0:0:0:
202,189,81866,5,0,0:0:0:0:
235,205,81973,1,0,0:0:0:0:
229,165,82080,1,0,1:0:0:0:
117,264,82294,1,0,1:0:0:0:
271,311,82509,6,0,L|300:307,1,21,8|0,1:0|0:0,0:0:0:0:
502,260,82937,5,4,0:0:0:0:
365,197,83152,2,0,P|369:228|382:250,2,52.5,2|2|2,0:0|0:0|0:0,0:0:0:0:
502,260,83580,1,0,1:0:0:0:
489,101,83794,5,4,0:0:0:0:
352,38,84009,2,0,P|356:69|369:91,2,52.5,2|2|2,0:0|0:0|0:0,0:0:0:0:
489,101,84437,1,0,1:0:0:0:
262,80,84652,5,4,0:0:0:0:
142,175,84866,2,0,L|193:183,1,52.5,2|0,1:2|0:0,0:0:0:0:
62,102,85080,2,0,L|10:109,1,52.5,6|0,0:0|0:0,0:0:0:0:
5,233,85294,2,0,P|32:222|50:197,1,52.5,2|0,1:2|0:0,0:0:0:0:
167,62,85509,5,6,0:0:0:0:
164,29,85616,1,0,0:0:0:0:
162,0,85723,1,2,1:2:0:0:
293,205,85937,5,2,1:2:0:0:
290,238,86152,1,2,0:0:0:0:
287,267,86366,1,0,1:0:0:0:
133,328,86580,5,8,0:0:0:0:
78,251,86794,1,0,1:0:0:0:
133,328,87009,1,8,0:0:0:0:
133,328,87223,1,8,0:0:0:0:
349,357,87437,6,0,L|405:350,2,52.5,2|2|2,0:0|0:0|0:0,0:0:0:0:
176,241,87866,1,8,0:0:0:0:
289,110,88080,6,0,P|288:139|279:163,1,52.5,4|0,0:0|0:0,0:0:0:0:
184,291,88294,2,0,P|175:266|175:240,1,52.5,0|0,1:0|0:0,0:0:0:0:
65,152,88509,6,0,P|117:117|167:114,1,105,8|0,1:0|0:0,0:0:0:0:
289,110,88830,1,0,0:0:0:0:
314,118,88937,1,0,1:0:0:0:
425,251,89152,5,0,0:0:0:0:
389,242,89259,1,0,0:0:0:0:
415,214,89366,1,4,0:0:0:0:
468,337,89580,1,0,1:0:0:0:
284,247,89794,5,4,0:0:0:0:
424,162,90009,2,0,L|414:216,2,52.5,2|2|2,0:0|0:0|0:0,0:0:0:0:
284,247,90437,1,0,1:0:0:0:
143,169,90652,5,4,0:0:0:0:
283,84,90867,2,0,L|273:138,2,52.5,2|2|2,0:0|0:0|0:0,0:0:0:0:
143,169,91295,1,0,1:0:0:0:
392,57,91509,5,4,0:0:0:0:
475,170,91723,2,0,L|419:161,1,52.5,2|0,1:2|0:0,0:0:0:0:
231,93,91937,2,0,L|288:83,1,52.5,6|0,0:0|0:0,0:0:0:0:
328,240,92152,2,0,P|313:212|314:189,1,52.5,2|0,1:2|0:0,0:0:0:0:
460,302,92366,5,2,1:2:0:0:
431,326,92473,1,0,0:0:0:0:
394,325,92580,1,6,0:0:0:0:
394,325,92794,1,6,0:0:0:0:
328,240,93009,5,0,0:0:0:0:
299,216,93116,1,0,0:0:0:0:
262,217,93223,1,0,1:0:0:0:
92,284,93437,5,8,0:0:0:0:
2,257,93652,1,0,1:0:0:0:
92,284,93866,1,8,0:0:0:0:
92,284,94080,1,8,0:0:0:0:
229,322,94294,6,0,L|224:375,1,52.5,2|2,1:2|1:2,0:0:0:0:
176,183,94509,2,0,P|168:130|182:71,1,105,8|8,1:0|1:0,0:0:0:0:
305,20,94937,5,0,1:0:0:0:
305,20,95366,1,2,0:0:0:0:
305,20,95794,1,2,0:0:0:0:
305,20,96223,2,2,L|299:57,1,31.5
382,148,96652,6,0,P|429:124|479:131,1,105,4|2,0:2|0:0,0:0:0:0:
382,148,97294,1,2,0:0:0:0:
479,131,97723,2,0,P|427:124|382:148,1,105,2|2,0:0|0:0,0:0:0:0:
479,131,98152,1,2,0:0:0:0:
314,223,98366,6,0,P|361:247|411:240,1,105,0|0,1:2|0:0,0:0:0:0:
480,305,98687,1,0,0:0:0:0:
488,332,98794,2,0,L|480:385,3,52.5,2|2|2|2,1:2|0:0|0:0|0:0,0:0:0:0:
353,344,99223,6,0,P|380:334|408:336,1,52.5,0|0,1:0|0:0,0:0:0:0:
265,297,99437,2,0,P|238:297|214:287,1,52.5
163,201,99652,6,0,L|173:143,1,47.2499985580445,0|0,1:0|0:0,0:0:0:0:
238,49,100080,6,0,P|269:94|268:145,1,105,4|2,0:2|0:0,0:0:0:0:
238,49,100723,1,2,0:0:0:0:
267,142,101152,2,0,P|267:90|237:48,1,105,2|2,0:0|0:0,0:0:0:0:
268,142,101580,1,2,0:0:0:0:
39,34,101794,5,0,1:0:0:0:
114,194,102009,1,2,0:0:0:0:
237,48,102223,1,2,1:2:0:0:
263,46,102330,1,2,0:0:0:0:
289,44,102437,1,2,0:0:0:0:
315,42,102544,1,2,0:0:0:0:
341,41,102652,6,0,L|280:29,1,62.9999980773926,0|0,1:0|0:0,0:0:0:0:
402,159,103080,2,0,P|454:164|499:135,1,105,8|0,1:0|0:0,0:0:0:0:
312,255,103509,6,0,P|310:311|338:357,1,105,4|2,0:2|0:0,0:0:0:0:
312,255,104152,1,2,0:0:0:0:
333,352,104580,2,0,P|308:306|312:255,1,105,2|2,0:0|0:0,0:0:0:0:
333,352,105009,1,2,0:0:0:0:
428,177,105223,6,0,L|412:283,1,105,0|0,1:0|0:0,0:0:0:0:
482,342,105544,1,0,0:0:0:0:
503,362,105652,2,0,L|494:304,3,52.5,2|2|2|2,1:2|0:0|0:0|0:0,0:0:0:0:
428,177,106080,6,0,P|454:165|478:166,1,52.5,0|0,1:0|0:0,0:0:0:0:
312,254,106294,2,0,P|285:254|262:242,1,52.5
309,116,106509,6,0,L|324:175,1,47.2499985580445,0|0,1:0|0:0,0:0:0:0:
167,257,106937,6,0,P|111:257|72:227,1,105,4|2,0:0|0:0,0:0:0:0:
167,257,107580,1,2,0:0:0:0:
73,228,108009,2,0,P|115:258|167:257,1,105,2|2,0:0|0:0,0:0:0:0:
73,228,108438,1,2,0:0:0:0:
156,60,108652,6,0,B|165:32|165:32|185:116,1,105,0|0,1:0|0:0,0:0:0:0:
334,166,109080,5,2,1:2:0:0:
369,171,109187,1,2,0:0:0:0:
406,161,109294,1,2,0:0:0:0:
437,139,109402,1,2,0:0:0:0:
457,104,109509,1,2,1:2:0:0:
256,250,109723,1,2,0:0:0:0:
412,342,109937,6,0,L|508:334,1,94.499997116089,8|0,0:0|0:0,0:0:0:0:
354,271,110366,6,0,P|318:313|320:362,2,105,4|2|0,0:0|0:0|1:0,0:0:0:0:
319,360,111009,1,2,0:0:0:0:
354,271,111223,1,0,1:0:0:0:
319,360,111437,2,0,P|319:308|354:271,1,105,2|2,0:0|1:2,0:0:0:0:
319,360,111866,1,8,0:0:0:0:
472,286,112080,6,0,L|466:182,1,105,0|0,1:0|0:0,0:0:0:0:
372,104,112402,1,0,0:0:0:0:
335,112,112509,2,0,L|278:121,3,52.5,2|2|2|2,1:2|0:0|0:0|0:0,0:0:0:0:
214,200,112937,6,0,P|189:210|163:210,1,52.5,0|0,1:0|0:0,0:0:0:0:
58,108,113152,2,0,P|84:108|108:118,1,52.5,2|0,0:0|0:0,0:0:0:0:
200,288,113366,6,0,L|192:334,1,47.2499985580445,0|0,1:0|0:0,0:0:0:0:
40,266,113794,6,0,P|37:321|69:360,2,105,4|2|0,0:0|0:0|1:0,0:0:0:0:
66,358,114437,1,2,0:0:0:0:
40,266,114652,1,0,1:0:0:0:
66,358,114866,2,0,P|35:317|40:266,1,105,2|2,0:0|1:2,0:0:0:0:
66,358,115294,1,2,0:0:0:0:
87,165,115509,5,2,1:2:0:0:
89,144,115616,1,2,0:0:0:0:
92,122,115723,1,2,0:0:0:0:
94,101,115830,1,2,0:0:0:0:
97,79,115937,5,8,1:2:0:0:
143,103,116044,1,0,0:0:0:0:
195,101,116152,1,2,0:0:0:0:
241,76,116259,1,0,0:0:0:0:
275,35,116366,6,0,L|208:24,1,62.9999980773926,0|0,1:2|0:0,0:0:0:0:
305,132,116794,2,0,L|409:120,1,105,8|0,1:0|0:0,0:0:0:0:
489,16,117223,6,0,P|516:67|509:118,2,105,4|2|0,0:0|0:0|1:0,0:0:0:0:
511,112,117866,1,2,0:0:0:0:
489,16,118080,1,0,1:0:0:0:
511,112,118294,2,0,P|514:60|489:16,1,105,2|2,0:0|1:2,0:0:0:0:
512,113,118723,1,8,0:0:0:0:
322,210,118937,6,0,L|430:201,1,105,0|0,1:0|0:0,0:0:0:0:
346,314,119259,1,0,0:0:0:0:
311,337,119366,2,0,L|253:327,3,52.5,2|2|2|2,1:2|0:0|0:0|0:0,0:0:0:0:
161,221,119794,6,0,P|184:209|210:205,1,52.5,0|0,1:0|0:0,0:0:0:0:
322,210,120009,2,0,P|348:211|372:221,1,52.5,2|0,0:0|0:0,0:0:0:0:
477,346,120223,6,0,P|463:326|463:298,1,47.2499985580445,0|0,1:0|0:0,0:0:0:0:
496,189,120652,6,0,P|495:136|462:95,2,105,4|2|0,0:0|0:0|1:0,0:0:0:0:
464,96,121294,1,2,0:0:0:0:
496,189,121509,1,0,1:0:0:0:
464,96,121723,2,0,P|495:137|496:189,1,105,2|2,0:0|1:2,0:0:0:0:
464,96,122152,1,2,0:0:0:0:
258,34,122366,5,2,1:2:0:0:
275,45,122473,1,2,0:0:0:0:
288,61,122580,1,2,0:0:0:0:
297,79,122687,1,2,0:0:0:0:
301,99,122794,5,8,1:2:0:0:
289,150,122902,1,0,0:0:0:0:
276,200,123009,1,0,0:0:0:0:
261,250,123116,1,0,0:0:0:0:
246,300,123223,1,0,1:0:0:0:
195,125,123544,5,8,1:0:0:0:
195,125,123652,1,8,1:0:0:0:
366,249,123866,1,0,1:0:0:0:
64,235,124080,5,2,0:0:0:0:
64,235,125794,5,2,0:0:0:0:
64,235,127509,5,2,0:0:0:0:
64,235,129223,6,0,L|72:316,1,78.75,2|0,0:0|0:0,0:0:0:0:
153,358,129652,2,0,L|149:379,10,13.125,2|0|0|0|0|0|0|0|0|0|0,0:0|0:0|0:0|0:0|0:0|0:0|0:0|0:0|0:0|0:0|0:0,0:0:0:0:
185,317,130294,5,2,0:0:0:0:
231,291,130402,1,2,0:0:0:0:
283,291,130509,1,2,0:0:0:0:
328,317,130616,1,2,0:0:0:0:
352,363,130723,2,0,L|295:350,1,52.5,2|0,0:0|0:0,0:0:0:0:
423,175,130937,5,4,1:2:0:0:
340,184,131794,1,0,1:0:0:0:
257,193,132652,1,0,1:0:0:0:
174,202,133508,1,0,1:0:0:0:
91,211,134366,5,0,1:0:0:0:
174,202,134795,1,0,1:0:0:0:
257,193,135223,1,0,1:0:0:0:
340,184,135652,1,0,1:0:0:0:
89,209,136080,6,0,B|10:196|10:196|39:179,1,105,4|0,0:2|0:0,0:0:0:0:
183,257,137366,1,14,3:0:0:0:
183,257,137794,6,0,P|227:238|274:242,1,94.499997116089,4|0,0:0|0:0,0:0:0:0:
322,326,138223,6,0,P|242:208|335:165,1,283.499991348267,0|0,1:0|0:0,0:0:0:0:
467,265,138652,6,0,L|462:291,1,21,8|2,1:0|0:0,0:0:0:0:
449,357,139080,1,2,0:0:0:0:
467,265,139294,6,0,L|449:362,1,94.499997116089,2|0,0:0|0:0,0:0:0:0:
368,250,139509,5,4,0:0:0:0:
460,93,139723,5,8,0:0:0:0:
453,69,139937,1,8,0:0:0:0:
447,47,140152,1,2,1:2:0:0:
441,28,140366,5,8,1:0:0:0:
243,124,140580,1,0,1:0:0:0:
243,124,140687,1,0,1:0:0:0:
243,124,140794,1,0,1:0:0:0:
345,165,141009,1,0,1:0:0:0:
334,71,141223,6,0,L|345:172,1,94.499997116089,4|0,0:0|0:0,0:0:0:0:
243,124,141652,6,0,L|237:171,6,47.2499985580445,0|0|0|0|0|0|0,1:0|0:0|0:0|0:0|0:0|0:0|0:0,0:0:0:0:
298,261,142080,5,8,1:0:0:0:
303,286,142294,1,8,0:0:0:0:
188,364,142509,5,8,0:0:0:0:
193,339,142723,1,2,0:0:0:0:
303,286,142937,5,0,1:0:0:0:
133,229,143152,1,0,1:0:0:0:
133,229,143259,1,0,1:0:0:0:
133,229,143366,1,8,1:0:0:0:
303,286,143580,1,0,1:0:0:0:
463,187,143794,5,0,1:0:0:0:
463,187,143902,2,0,L|273:165,1,188.999994232178,0|0,1:0|0:0,0:0:0:0:
223,101,144223,2,0,P|320:73|354:139,1,188.999994232178,0|0,1:0|0:0,0:0:0:0:
169,242,144652,5,4,0:0:0:0:
169,242,145080,5,0,1:0:0:0:
110,63,145294,1,2,0:0:0:0:
48,150,145509,2,0,B|31:198|68:237|68:237|100:274|77:334,1,188.999994232178,8|2,1:0|0:0,0:0:0:0:
13,377,145830,1,2,0:0:0:0:
4,367,145937,1,0,1:0:0:0:
4,294,146152,5,2,0:0:0:0:
208,369,146366,5,0,1:0:0:0:
127,174,146580,1,8,0:0:0:0:
151,180,146794,1,8,0:0:0:0:
172,187,147009,1,2,1:2:0:0:
192,192,147223,5,8,1:0:0:0:
398,136,147437,1,0,1:0:0:0:
398,136,147544,1,0,1:0:0:0:
398,136,147652,1,0,1:0:0:0:
311,223,147866,1,0,1:0:0:0:
433,257,148080,6,0,P|439:307|417:348,1,94.499997116089,4|0,0:0|0:0,0:0:0:0:
287,331,148509,6,0,L|333:323,6,47.2499985580445,0|0|0|0|0|0|0,1:0|0:0|0:0|0:0|0:0|0:0|0:0,0:0:0:0:
161,282,148937,5,8,1:0:0:0:
127,276,149152,1,8,0:0:0:0:
17,350,149366,5,4,0:0:0:0:
51,345,149580,1,8,0:0:0:0:
196,290,149794,6,2,P|186:246|271:313,1,294,0|0,1:0|0:0,0:1:0:0:
83,215,151509,6,0,P|88:165|280:101,1,283.499991348267,4|0,0:0|0:0,0:0:0:0:
407,221,151937,6,0,B|433:232|464:271|448:331|379:340|321:312|294:255|303:211|318:187,1,283.499991348267,8|0,1:0|0:0,0:0:0:0:
422,49,152366,6,0,L|425:75,1,21,0|0,1:2|0:0,0:0:0:0:
433,142,152794,1,8,1:0:0:0:
422,49,153009,6,0,L|434:145,1,94.499997116089,2|0,0:0|0:0,0:0:0:0:
349,269,153223,5,4,1:2:0:0:
355,293,153437,1,8,0:0:0:0:
497,322,153652,5,8,1:0:0:0:
502,298,153866,1,8,0:0:0:0:
433,142,154080,5,0,1:2:0:0:
362,315,154294,5,0,1:0:0:0:
434,296,154402,1,0,1:0:0:0:
508,277,154509,1,8,1:0:0:0:
416,368,154723,5,0,1:0:0:0:
290,334,154937,6,0,B|182:328|182:328|123:259|123:259|207:265,1,283.499991348267,4|0,0:0|0:0,0:0:0:0:
395,202,155366,6,0,L|384:149,6,47.2499985580445,8|0|0|0|0|0|0,1:0|0:0|0:0|0:0|0:0|0:0|0:0,0:0:0:0:
290,199,155794,5,0,1:0:0:0:
258,198,156009,1,8,0:0:0:0:
474,140,156223,5,8,1:0:0:0:
506,139,156438,1,8,0:0:0:0:
330,25,156652,5,0,1:0:0:0:
395,202,156866,2,0,P|400:150|381:112,1,94.499997116089,0|0,1:0|0:0,0:0:0:0:
330,25,157080,1,8,1:0:0:0:
218,112,157294,1,2,0:0:0:0:
329,359,157509,5,0,1:0:0:0:
329,359,157616,2,0,L|303:167,1,188.999994232178,0|0,1:0|0:0,0:0:0:0:
404,277,157937,6,0,P|350:203|255:211,1,188.999994232178,0|0,1:0|0:0,0:0:0:0:
192,310,158366,5,4,1:2:0:0:
192,310,158794,5,8,1:0:0:0:
252,236,159009,2,0,B|275:208|275:208|216:220,1,94.499997116089,2|0,0:0|0:0,0:0:0:0:
54,211,159223,2,0,B|77:162|126:159|126:159|182:154|207:114,1,188.999994232178,0|0,1:2|0:0,0:0:0:0:
131,58,159544,1,2,0:0:0:0:
133,79,159652,1,8,1:0:0:0:
221,21,159866,5,2,0:0:0:0:
32,100,160080,1,4,1:2:0:0:
141,250,160294,5,8,0:0:0:0:
151,219,160509,1,8,1:0:0:0:
0,291,160723,5,8,1:2:0:0:
10,322,160937,1,4,1:2:0:0:
141,250,161152,5,0,1:0:0:0:
70,271,161259,1,0,1:0:0:0:
0,291,161366,1,8,1:0:0:0:
133,79,161580,1,0,1:0:0:0:
272,159,161794,6,0,B|261:183|257:211|257:211|258:132|221:78|221:78|257:103|312:95,1,283.499991348267,4|0,0:0|0:0,0:0:0:0:
404,165,162223,6,0,L|454:155,6,47.2499985580445,8|0|0|0|0|0|0,1:0|0:0|0:0|0:0|0:0|0:0|0:0,0:0:0:0:
408,41,162652,5,4,1:2:0:0:
408,41,162866,1,8,0:0:0:0:
129,142,163080,1,8,1:0:0:0:
129,142,163294,1,8,0:0:0:0:
306,95,163509,5,8,0:0:0:0:
324,120,163937,1,8,0:0:0:0:
324,120,164366,1,8,0:0:0:0:
222,80,164580,1,8,0:0:0:0:
306,14,164794,1,2,0:0:0:0:
346,216,165009,1,2,0:0:0:0:
147,315,165223,5,4,0:0:0:0:
313,352,165437,2,0,L|370:342,2,52.5,2|2|2,0:0|0:0|0:0,0:0:0:0:
147,315,165866,1,0,1:0:0:0:
95,154,166080,5,4,0:0:0:0:
261,191,166294,2,0,L|318:181,2,52.5,2|2|2,0:0|0:0|0:0,0:0:0:0:
95,154,166723,1,0,1:0:0:0:
209,30,166937,5,4,0:0:0:0:
357,99,167152,2,0,P|386:92|407:78,1,52.5,2|0,1:2|0:0,0:0:0:0:
512,44,167366,2,0,P|489:27|478:5,1,52.5,6|0,0:0|0:0,0:0:0:0:
487,150,167580,2,0,L|483:210,1,52.5,2|0,1:2|0:0,0:0:0:0:
394,319,167794,5,6,0:2:0:0:
373,293,167902,1,0,0:0:0:0:
373,263,168009,1,2,1:2:0:0:
496,319,168223,5,2,1:2:0:0:
496,349,168437,1,2,0:0:0:0:
475,375,168652,1,0,1:0:0:0:
320,188,168866,5,8,0:0:0:0:
286,275,169080,1,0,1:0:0:0:
320,188,169294,1,8,0:0:0:0:
320,188,169509,1,8,1:2:0:0:
460,120,169723,6,0,L|450:175,2,52.5,2|2|2,0:0|0:0|0:0,0:0:0:0:
236,55,170152,1,2,0:0:0:0:
320,188,170366,6,0,P|319:218|310:245,1,52.5,4|0,0:0|0:0,0:0:0:0:
246,105,170580,2,0,P|237:78|237:42,1,52.5,0|0,1:0|0:0,0:0:0:0:
119,234,170794,2,0,P|173:233|216:200,1,105,8|0,1:0|0:0,0:0:0:0:
254,134,171116,1,0,0:0:0:0:
246,105,171223,1,0,1:0:0:0:
41,63,171437,5,0,0:0:0:0:
75,77,171544,1,0,0:0:0:0:
70,43,171652,1,8,1:0:0:0:
11,200,171866,1,2,0:0:0:0:
199,257,172080,5,4,0:0:0:0:
42,298,172294,2,0,L|95:315,2,52.5,2|2|2,0:0|0:0|0:0,0:0:0:0:
199,257,172723,1,0,1:0:0:0:
293,123,172937,5,4,0:0:0:0:
146,165,173152,2,0,L|199:182,2,52.5,2|2|2,0:0|0:0|0:0,0:0:0:0:
293,123,173580,1,0,1:0:0:0:
242,333,173794,5,6,0:0:0:0:
150,242,174009,2,0,P|177:256|206:255,1,52.5,2|0,1:2|0:0,0:0:0:0:
307,200,174223,2,0,P|334:186|363:187,1,52.5,6|0,0:0|0:0,0:0:0:0:
463,279,174437,2,0,L|454:338,1,52.5,2|0,1:2|0:0,0:0:0:0:
359,368,174652,5,2,1:2:0:0:
354,328,174759,1,0,0:0:0:0:
349,287,174866,1,6,0:2:0:0:
349,287,175080,1,4,0:0:0:0:
466,100,175294,5,2,0:0:0:0:
461,140,175401,1,2,0:0:0:0:
456,181,175508,1,0,1:0:0:0:
267,325,175723,5,8,0:0:0:0:
220,242,175937,1,0,1:0:0:0:
267,325,176152,1,8,0:0:0:0:
267,325,176366,1,8,1:2:0:0:
392,355,176580,6,0,L|451:341,2,52.5,2|2|2,0:0|0:0|0:0,0:0:0:0:
280,188,177009,1,8,1:0:0:0:
151,275,177223,6,0,P|98:280|48:252,1,105,0|0,1:0|0:0,0:0:0:0:
32,162,177544,1,0,0:0:0:0:
49,132,177652,1,8,1:0:0:0:
220,47,177866,5,0,0:0:0:0:
248,77,177973,1,0,0:0:0:0:
208,88,178080,1,4,0:0:0:0:
370,43,178294,1,0,1:0:0:0:
331,204,178509,2,0,P|324:230|326:258,1,52.5,8|2,1:0|0:0,0:0:0:0:
392,335,178723,1,2,0:0:0:0:
397,343,178830,1,2,0:0:0:0:
403,350,178937,5,4,0:0:0:0:
228,306,179152,2,0,L|175:317,2,52.5,2|2|2,0:0|0:0|0:0,0:0:0:0:
403,350,179580,1,0,1:0:0:0:
331,204,179794,5,4,0:0:0:0:
156,160,180009,2,0,L|103:171,2,52.5,2|2|2,0:0|0:0|0:0,0:0:0:0:
331,204,180437,1,0,1:0:0:0:
466,86,180652,5,6,0:0:0:0:
289,50,180866,2,0,P|289:22|301:-7,1,52.5,2|0,1:2|0:0,0:0:0:0:
376,67,181080,2,0,P|384:91|384:117,1,52.5,6|0,0:0|0:0,0:0:0:0:
239,141,181294,2,0,P|210:140|187:124,1,52.5,2|0,1:2|0:0,0:0:0:0:
331,204,181509,5,6,0:0:0:0:
370,210,181616,1,0,0:0:0:0:
411,218,181723,1,2,1:2:0:0:
242,294,181937,5,0,1:0:0:0:
203,300,182152,1,2,0:0:0:0:
162,308,182366,1,0,1:0:0:0:
310,130,182580,5,8,0:0:0:0:
218,108,182794,1,0,1:0:0:0:
310,130,183009,1,8,0:0:0:0:
310,130,183223,1,8,0:0:0:0:
387,300,183437,6,0,L|380:354,2,52.5,2|2|2,0:0|0:0|0:0,0:0:0:0:
246,200,183866,1,8,1:0:0:0:
123,291,184080,6,0,P|154:292|174:283,1,52.5,4|0,0:0|0:0,0:0:0:0:
297,209,184294,2,0,P|272:199|246:201,1,52.5,0|0,1:0|0:0,0:0:0:0:
161,79,184509,2,0,P|139:127|144:177,1,105,8|0,1:0|0:0,0:0:0:0:
173,283,184830,1,0,0:0:0:0:
190,301,184937,1,0,1:0:0:0:
301,173,185152,5,0,0:0:0:0:
331,195,185259,1,0,0:0:0:0:
297,209,185366,1,4,0:0:0:0:
144,177,185580,1,0,1:0:0:0:
29,357,185794,5,4,0:0:0:0:
190,301,186009,2,0,P|186:267|176:246,2,52.5,2|2|2,0:0|0:0|0:0,0:0:0:0:
29,357,186437,1,0,1:0:0:0:
60,185,186652,5,4,0:0:0:0:
221,129,186867,2,0,P|217:95|207:74,2,52.5,2|2|2,0:0|0:0|0:0,0:0:0:0:
60,185,187295,1,0,1:0:0:0:
86,24,187509,5,6,0:0:0:0:
209,78,187723,2,0,L|264:68,1,52.5,2|0,1:2|0:0,0:0:0:0:
400,22,187937,2,0,L|346:10,1,52.5,6|0,0:0|0:0,0:0:0:0:
146,166,188152,2,0,P|154:198|171:220,1,52.5,2|0,1:2|0:0,0:0:0:0:
322,202,188366,5,2,1:2:0:0:
290,180,188473,1,0,0:0:0:0:
247,183,188580,1,6,0:0:0:0:
247,183,188794,1,4,0:0:0:0:
306,296,189009,5,2,0:0:0:0:
349,299,189116,1,2,0:0:0:0:
381,277,189223,1,0,1:0:0:0:
423,90,189437,5,8,0:0:0:0:
462,186,189652,1,0,1:0:0:0:
423,90,189866,1,8,0:0:0:0:
423,90,190080,1,8,1:2:0:0:
491,10,190294,5,0,1:0:0:0:
491,10,190402,1,0,1:0:0:0:
491,10,190509,1,8,1:0:0:0:
320,65,190723,5,0,1:0:0:0:
462,186,190937,5,4,0:0:0:0:
462,186,191366,1,0,1:0:0:0:
462,186,191794,1,0,1:0:0:0:
462,186,192223,2,0,L|500:179,1,31.5,2|2,1:2|0:0,0:0:0:0:
418,268,192652,6,0,L|308:255,2,105,0|2|0,1:0|0:0|1:0,0:0:0:0:
256,171,193294,1,0,0:0:0:0:
185,362,193509,1,0,1:0:0:0:
136,294,193723,1,2,0:0:0:0:
136,294,193830,1,2,0:0:0:0:
136,294,193937,1,0,1:0:0:0:
340,350,194152,1,2,0:0:0:0:
176,215,194366,6,0,P|161:164|182:117,1,105,0|0,1:0|0:0,0:0:0:0:
313,53,194794,1,0,1:0:0:0:
313,53,195223,1,0,1:0:0:0:
313,53,195544,1,2,0:0:0:0:
313,53,195652,1,0,1:0:0:0:
379,198,195866,1,2,0:0:0:0:
293,143,196080,5,0,1:0:0:0:
293,143,196294,1,2,0:0:0:0:
293,143,196509,1,0,1:0:0:0:
476,198,196723,1,0,0:0:0:0:
390,254,196937,5,0,1:0:0:0:
390,254,197152,1,2,0:0:0:0:
390,254,197366,1,0,1:0:0:0:
228,66,197580,1,0,0:0:0:0:
327,47,197794,5,0,1:0:0:0:
177,186,198009,1,2,0:0:0:0:
177,186,198116,1,2,0:0:0:0:
177,186,198223,1,0,1:0:0:0:
228,66,198437,1,2,0:0:0:0:
59,142,198652,5,0,1:0:0:0:
177,186,198866,1,2,0:0:0:0:
102,29,199080,1,0,1:0:0:0:
133,287,199294,1,2,0:0:0:0:
0,384,199509,6,0,P|44:355|102:361,1,105,0|0,1:0|0:0,0:0:0:0:
237,297,199937,2,0,L|127:286,1,105,0|0,1:0|0:0,0:0:0:0:
13,218,200366,1,0,1:0:0:0:
203,150,200580,1,2,0:0:0:0:
203,150,200687,1,2,0:0:0:0:
203,150,200794,1,0,1:0:0:0:
283,194,201009,1,2,0:0:0:0:
371,51,201223,6,0,L|359:0,3,52.5,0|2|2|2,1:0|0:0|0:0|0:0,0:0:0:0:
453,77,201652,2,0,P|394:41|303:45,1,157.5,0|0,1:0|0:0,0:0:0:0:
362,133,202080,5,4,0:0:0:0:
466,250,202294,1,0,1:0:0:0:
272,362,202509,2,0,P|286:300|323:272,1,105,0|0,1:0|0:0,0:0:0:0:
468,354,202937,5,0,1:0:0:0:
468,354,203152,1,2,0:0:0:0:
468,354,203366,1,0,1:0:0:0:
281,197,203580,1,2,0:0:0:0:
362,133,203794,5,0,1:0:0:0:
362,133,204009,1,2,0:0:0:0:
362,133,204223,1,0,1:0:0:0:
316,274,204437,1,2,0:0:0:0:
177,212,204652,6,0,L|284:196,2,105,0|2|0,1:0|0:0|1:0,0:0:0:0:
280,196,205294,1,2,0:0:0:0:
177,212,205509,2,0,L|284:196,1,105,0|2,1:0|0:0,0:0:0:0:
73,226,205937,1,2,1:2:0:0:
191,38,206366,6,0,P|201:90|183:138,2,105,0|2|0,1:0|0:0|1:0,0:0:0:0:
281,166,207009,1,0,0:0:0:0:
116,215,207223,1,0,1:0:0:0:
195,278,207437,1,2,0:0:0:0:
195,278,207544,1,2,0:0:0:0:
195,278,207652,1,0,1:0:0:0:
32,248,207866,1,2,0:0:0:0:
172,358,208080,6,0,P|228:358|269:324,1,105,0|0,1:0|0:0,0:0:0:0:
359,242,208509,1,0,1:0:0:0:
359,242,208937,1,0,1:0:0:0:
359,242,209259,1,2,0:0:0:0:
359,242,209366,1,0,1:0:0:0:
261,207,209580,1,2,0:0:0:0:
397,368,209794,5,0,1:0:0:0:
397,368,210009,1,2,0:0:0:0:
397,368,210223,1,0,1:0:0:0:
333,141,210437,1,2,0:0:0:0:
482,228,210652,5,0,1:0:0:0:
482,228,210866,1,2,0:0:0:0:
482,228,211080,1,0,1:0:0:0:
278,306,211294,1,2,0:0:0:0:
504,359,211509,5,0,1:0:0:0:
382,271,211723,1,2,0:0:0:0:
382,271,211830,1,2,0:0:0:0:
382,271,211937,1,0,1:0:0:0:
428,123,212152,1,2,0:0:0:0:
238,216,212366,6,0,P|280:186|332:184,2,105,0|2|0,1:0|0:0|1:0,0:0:0:0:
428,123,213009,1,2,0:0:0:0:
308,58,213223,6,0,L|202:70,1,105,0|0,1:0|0:0,0:0:0:0:
13,120,213652,2,0,P|58:145|110:142,1,105,0|0,1:0|0:0,0:0:0:0:
84,50,214080,1,0,1:0:0:0:
137,241,214294,1,2,0:0:0:0:
137,241,214402,1,2,0:0:0:0:
137,241,214509,1,0,1:0:0:0:
223,184,214723,1,2,0:0:0:0:
325,296,214937,6,0,L|380:308,3,52.5,0|2|2|2,1:0|0:0|0:0|0:0,0:0:0:0:
457,342,215366,2,0,P|380:330|311:376,1,157.5,0|0,1:0|0:0,0:0:0:0:
168,233,215794,5,6,0:0:0:0:
325,296,216009,1,0,1:0:0:0:
241,125,216223,2,0,L|256:233,1,105,0|0,1:0|0:0,0:0:0:0:
168,342,216652,5,0,1:0:0:0:
168,342,216866,1,2,0:0:0:0:
168,342,217080,1,0,1:0:0:0:
351,206,217294,1,2,0:0:0:0:
429,264,217509,5,0,1:0:0:0:
429,264,217723,1,2,0:0:0:0:
429,264,217937,1,0,1:0:0:0:
159,147,218152,1,2,0:0:0:0:
330,52,218366,5,0,1:0:0:0:
413,129,218580,2,0,L|469:123,1,52.5,2|2,0:0|0:0,0:0:0:0:
330,52,218794,2,0,P|282:25|228:30,1,105,0|0,1:0|0:0,0:0:0:0:
92,135,219223,1,2,1:2:0:0:
117,139,219330,1,2,0:0:0:0:
143,137,219437,1,2,0:0:0:0:
167,127,219544,1,2,0:0:0:0:
190,111,219652,6,0,B|202:49|146:8|146:8|136:51,1,157.5,2|2,0:2|0:0,0:0:0:0:
69,227,220080,6,2,L|83:316,1,84
178,304,221152,2,0,L|171:357,2,52.5,2|2|2,0:0|0:0|0:0,0:0:0:0:
50,337,221580,1,8,0:0:0:0:
240,226,221794,6,0,P|294:223|339:247,1,105,0|0,1:0|0:0,0:0:0:0:
411,343,222223,1,0,1:0:0:0:
411,343,222652,1,0,1:0:0:0:
411,343,222973,1,2,0:0:0:0:
411,343,223080,1,0,1:0:0:0:
271,314,223294,1,2,0:0:0:0:
500,227,223509,6,2,L|414:213,1,84
319,139,224580,1,8,0:0:0:0:
319,139,224794,1,8,0:0:0:0:
433,84,225009,1,2,0:0:0:0:
255,65,225223,6,0,P|221:108|218:159,1,105,0|0,1:0|0:0,0:0:0:0:
356,230,225652,2,0,P|351:178|318:138,1,105,8|0,1:0|0:0,0:0:0:0:
166,232,226080,5,0,1:0:0:0:
166,232,226187,1,2,0:0:0:0:
166,232,226294,1,2,0:0:0:0:
282,288,226509,1,8,1:0:0:0:
130,81,226723,1,2,0:0:0:0:
12,182,226937,6,2,L|96:170,1,84
188,224,228009,2,0,L|243:234,2,52.5,10|10|10,0:0|0:0|0:0,0:0:0:0:
225,106,228437,1,8,0:0:0:0:
41,48,228652,5,0,1:0:0:0:
67,50,228759,1,2,0:0:0:0:
92,45,228866,1,2,0:0:0:0:
115,33,228973,1,2,0:0:0:0:
134,15,229080,1,0,1:0:0:0:
225,106,229294,1,0,0:0:0:0:
225,106,229402,1,0,0:0:0:0:
225,106,229509,5,0,0:0:0:0:
75,164,229723,1,8,0:0:0:0:
138,319,229938,1,8,1:0:0:0:
288,261,230152,1,8,0:0:0:0:
384,374,230366,6,2,L|399:283,1,84
192,199,231437,1,10,0:0:0:0:
192,199,231652,1,8,1:2:0:0:
248,318,231866,1,2,0:0:0:0:
336,221,232080,1,10,1:2:0:0:
256,192,232294,12,0,233580,0:0:0:0:
443,60,233794,6,0,L|434:165,1,105,0|0,1:0|0:0,0:0:0:0:
318,154,234223,2,0,L|332:259,1,105,0|0,1:0|0:0,0:0:0:0:
443,60,234652,2,0,L|434:165,1,105,0|0,1:0|0:0,0:0:0:0:
331,258,235080,1,0,1:0:0:0:
318,154,235294,1,12,0:0:0:0:
435,273,235509,6,0,L|328:257,1,105,0|0,1:0|0:0,0:0:0:0:
253,349,235937,2,0,L|146:365,1,105,0|0,1:0|0:0,0:0:0:0:
435,273,236366,2,0,L|328:257,1,105,0|0,1:0|0:0,0:0:0:0:
149,364,236794,1,0,1:0:0:0:
253,349,237009,1,12,0:0:0:0:
132,260,237223,6,0,L|149:367,1,105,0|0,1:0|0:0,0:0:0:0:
239,238,237652,2,0,L|256:135,1,105,0|0,1:0|0:0,0:0:0:0:
132,260,238080,2,0,L|149:367,1,105,0|0,1:0|0:0,0:0:0:0:
256,135,238509,1,0,1:0:0:0:
239,238,238723,1,12,0:0:0:0:
360,148,238937,6,0,L|250:134,1,105,0|0,1:0|0:0,0:0:0:0:
275,18,239366,2,0,L|165:32,1,105,0|0,1:0|0:0,0:0:0:0:
360,148,239794,2,0,L|250:134,1,105,0|0,1:0|0:0,0:0:0:0:
170,31,240223,1,0,1:0:0:0:
275,18,240437,1,12,0:0:0:0:
121,123,240652,6,0,L|177:18,1,105,0|0,1:0|0:0,0:0:0:0:
255,134,241080,2,0,L|199:239,1,105,0|0,1:0|0:0,0:0:0:0:
121,123,241509,2,0,L|177:18,1,105,0|0,1:0|0:0,0:0:0:0:
205,226,241937,1,0,1:0:0:0:
254,133,242152,1,12,0:0:0:0:
316,320,242366,1,0,1:0:0:0:
316,320,242794,5,0,1:0:0:0:
413,300,243009,1,2,0:0:0:0:
316,320,243223,1,0,1:0:0:0:
449,319,243437,1,2,0:0:0:0:
316,320,243652,1,0,1:0:0:0:
485,338,243866,1,2,0:0:0:0:
277,232,244080,6,0,P|218:231|178:253,2,105,4|0|0,1:2|0:0|0:0,0:0:0:0:
178,252,244723,1,2,0:0:0:0:
277,232,244937,1,4,1:2:0:0:
178,252,245152,2,0,P|225:229|277:232,1,105
89,210,245580,1,10,0:0:0:0:
324,353,245794,5,0,1:0:0:0:
324,353,246223,1,0,1:0:0:0:
324,353,246652,1,0,1:0:0:0:
324,353,247080,2,2,L|370:345,1,42
487,253,247723,6,2,L|433:246,1,52.5
275,222,247937,1,14,1:2:0:0:
256,192,248044,12,0,256080,0:0:0:0:
