osu file format v14

[General]
AudioFilename: audio.mp3
AudioLeadIn: 0
PreviewTime: 68524
Countdown: 0
SampleSet: Soft
StackLeniency: 0.4
Mode: 0
LetterboxInBreaks: 0
WidescreenStoryboard: 0

[Editor]
Bookmarks: 83310,89417,111703,137631,151346
DistanceSpacing: 0.2
BeatDivisor: 8
GridSize: 8
TimelineZoom: 2.699999

[Metadata]
Title:Sanshi Suimei
TitleUnicode:山紫水明
Artist:Tanchiky
ArtistUnicode:Tanchiky
Creator:Lavi
Version:Haven
Source:
Tags:riparia records miyabi
BeatmapID:1901422
BeatmapSetID:911085

[Difficulty]
HPDrainRate:5
CircleSize:3.9
OverallDifficulty:9
ApproachRate:9.2
SliderMultiplier:2.4
SliderTickRate:1

[Events]
//Background and Video events
0,0,"bgwau.jpg",0,0
//Break Periods
//Storyboard Layer 0 (Background)
//Storyboard Layer 1 (Fail)
//Storyboard Layer 2 (Pass)
//Storyboard Layer 3 (Foreground)
//Storyboard Layer 4 (Overlay)
//Storyboard Sound Samples

[TimingPoints]
554,428.571428571429,4,2,1,90,1,0
554,-142.857142857143,4,2,1,90,0,0
26268,-333.333333333334,4,2,1,90,0,0
27982,-111.111111111111,4,2,1,90,0,0
41696,-100,4,2,1,90,0,0
43411,-111.111111111111,4,2,1,90,0,0
51982,-100,4,2,1,90,0,0
53268,-111.111111111111,4,2,1,90,0,0
54125,-83.3333333333333,4,2,1,90,0,0
55411,-90.9090909090909,4,2,1,90,0,0
56696,-166.666666666667,4,2,1,90,0,0
57339,-90.9090909090909,4,2,1,90,0,0
57554,-166.666666666667,4,2,1,90,0,0
58839,-90.909090909091,4,2,1,90,0,0
59696,-111.111111111111,4,2,1,90,0,0
59911,-90.909090909091,4,2,1,90,0,0
60125,-111.111111111111,4,2,1,90,0,0
62268,-83.3333333333333,4,2,1,90,0,0
65268,-200,4,2,1,90,0,0
65696,-83.3333333333333,4,2,1,90,0,0
68482,-200,4,2,1,90,0,0
69125,-76.9230769230769,4,2,1,100,0,0
72768,-100,4,2,1,100,0,0
79411,-76.9230769230769,4,2,1,100,0,0
79625,-83.3333333333333,4,2,1,100,0,0
94839,-83.3333333333333,4,2,1,90,0,0
95268,-83.3333333333333,4,2,1,70,0,0
95696,-83.3333333333333,4,2,1,50,0,0
96125,-83.3333333333333,4,2,1,30,0,0
96554,-125,4,2,1,90,0,0
110268,-41.6666666666667,4,2,1,90,0,0
110482,-83.3333333333333,4,2,1,90,0,0
111339,-41.6666666666667,4,2,1,90,0,0
111768,-83.3333333333333,4,2,1,90,0,0
113696,-41.6666666666667,4,2,1,90,0,0
113911,-83.3333333333333,4,2,1,90,0,0
114768,-41.6666666666667,4,2,1,90,0,0
115196,-83.3333333333333,4,2,1,90,0,0
117125,-41.6666666666667,4,2,1,90,0,0
117339,-83.3333333333333,4,2,1,90,0,0
118196,-41.6666666666667,4,2,1,90,0,0
118625,-83.3333333333333,4,2,1,90,0,0
120554,-41.6666666666667,4,2,1,90,0,0
120768,-83.3333333333333,4,2,1,90,0,0
121625,-41.6666666666667,4,2,1,90,0,0
122054,-83.3333333333333,4,2,1,90,0,0
123982,-50,4,2,1,90,0,0
125911,-142.857142857143,4,2,1,90,0,0
127411,-50,4,2,1,90,0,0
129125,-100,4,2,1,90,0,0
130839,-50,4,2,1,90,0,0
131054,-200,4,2,1,90,0,0
131696,-50,4,2,1,90,0,0
131911,-200,4,2,1,90,0,0
132554,-50,4,2,1,90,0,0
132768,-200,4,2,1,90,0,0
133411,-50,4,2,1,90,0,0
133625,-200,4,2,1,90,0,0
134268,-50,4,2,1,90,0,0
134482,-200,4,2,1,90,0,0
134696,-50,4,2,1,90,0,0
134911,-200,4,2,1,90,0,0
135125,-50,4,2,1,90,0,0
135339,-200,4,2,1,90,0,0
135554,-50,4,2,1,90,0,0
137696,-200,4,2,1,90,0,0
138554,-66.6666666666667,4,2,1,90,0,0
138768,-40,4,2,1,90,0,0
138982,-100,4,2,1,90,0,0
139196,-40,4,2,1,90,0,0
139411,-66.6666666666667,4,2,1,90,0,0
139839,-200,4,2,1,90,0,0
140268,-50,4,2,1,90,0,0
140696,-66.6666666666667,4,2,1,90,0,0
141125,-200,4,2,1,90,0,0
141982,-66.6666666666667,4,2,1,90,0,0
142196,-50,4,2,1,90,0,0
142518,-100,4,2,1,90,0,0
142839,-66.6666666666667,4,2,1,90,0,0
143054,-50,4,2,1,90,0,0
143911,-100,4,2,1,90,0,0
144125,-200,4,2,1,90,0,0
144339,-40,4,2,1,90,0,0
144554,-200,4,2,1,90,0,0
145411,-100,4,2,1,90,0,0
145625,-40,4,2,1,90,0,0
145839,-100,4,2,1,90,0,0
146054,-40,4,2,1,90,0,0
146268,-66.6666666666667,4,2,1,90,0,0
146589,-200,4,2,1,90,0,0
146911,-66.6666666666667,4,2,1,90,0,0
147125,-50,4,2,1,90,0,0
147554,-66.6666666666667,4,2,1,90,0,0
147982,-200,4,2,1,90,0,0
148839,-66.6666666666667,4,2,1,90,0,0
149268,-100,4,2,1,90,0,0
149696,-500,4,2,1,90,0,0
150982,-166.666666666667,4,2,1,90,0,0
151411,-66.6666666666667,4,2,1,90,0,0
152482,-100,4,2,1,90,0,0
152696,-40,4,2,1,90,0,0
152911,-100,4,2,1,90,0,0
153339,-66.6666666666667,4,2,1,90,0,0
153554,-100,4,2,1,90,0,0
153982,-66.6666666666667,4,2,1,90,0,0
154411,-50,4,2,1,90,0,0
154625,-100,4,2,1,90,0,0
154839,-66.6666666666667,4,2,1,90,0,0
155268,-40,4,2,1,90,0,0
155696,-66.6666666666667,4,2,1,90,0,0
155910,-100,4,2,1,90,0,0
156124,-50,4,2,1,90,0,0
156339,-100,4,2,1,90,0,0
156554,-50,4,2,1,90,0,0
156982,-66.6666666666667,4,2,1,90,0,0
157304,-500,4,2,1,90,0,0
157625,-66.6666666666667,4,2,1,90,0,0
157839,-100,4,2,1,90,0,0
158054,-50,4,2,1,90,0,0
158268,-66.6666666666667,4,2,1,90,0,0
159339,-100,4,2,1,90,0,0
159554,-40,4,2,1,90,0,0
159768,-100,4,2,1,90,0,0
160196,-66.6666666666667,4,2,1,90,0,0
162125,-40,4,2,1,90,0,0
162554,-66.6666666666667,4,2,1,90,0,0
162768,-200,4,2,1,90,0,0
162982,-50,4,2,1,90,0,0
163518,-100,4,2,1,90,0,0
175411,-76.9230769230769,4,2,1,90,0,0
175625,-83.3333333333333,4,2,1,90,0,0
190839,-100,4,2,1,90,0,0
191268,-100,4,2,1,70,0,0
191696,-100,4,2,1,50,0,0
192125,-100,4,2,1,30,0,0
192554,-100,4,2,1,90,0,0
237125,-111.111111111111,4,2,1,90,0,0

[Colours]
Combo1 : 26,63,1
Combo2 : 0,128,192
Combo3 : 0,128,64
Combo4 : 0,0,128

[HitObjects]
372,208,14268,5,8,1:0:0:0:
466,183,14482,2,0,L|409:193,1,41.9999987182618,0|0,0:0|0:0,0:0:0:0:
276,200,14696,1,10,0:1:0:0:
372,208,14911,2,0,L|315:197,1,41.9999987182618,0|0,0:0|0:0,0:0:0:0:
182,225,15125,1,10,0:1:0:0:
276,200,15339,2,0,L|219:210,1,41.9999987182618,0|0,0:0|0:0,0:0:0:0:
86,217,15554,2,0,P|110:225|138:226,1,41.9999987182618,10|0,1:1|0:0,0:0:0:0:
81,130,15768,2,0,P|60:132|40:140,1,41.9999987182618,0|0,0:1|0:0,0:0:0:0:
0,230,15982,5,8,1:0:0:0:
25,324,16196,2,0,L|15:267,1,41.9999987182618,0|0,0:0|0:0,0:0:0:0:
25,136,16411,1,10,0:1:0:0:
0,230,16625,2,0,L|10:173,1,41.9999987182618,0|0,0:0|0:0,0:0:0:0:
0,42,16839,2,0,P|1:71|14:98,1,41.9999987182618,10|0,0:1|0:0,0:0:0:0:
137,11,17054,2,0,P|117:2|97:0,1,41.9999987182618,10|8,0:1|0:1,0:0:0:0:
104,122,17268,2,0,P|101:101|94:81,1,41.9999987182618,0|0,1:0|0:0,0:0:0:0:
228,89,17482,2,0,P|208:81|187:79,1,41.9999987182618,2|0,0:0|0:0,0:0:0:0:
241,180,17696,5,8,1:0:0:0:
335,155,17910,2,0,L|278:165,1,41.9999987182618,0|0,0:0|0:0,0:0:0:0:
194,259,18125,1,10,0:1:0:0:
241,180,18339,2,0,L|278:224,1,41.9999987182618,0|0,0:0|0:0,0:0:0:0:
392,250,18554,1,10,0:1:0:0:
321,200,18768,2,0,L|307:240,1,41.9999987182618,0|0,0:0|0:0,0:0:0:0:
258,352,18982,2,0,P|274:339|294:332,1,41.9999987182618,10|0,1:1|0:0,0:0:0:0:
392,250,19196,2,0,P|379:267|374:288,1,41.9999987182618,0|0,0:1|0:0,0:0:0:0:
449,355,19411,5,8,1:0:0:0:
438,205,19625,2,0,L|441:269,1,41.9999987182618,0|0,0:0|0:0,0:0:0:0:
449,355,19839,1,10,0:1:0:0:
439,163,20054,2,0,L|436:227,1,41.9999987182618,0|0,0:0|0:0,0:0:0:0:
428,313,20268,1,10,0:1:0:0:
437,121,20482,2,0,L|440:185,1,41.9999987182618,10|8,0:1|0:1,0:0:0:0:
448,271,20696,2,0,P|462:249|486:227,1,41.9999987182618,0|0,1:0|0:0,0:0:0:0:
398,147,20911,2,0,P|419:152|438:162,1,41.9999987182618,2|0,0:0|0:0,0:0:0:0:
341,234,21125,5,8,1:0:0:0:
278,136,21339,2,0,L|291:205,1,41.9999987182618,0|0,0:0|0:0,0:0:0:0:
160,146,21554,1,10,0:1:0:0:
144,51,21768,2,0,L|131:120,1,41.9999987182618,0|0,0:0|0:0,0:0:0:0:
262,61,21982,2,0,L|154:61,1,83.9999974365235,10|0,0:1|0:0,0:0:0:0:
377,62,22304,1,0,0:0:0:0:
283,37,22411,2,0,P|277:58|277:79,1,41.9999987182618,10|0,1:1|0:0,0:0:0:0:
144,51,22625,2,0,P|149:71|150:92,1,41.9999987182618,0|0,0:1|0:0,0:0:0:0:
219,173,22839,6,0,L|223:231,1,41.9999987182618,8|0,1:0|0:0,0:0:0:0:
146,293,23054,2,2,L|139:357,2,41.9999987182618,2|0|10,0:0|0:0|0:1,0:0:0:0:
50,197,23482,1,0,0:0:0:0:
152,180,23589,1,0,0:0:0:0:
56,156,23696,2,0,L|158:160,1,83.9999974365235,10|10,0:1|0:1,0:0:0:0:
228,220,24018,1,8,0:1:0:0:
141,349,24125,2,0,L|147:238,1,83.9999974365235,0|2,1:0|0:0,0:0:0:0:
248,254,24446,1,0,0:0:0:0:
341,293,24554,6,0,P|371:283|409:286,1,41.9999987182618,8|0,1:0|0:0,0:0:0:0:
474,309,24768,1,0,0:0:0:0:
474,309,24875,1,0,0:0:0:0:
370,253,24982,2,0,P|394:233|431:223,1,41.9999987182618,10|0,0:1|0:0,0:0:0:0:
500,222,25196,1,0,0:0:0:0:
500,222,25303,1,0,0:0:0:0:
401,207,25411,2,0,L|307:197,1,83.9999974365235,10|0,0:1|0:0,0:0:0:0:
221,111,25732,2,0,P|234:135|239:169,1,41.9999987182618,0|10,0:0|1:1,0:0:0:0:
135,197,25946,2,0,P|141:176|151:158,2,41.9999987182618,0|0|0,0:0|0:1|0:0,0:0:0:0:
186,288,26268,6,0,L|183:373,2,71.9999978027345,0|0|0,0:0|0:0|0:0,0:0:0:0:
48,373,27339,1,8,1:0:0:0:
46,349,27446,1,0,1:0:0:0:
40,298,27554,1,0,1:0:0:0:
50,383,27768,5,12,1:1:0:0:
31,222,27982,6,0,L|20:100,1,107.999996704102,8|0,0:1|0:0,0:0:0:0:
154,84,28304,1,0,0:0:0:0:
107,196,28411,2,0,L|112:304,1,107.999996704102,10|0,0:1|0:0,0:0:0:0:
188,61,28732,1,0,0:0:0:0:
141,173,28839,2,0,L|145:280,1,107.999996704102,8|0,0:1|0:0,0:0:0:0:
298,232,29161,1,0,0:0:0:0:
173,284,29268,2,0,P|202:297|236:298,1,53.9999983520508,8|0,0:1|0:0,0:0:0:0:
239,154,29482,2,0,P|268:141|302:140,1,53.9999983520508,10|0,0:1|0:0,0:0:0:0:
333,310,29696,6,0,L|342:177,1,107.999996704102,8|0,0:1|0:0,0:0:0:0:
496,273,30018,1,0,0:0:0:0:
363,270,30125,2,0,L|359:217,1,53.9999983520508,8|0,0:1|0:0,0:0:0:0:
474,337,30339,2,0,L|479:284,1,53.9999983520508,10|0,0:1|0:0,0:0:0:0:
453,171,30554,1,8,0:1:0:0:
431,13,30768,5,10,0:1:0:0:
440,92,30875,1,8,0:1:0:0:
453,171,30982,1,8,0:1:0:0:
431,13,31196,1,2,0:0:0:0:
258,111,31411,5,8,0:1:0:0:
339,39,31625,2,0,L|277:25,1,53.9999983520508,2|0,0:0|0:0,0:0:0:0:
159,135,31839,1,8,0:1:0:0:
42,90,32054,2,0,L|104:76,1,53.9999983520508,2|0,0:0|0:0,0:0:0:0:
222,186,32268,1,8,0:1:0:0:
310,122,32482,2,0,L|248:108,1,53.9999983520508,0|0,0:0|0:0,0:0:0:0:
146,218,32696,2,0,L|146:283,1,53.9999983520508,8|0,0:1|0:0,0:0:0:0:
257,110,32911,2,0,L|257:175,1,53.9999983520508,10|0,1:1|0:0,0:0:0:0:
309,304,33125,5,8,0:1:0:0:
390,232,33339,2,0,L|328:218,1,53.9999983520508,2|0,0:0|0:0,0:0:0:0:
210,328,33553,1,8,0:1:0:0:
93,283,33768,2,0,L|155:269,1,53.9999983520508,2|0,0:0|0:0,0:0:0:0:
273,379,33982,5,8,0:1:0:0:
353,373,34196,1,10,0:1:0:0:
365,366,34303,1,0,0:0:0:0:
440,361,34411,5,2,0:0:0:0:
417,330,34518,1,2,0:0:0:0:
399,253,34625,1,2,0:0:0:0:
440,168,34732,1,2,0:0:0:0:
511,111,34839,6,0,L|403:112,1,107.999996704102,8|0,0:1|0:0,0:0:0:0:
276,40,35161,1,0,0:0:0:0:
369,81,35268,2,0,L|477:83,1,107.999996704102,10|0,0:1|0:0,0:0:0:0:
255,14,35589,1,0,0:0:0:0:
348,55,35696,2,0,L|433:56,1,53.9999983520508,8|0,0:1|0:0,0:0:0:0:
169,110,35911,2,0,P|159:73|162:48,1,53.9999983520508,0|0,0:0|0:0,0:0:0:0:
283,183,36125,2,0,P|293:146|290:121,1,53.9999983520508,8|0,0:1|0:0,0:0:0:0:
169,256,36339,2,0,P|159:219|162:194,1,53.9999983520508,10|0,0:1|0:0,0:0:0:0:
277,277,36554,5,8,0:1:0:0:
288,285,36661,1,0,0:0:0:0:
306,308,36768,1,0,0:0:0:0:
244,268,36875,1,0,0:0:0:0:
159,306,36982,1,8,0:1:0:0:
119,112,37196,2,0,L|128:187,1,53.9999983520508,10|0,0:1|0:0,0:0:0:0:
135,6,37411,2,0,L|116:136,1,107.999996704102,8|10,0:1|0:1,0:0:0:0:
89,295,37732,1,8,0:1:0:0:
0,249,37839,2,0,P|18:229|41:215,1,53.9999983520508,8|0,0:1|0:0,0:0:0:0:
153,226,38053,2,0,P|172:244|186:267,1,53.9999983520508,2|0,0:0|0:0,0:0:0:0:
239,355,38268,5,8,0:1:0:0:
224,364,38375,1,0,0:0:0:0:
234,317,38482,1,2,0:0:0:0:
306,283,38589,1,0,0:0:0:0:
391,305,38696,2,0,L|521:315,1,107.999996704102,8|2,0:1|0:0,0:0:0:0:
491,157,39018,1,0,0:0:0:0:
495,273,39125,2,0,L|387:281,1,107.999996704102,8|0,0:1|0:0,0:0:0:0:
306,283,39446,1,0,0:0:0:0:
387,244,39553,2,0,L|482:252,1,53.9999983520508,10|0,0:1|0:0,0:0:0:0:
252,287,39768,2,0,L|305:282,1,53.9999983520508,10|0,1:1|0:0,0:0:0:0:
263,112,39982,6,0,P|255:137|256:171,1,53.9999983520508,8|0,0:1|0:0,0:0:0:0:
138,178,40196,2,0,P|143:203|161:232,1,53.9999983520508,2|0,0:0|0:0,0:0:0:0:
361,164,40411,2,0,L|254:164,1,107.999996704102,8|2,0:1|0:0,0:0:0:0:
132,78,40732,1,0,0:0:0:0:
219,158,40839,2,0,P|222:118|211:77,1,53.9999983520508,8|0,0:1|0:0,0:0:0:0:
130,24,41054,2,0,P|128:51|132:78,1,53.9999983520508,10|0,0:1|0:0,0:0:0:0:
200,204,41268,6,0,P|182:199|160:199,1,26.9999991760254,2|0,0:0|0:0,0:0:0:0:
131,281,41375,2,0,P|144:278|157:277,2,26.9999991760254,2|0|2,0:0|0:0|0:0,0:0:0:0:
192,362,41589,2,0,P|196:349|202:337,1,26.9999991760254,2|0,0:0|0:0,0:0:0:0:
86,361,41696,5,8,1:0:0:0:
86,361,41911,2,0,P|57:350|28:346,1,60,2|0,1:0|0:0,0:0:0:0:
224,277,42125,2,0,P|194:281|166:291,1,60,8|0,1:0|0:0,0:0:0:0:
57,256,42339,2,0,P|29:246|0:242,1,60,2|0,1:0|0:0,0:0:0:0:
203,185,42554,2,0,P|173:189|145:199,1,60,8|0,1:0|0:0,0:0:0:0:
207,334,42768,2,2,P|218:306|223:276,1,60,0|0,0:0|0:0,0:0:0:0:
328,127,42982,2,0,P|316:154|311:184,1,60,8|0,1:0|0:0,0:0:0:0:
443,300,43196,2,0,P|438:270|427:243,1,60,2|0,1:0|0:0,0:0:0:0:
401,54,43411,5,8,1:0:0:0:
475,165,43625,5,10,0:1:0:0:
343,69,43839,1,8,0:1:0:0:
466,6,44054,5,10,0:1:0:0:
401,54,44161,1,8,0:1:0:0:
334,102,44268,1,8,0:1:0:0:
506,78,44482,5,2,0:1:0:0:
289,67,44696,2,0,P|316:71|343:69,1,53.9999983520508,10|0,0:1|0:0,0:0:0:0:
489,188,44911,2,0,P|473:165|463:140,1,53.9999983520508,10|0,0:1|0:0,0:0:0:0:
505,310,45125,5,8,0:1:0:0:
495,303,45232,1,0,0:0:0:0:
462,290,45339,1,2,0:0:0:0:
392,300,45446,1,0,0:0:0:0:
327,361,45554,2,0,L|203:362,1,107.999996704102,8|2,0:1|0:0,0:0:0:0:
276,195,45875,1,0,0:0:0:0:
219,332,45982,2,0,L|295:332,1,53.9999983520508,8|0,0:1|0:0,0:0:0:0:
258,189,46196,1,0,0:0:0:0:
238,185,46304,1,0,0:0:0:0:
154,198,46411,2,0,P|160:225|174:255,1,53.9999983520508,8|0,0:1|0:0,0:0:0:0:
227,54,46625,2,0,P|218:80|215:113,1,53.9999983520508,10|0,1:1|0:0,0:0:0:0:
22,106,46839,6,0,L|140:116,1,107.999996704102,8|2,0:1|0:0,0:0:0:0:
278,102,47161,1,0,0:0:0:0:
281,197,47268,2,0,P|298:174|303:131,1,53.9999983520508,8|0,0:1|0:0,0:0:0:0:
226,9,47482,2,0,P|232:34|249:56,1,53.9999983520508,2|0,1:0|0:0,0:0:0:0:
400,31,47696,1,8,0:1:0:0:
436,9,47911,5,10,1:1:0:0:
427,31,48018,1,0,0:0:0:0:
411,112,48125,2,0,P|417:128|430:142,1,26.9999991760254,2|0,0:0|0:0,0:0:0:0:
497,147,48232,2,0,P|496:160|493:173,1,26.9999991760254,2|0,0:0|0:0,0:0:0:0:
401,166,48339,2,0,L|404:232,1,53.9999983520508,2|2,0:0|0:0,0:0:0:0:
311,367,48554,5,8,0:1:0:0:
318,354,48768,5,8,0:1:0:0:
347,278,48875,1,0,0:0:0:0:
403,219,48982,1,10,0:1:0:0:
342,368,49196,5,8,0:1:0:0:
312,292,49303,1,0,0:0:0:0:
256,233,49410,1,8,0:1:0:0:
171,368,49625,5,8,0:1:0:0:
200,292,49732,1,0,0:0:0:0:
256,233,49839,2,0,P|281:218|313:210,1,53.9999983520508,8|0,0:1|0:0,0:0:0:0:
171,368,50054,2,0,P|176:339|191:309,1,53.9999983520508,10|0,0:1|0:0,0:0:0:0:
28,218,50268,5,8,0:1:0:0:
182,185,50482,5,0,0:0:0:0:
104,203,50590,1,0,0:0:0:0:
28,218,50697,1,8,0:1:0:0:
197,153,50911,5,10,0:1:0:0:
17,101,51125,5,8,0:1:0:0:
170,133,51339,5,10,0:1:0:0:
93,116,51447,1,8,0:1:0:0:
17,101,51554,2,0,P|7:62|7:30,1,53.9999983520508,8|0,0:1|0:0,0:0:0:0:
183,8,51768,2,0,P|163:26|146:47,1,53.9999983520508,2|0,0:0|0:0,0:0:0:0:
364,118,51982,6,0,P|306:123|237:159,1,120,8|2,0:1|0:0,0:0:0:0:
338,227,52304,1,0,0:0:0:0:
412,107,52411,2,0,P|360:109|301:167,1,120,8|2,0:1|0:0,0:0:0:0:
446,217,52732,1,0,0:0:0:0:
458,84,52839,2,0,P|406:122|387:196,1,120,8|0,0:1|0:0,0:0:0:0:
512,175,53161,1,0,0:0:0:0:
481,94,53268,2,0,P|470:63|465:27,1,53.9999983520508,10|0,0:1|0:0,0:0:0:0:
300,0,53482,2,0,P|295:25|286:51,1,53.9999983520508,10|0,1:1|0:0,0:0:0:0:
194,207,53696,5,8,0:1:0:0:
225,168,53911,1,2,0:0:0:0:
90,152,54018,1,0,0:0:0:0:
198,78,54125,6,0,L|200:-1,1,71.9999978027344,8|0,0:1|0:0,0:0:0:0:
192,255,54339,2,0,L|194:176,1,71.9999978027344,2|0,0:0|0:0,0:0:0:0:
178,4,54554,2,0,L|176:75,1,71.9999978027344,8|0,0:1|0:0,0:0:0:0:
172,181,54768,2,0,L|170:252,1,71.9999978027344,10|0,0:1|0:0,0:0:0:0:
134,370,54982,5,10,0:1:0:0:
214,323,55089,1,2,0:1:0:0:
261,323,55196,1,2,0:1:0:0:
285,343,55304,1,2,0:1:0:0:
294,354,55411,5,12,0:1:0:0:
369,299,55625,2,0,P|389:341|387:379,1,66.0000020141602,0|0,0:0|0:0,0:0:0:0:
407,372,55839,2,0,B|420:227,1,132.00000402832,8|0,0:1|0:0,0:0:0:0:
366,119,56161,1,0,0:0:0:0:
364,150,56268,1,8,0:1:0:0:
187,75,56482,2,0,P|210:70|238:78,2,44.0000013427735,0|0|0,0:0|0:0|0:0,0:0:0:0:
205,142,56696,2,0,L|209:48,1,71.9999978027344,8|0,0:1|0:0,0:0:0:0:
209,36,57125,5,8,0:1:0:0:
107,219,57339,2,0,P|84:214|56:222,2,44.0000013427735,0|0|0,0:0|0:0|0:0,0:0:0:0:
82,287,57554,2,0,L|85:215,1,71.9999978027344,8|0,0:1|0:0,0:0:0:0:
61,59,57982,5,8,0:1:0:0:
153,140,58089,1,0,0:0:0:0:
224,112,58196,1,0,0:0:0:0:
226,58,58304,1,0,0:0:0:0:
175,184,58411,5,8,0:1:0:0:
380,167,58839,5,8,0:1:0:0:
439,232,59054,2,0,P|457:204|464:155,1,66.0000020141602,0|0,0:0|0:0,0:0:0:0:
485,140,59268,2,0,B|512:270,1,132.00000402832,8|0,0:1|0:0,0:0:0:0:
375,340,59589,1,0,0:0:0:0:
376,297,59696,1,8,0:1:0:0:
470,31,59911,2,0,P|493:26|521:34,2,44.0000013427735,0|0|0,0:0|0:0|0:0,0:0:0:0:
483,114,60125,2,0,L|495:29,1,53.9999983520508,8|0,0:1|0:0,0:0:0:0:
368,23,60339,2,0,L|375:76,1,53.9999983520508,0|0,0:0|0:0,0:0:0:0:
281,256,60554,5,8,0:1:0:0:
299,141,60661,1,0,0:0:0:0:
220,96,60768,1,0,0:0:0:0:
212,126,60875,1,0,0:0:0:0:
344,148,60982,5,8,0:1:0:0:
102,197,61196,5,0,0:0:0:0:
107,200,61268,1,0,0:0:0:0:
112,200,61339,1,0,0:0:0:0:
128,158,61411,5,8,0:1:0:0:
128,246,61625,1,8,0:1:0:0:
127,340,61839,1,8,0:1:0:0:
22,262,62054,5,8,0:1:0:0:
11,227,62161,1,0,0:0:0:0:
97,226,62268,5,10,1:1:0:0:
226,226,62482,1,0,0:0:0:0:
221,197,62589,1,0,0:0:0:0:
179,135,62696,2,0,L|193:293,1,143.999995605469,2|0,0:1|0:0,0:0:0:0:
327,172,63018,1,0,0:0:0:0:
309,20,63125,2,0,L|317:99,1,71.9999978027344,10|0,1:1|0:0,0:0:0:0:
426,154,63339,1,2,1:0:0:0:
429,147,63411,1,0,0:0:0:0:
431,140,63482,1,0,0:0:0:0:
398,134,63554,2,0,P|410:175|408:205,1,71.9999978027344,10|0,1:1|0:0,0:0:0:0:
512,256,63768,2,0,P|500:292|501:327,1,71.9999978027344,0|0,0:0|0:0,0:0:0:0:
333,321,63982,6,0,P|372:315|418:329,1,71.9999978027344,10|0,1:1|0:0,0:0:0:0:
284,185,64196,1,2,0:0:0:0:
284,198,64268,1,0,0:0:0:0:
287,209,64339,1,0,0:0:0:0:
316,246,64411,2,0,P|282:234|255:212,1,71.9999978027344,10|0,1:1|0:0,0:0:0:0:
222,46,64625,2,0,P|249:23|283:11,1,71.9999978027344,10|0,1:1|0:0,0:0:0:0:
486,56,64839,5,10,1:1:0:0:
397,122,64946,1,0,1:0:0:0:
328,84,65054,1,0,1:0:0:0:
346,44,65161,1,0,1:0:0:0:
357,159,65268,6,0,L|354:221,1,60,10|0,1:1|0:0,0:0:0:0:
184,71,65696,5,10,1:1:0:0:
66,110,65911,1,0,0:0:0:0:
69,82,66018,1,0,0:0:0:0:
49,12,66125,2,0,L|33:172,1,143.999995605469,2|0,1:1|0:0,0:0:0:0:
253,129,66446,1,0,0:0:0:0:
192,0,66554,2,0,L|184:71,1,71.9999978027344,10|0,1:1|0:0,0:0:0:0:
301,230,66768,1,2,1:0:0:0:
295,227,66839,1,0,0:0:0:0:
289,230,66911,1,0,0:0:0:0:
323,257,66982,2,0,P|329:211|313:161,1,71.9999978027344,10|0,1:1|0:0,0:0:0:0:
468,315,67196,2,0,P|434:327|405:349,1,71.9999978027344,2|0,0:0|0:0,0:0:0:0:
418,180,67411,5,8,1:1:0:0:
148,138,67625,1,10,1:1:0:0:
302,122,67839,1,8,0:1:0:0:
0,136,68054,1,10,1:1:0:0:
484,117,68268,1,10,0:1:0:0:
457,104,68696,5,0,0:0:0:0:
433,95,68804,1,0,0:0:0:0:
354,82,68911,1,0,0:0:0:0:
288,154,69018,1,0,0:0:0:0:
338,292,69125,5,8,3:1:0:0:
344,202,69339,1,2,0:0:0:0:
320,249,69446,1,0,0:0:0:0:
244,180,69554,5,8,1:1:0:0:
212,362,69768,1,2,0:0:0:0:
57,290,69982,5,8,3:1:0:0:
49,197,70196,1,2,0:0:0:0:
74,245,70303,1,0,0:0:0:0:
120,138,70411,5,8,1:1:0:0:
248,378,70625,1,10,3:1:0:0:
445,225,70839,5,8,3:1:0:0:
360,204,71054,1,2,0:0:0:0:
409,191,71161,1,0,0:0:0:0:
291,262,71268,5,8,3:1:0:0:
208,227,71375,1,0,0:0:0:0:
189,156,71482,1,2,0:0:0:0:
203,120,71589,1,0,0:0:0:0:
166,203,71696,5,8,3:1:0:0:
139,285,71804,1,0,0:0:0:0:
113,368,71911,1,2,1:0:0:0:
166,203,72125,1,8,0:1:0:0:
113,368,72339,1,2,1:0:0:0:
32,144,72554,5,8,1:1:0:0:
32,144,72768,2,0,P|65:113|93:96,1,60,2|0,3:3|0:0,0:0:0:0:
16,114,72982,2,0,P|55:92|87:83,1,60,8|0,0:1|0:0,0:0:0:0:
153,117,73196,2,0,L|238:120,1,60,2|0,3:3|0:0,0:0:0:0:
301,122,73411,1,8,0:1:0:0:
153,117,73625,2,0,L|238:120,1,60,2|0,0:2|0:3,0:0:0:0:
381,127,73839,2,0,P|400:98|407:68,1,60,4|0,0:3|0:3,0:0:0:0:
380,20,74054,2,0,P|388:48|405:73,1,60,2|0,0:3|0:3,0:0:0:0:
511,82,74268,5,12,3:1:0:0:
402,158,74482,1,0,0:0:0:0:
402,158,74589,1,0,0:0:0:0:
502,114,74696,5,8,0:1:0:0:
379,165,74911,1,2,3:3:0:0:
379,165,75018,1,0,0:0:0:0:
488,157,75125,6,0,L|491:256,1,60,8|0,0:1|0:0,0:0:0:0:
274,162,75339,2,0,L|271:261,1,60,2|0,3:3|0:0,0:0:0:0:
492,251,75554,5,8,0:1:0:0:
386,260,75661,1,0,0:0:0:0:
294,295,75768,1,10,3:1:0:0:
222,366,75875,1,0,0:0:0:0:
122,332,75982,5,8,3:1:0:0:
139,257,76196,1,2,0:0:0:0:
163,305,76304,1,0,0:0:0:0:
31,276,76411,5,8,1:1:0:0:
180,161,76625,1,2,0:0:0:0:
0,91,76839,5,8,3:1:0:0:
83,92,77054,1,2,0:0:0:0:
42,119,77161,1,0,0:0:0:0:
143,150,77268,5,8,1:1:0:0:
410,95,77482,1,10,1:0:0:0:
291,66,77696,5,8,3:1:0:0:
276,143,77911,1,2,0:0:0:0:
252,102,78018,1,0,0:0:0:0:
389,111,78125,5,8,3:1:0:0:
434,201,78232,1,0,0:0:0:0:
376,250,78339,1,2,0:0:0:0:
350,214,78447,1,0,0:0:0:0:
462,277,78554,1,8,3:1:0:0:
384,279,78661,1,0,0:0:0:0:
306,281,78768,5,2,1:0:0:0:
228,281,78982,1,8,0:1:0:0:
462,277,79196,1,2,1:0:0:0:
384,279,79304,1,0,0:0:0:0:
306,281,79411,6,0,L|222:282,1,77.9999964294435,8|0,1:1|0:0,0:0:0:0:
141,73,79625,2,0,P|165:101|180:149,1,71.9999978027344,2|0,3:3|0:0,0:0:0:0:
206,293,79839,2,0,P|176:287|141:262,1,71.9999978027344,8|0,0:1|0:0,0:0:0:0:
251,158,80054,2,0,P|236:184|200:213,1,71.9999978027344,2|0,3:3|0:0,0:0:0:0:
30,159,80267,2,0,P|57:146|101:142,1,71.9999978027344,8|0,0:1|0:0,0:0:0:0:
44,272,80482,1,2,0:2:0:0:
44,272,80589,1,0,0:3:0:0:
72,171,80696,2,0,P|105:156|140:153,1,71.9999978027344,4|0,0:3|0:3,0:0:0:0:
148,39,80911,2,0,P|183:42|216:56,1,71.9999978027344,2|0,0:3|0:3,0:0:0:0:
340,188,81125,6,0,L|334:114,1,71.9999978027344,12|0,3:1|0:0,0:0:0:0:
434,62,81339,1,0,0:0:0:0:
434,62,81446,1,0,0:0:0:0:
350,99,81554,2,0,L|345:171,1,71.9999978027344,8|0,0:1|0:0,0:0:0:0:
490,211,81768,1,2,3:3:0:0:
476,238,81875,1,0,0:0:0:0:
512,315,81982,5,8,0:1:0:0:
179,268,82196,1,2,3:3:0:0:
394,255,82411,5,8,1:1:0:0:
317,290,82518,1,0,1:0:0:0:
259,227,82625,1,10,1:1:0:0:
179,268,82732,1,0,1:0:0:0:
210,359,82839,6,0,P|139:339|53:365,1,143.999995605469,12|2,3:1|0:0,0:0:0:0:
54,360,83161,1,0,0:0:0:0:
228,362,83268,2,0,P|209:331|182:307,1,71.9999978027344,8|0,1:1|0:0,0:0:0:0:
99,305,83482,2,0,P|72:329|54:360,1,71.9999978027344,2|0,0:0|0:0,0:0:0:0:
242,367,83696,6,0,L|234:197,1,143.999995605469,8|2,3:1|0:0,0:0:0:0:
233,207,84018,1,0,0:0:0:0:
320,281,84125,2,0,L|335:194,1,71.9999978027344,8|0,1:1|0:0,0:0:0:0:
132,242,84339,2,0,L|117:154,1,71.9999978027344,10|0,1:0|0:0,0:0:0:0:
444,112,84554,6,0,P|374:98|306:118,1,143.999995605469,12|2,3:1|0:0,0:0:0:0:
290,129,84876,1,0,0:0:0:0:
330,234,84983,2,0,P|348:203|375:179,1,71.9999978027344,8|0,3:1|0:0,0:0:0:0:
469,319,85197,2,0,P|450:288|423:264,1,71.9999978027344,2|0,0:0|0:0,0:0:0:0:
287,331,85411,2,0,L|391:330,1,71.9999978027344,8|0,3:1|0:0,0:0:0:0:
512,301,85625,1,2,1:0:0:0:
512,301,85732,1,0,0:0:0:0:
391,339,85839,2,0,L|319:339,1,71.9999978027344,8|0,0:1|0:0,0:0:0:0:
211,268,86054,2,0,L|139:267,1,71.9999978027344,2|0,1:0|0:0,0:0:0:0:
14,210,86268,5,8,1:1:0:0:
216,91,86482,2,0,P|183:105|148:137,1,71.9999978027344,2|0,3:3|0:0,0:0:0:0:
295,231,86696,2,0,P|271:203|230:180,1,71.9999978027344,8|0,0:1|0:0,0:0:0:0:
15,230,86911,2,0,P|42:252|75:266,1,71.9999978027344,2|0,3:3|0:0,0:0:0:0:
105,361,87125,2,0,P|135:342|159:315,1,71.9999978027344,8|0,0:1|0:0,0:0:0:0:
101,182,87339,1,2,0:2:0:0:
101,182,87446,1,0,0:3:0:0:
194,193,87554,2,0,L|188:279,1,71.9999978027344,4|0,0:3|0:3,0:0:0:0:
0,73,87768,2,0,L|6:159,1,71.9999978027344,2|0,0:3|0:3,0:0:0:0:
201,77,87982,6,0,L|114:80,1,71.9999978027344,12|0,3:1|0:0,0:0:0:0:
55,7,88196,1,0,0:0:0:0:
55,7,88304,1,0,0:0:0:0:
151,92,88411,2,0,L|223:90,1,71.9999978027344,8|0,0:1|0:0,0:0:0:0:
320,69,88625,1,2,3:3:0:0:
320,69,88733,1,0,0:0:0:0:
201,108,88839,2,0,L|129:110,1,71.9999978027344,12|0,0:1|0:0,0:0:0:0:
333,193,89054,2,0,L|261:190,1,71.9999978027344,2|0,3:3|0:0,0:0:0:0:
412,26,89268,2,0,P|439:48|458:79,1,71.9999978027344,8|0,0:1|0:0,0:0:0:0:
307,261,89482,2,0,P|325:230|353:207,1,71.9999978027344,10|0,3:1|0:0,0:0:0:0:
480,377,89696,6,0,P|409:357|334:370,1,143.999995605469,12|2,3:1|0:0,0:0:0:0:
330,378,90018,1,0,0:0:0:0:
417,258,90125,2,0,P|433:225|456:198,1,71.9999978027344,8|0,1:1|0:0,0:0:0:0:
324,344,90339,2,0,P|307:311|284:284,1,71.9999978027344,2|0,0:0|0:0,0:0:0:0:
131,196,90554,6,0,L|283:190,1,143.999995605469,8|2,3:1|0:0,0:0:0:0:
284,191,90875,1,0,0:0:0:0:
207,83,90982,2,0,L|181:180,1,71.9999978027344,8|0,1:1|0:0,0:0:0:0:
379,137,91196,2,0,L|405:234,1,71.9999978027344,10|0,1:0|0:0,0:0:0:0:
183,261,91411,5,12,3:1:0:0:
201,245,91518,1,0,0:0:0:0:
271,223,91625,1,2,0:0:0:0:
323,299,91732,2,0,P|323:333|301:375,2,71.9999978027344,0|8|0,0:0|3:1|0:0,0:0:0:0:
404,149,92054,2,0,P|393:183|403:221,1,71.9999978027344,2|0,0:0|0:0,0:0:0:0:
495,363,92268,2,0,P|468:339|456:300,1,71.9999978027344,8|0,3:1|0:0,0:0:0:0:
436,125,92482,1,2,1:0:0:0:
441,147,92589,1,0,0:0:0:0:
324,149,92696,2,0,P|281:146|232:119,1,71.9999978027344,8|0,0:1|0:0,0:0:0:0:
345,40,92911,2,0,P|380:29|416:26,1,71.9999978027344,2|0,1:0|0:0,0:0:0:0:
194,8,93125,6,0,P|197:45|214:92,1,71.9999978027344,12|0,1:1|0:0,0:0:0:0:
36,35,93339,2,0,P|69:49|98:69,1,71.9999978027344,2|0,3:3|0:0,0:0:0:0:
8,153,93554,1,8,1:1:0:0:
104,184,93661,1,0,0:0:0:0:
103,206,93768,2,0,P|70:219|41:239,1,71.9999978027344,2|0,3:3|0:0,0:0:0:0:
188,329,93982,2,0,P|192:293|188:257,1,71.9999978027344,8|0,0:1|0:0,0:0:0:0:
137,112,94196,1,2,1:2:0:0:
129,208,94304,1,0,1:3:0:0:
231,152,94411,2,0,L|338:138,1,71.9999978027344,4|0,1:3|0:3,0:0:0:0:
440,128,94625,1,2,3:3:0:0:
403,268,94732,2,0,L|394:303,1,35.9999989013672,0|0,0:3|0:0,0:0:0:0:
454,335,94839,6,0,L|300:336,1,143.999995605469,0|0,1:0|0:0,0:0:0:0:
367,300,95268,2,0,L|213:301,1,143.999995605469,0|0,1:0|0:0,0:0:0:0:
280,265,95696,2,0,L|126:266,1,143.999995605469,0|0,1:0|0:0,0:0:0:0:
193,230,96125,2,0,L|39:231,1,143.999995605469,0|0,1:0|0:0,0:0:0:0:
4,371,96554,5,8,0:1:0:0:
7,258,96768,2,0,L|25:135,1,96,2|8,0:0|0:1,0:0:0:0:
102,384,97196,2,0,L|124:259,1,96,0|8,1:0|0:1,0:0:0:0:
145,100,97625,1,0,0:0:0:0:
122,262,97839,1,8,1:1:0:0:
206,167,98054,2,0,L|157:189,1,48,0|0,1:0|0:0,0:0:0:0:
49,93,98268,6,0,L|174:101,1,96,8|2,1:1|0:0,0:0:0:0:
245,40,98589,1,0,0:0:0:0:
276,76,98696,2,0,L|263:0,1,48,8|0,1:1|0:0,0:0:0:0:
388,0,98911,2,0,L|379:47,1,48,0|0,1:0|0:0,0:0:0:0:
362,145,99125,1,8,0:1:0:0:
396,164,99232,1,0,0:0:0:0:
426,183,99339,1,8,1:1:0:0:
455,203,99446,1,0,0:0:0:0:
490,217,99554,6,0,L|424:229,1,48,8|0,0:1|0:0,0:0:0:0:
384,322,99768,1,8,1:1:0:0:
416,343,99875,1,0,0:0:0:0:
324,384,99982,5,8,0:1:0:0:
314,268,100196,2,0,L|306:162,1,96,2|8,0:0|0:1,0:0:0:0:
214,368,100625,2,0,L|206:262,1,96,0|8,1:0|0:1,0:0:0:0:
187,70,101054,1,0,0:0:0:0:
203,237,101268,1,8,1:1:0:0:
82,139,101482,2,0,L|159:151,1,48,0|0,1:0|0:0,0:0:0:0:
259,45,101696,6,0,L|180:65,3,48,8|0|2|0,1:1|0:0|0:0|0:0,0:0:0:0:
110,42,102125,1,8,1:1:0:0:
91,27,102232,1,0,0:0:0:0:
25,93,102339,1,8,1:1:0:0:
46,90,102446,1,0,0:0:0:0:
120,134,102554,2,0,L|108:200,1,48,8|0,0:1|0:0,0:0:0:0:
1,184,102768,5,8,1:1:0:0:
3,206,102875,1,8,0:1:0:0:
5,232,102982,1,8,1:1:0:0:
8,253,103196,1,8,1:1:0:0:
152,349,103411,6,0,L|156:254,2,96,8|2|8,0:1|0:0|0:1,0:0:0:0:
309,306,104054,2,0,L|312:210,1,96,0|8,1:0|0:1,0:0:0:0:
322,15,104482,2,0,L|319:78,1,48,0|0,0:0|0:0,0:0:0:0:
313,181,104696,1,8,1:1:0:0:
180,122,104911,2,0,L|244:111,1,48,0|0,1:0|0:0,0:0:0:0:
155,203,105071,1,0,0:0:0:0:
140,210,105125,6,0,L|80:202,1,48,8|0,1:1|0:0,0:0:0:0:
14,82,105339,2,0,L|19:142,3,48,2|0|8|0,0:0|0:0|1:1|0:0,0:0:0:0:
18,203,105768,1,2,1:0:0:0:
22,218,105875,1,0,0:0:0:0:
85,259,105982,5,10,0:1:0:0:
84,278,106089,1,0,0:0:0:0:
4,287,106196,1,8,1:1:0:0:
5,306,106303,1,0,0:0:0:0:
81,365,106411,5,10,0:1:0:0:
61,368,106625,1,8,1:1:0:0:
148,352,106732,1,0,0:0:0:0:
230,376,106839,5,8,0:1:0:0:
471,366,107054,2,0,L|459:270,1,96,2|8,0:0|0:1,0:0:0:0:
341,315,107482,2,0,L|329:219,1,96,0|8,1:0|0:1,0:0:0:0:
303,18,107911,1,0,0:0:0:0:
324,179,108125,1,8,1:1:0:0:
420,92,108339,2,0,L|350:83,1,48,0|0,1:0|0:0,0:0:0:0:
512,42,108500,1,0,0:0:0:0:
507,57,108554,6,0,L|513:105,1,48,8|0,1:1|0:0,0:0:0:0:
461,196,108768,1,0,0:0:0:0:
466,213,108875,1,0,0:0:0:0:
403,271,108982,1,8,1:1:0:0:
400,291,109089,1,0,0:0:0:0:
456,355,109196,5,8,1:1:0:0:
466,363,109304,1,0,0:0:0:0:
380,327,109411,1,8,0:1:0:0:
286,322,109518,2,0,L|298:374,2,48,0|8|8,0:0|1:1|0:1,0:0:0:0:
333,247,109839,2,0,L|357:203,1,48,8|0,1:1|0:0,0:0:0:0:
238,137,110054,2,0,L|260:179,1,48,8|0,1:1|0:0,0:0:0:0:
313,78,110268,6,0,P|381:59|449:81,1,143.999995605469,12|0,0:1|0:0,0:0:0:0:
430,150,110482,2,0,P|391:103|297:80,1,143.999995605469,2|8,0:0|0:1,0:0:0:0:
179,76,110804,1,0,0:0:0:0:
135,147,110911,2,0,P|126:181|136:215,1,71.9999978027344,0|0,1:0|0:0,0:0:0:0:
225,250,111125,1,8,0:1:0:0:
179,76,111339,6,0,P|109:75|54:119,1,143.999995605469,2|0,0:1|0:0,0:0:0:0:
109,277,111554,2,0,P|133:249|109:116,1,143.999995605469,10|0,1:1|0:0,0:0:0:0:
0,198,111768,2,0,P|34:205|69:198,1,71.9999978027344,0|0,1:0|0:0,0:0:0:0:
231,174,111982,6,0,L|313:181,1,71.9999978027344,8|0,1:1|0:0,0:0:0:0:
348,296,112196,1,2,0:0:0:0:
331,260,112304,1,0,0:0:0:0:
267,305,112411,1,8,1:1:0:0:
352,327,112518,1,0,0:0:0:0:
424,347,112625,1,2,1:0:0:0:
462,359,112732,1,0,0:0:0:0:
423,264,112839,6,0,P|404:217|404:180,1,71.9999978027344,8|0,0:1|0:0,0:0:0:0:
354,36,113054,2,0,P|389:39|422:53,1,71.9999978027344,8|0,1:1|0:0,0:0:0:0:
320,169,113268,2,0,P|340:140|368:118,1,71.9999978027344,10|0,0:1|0:0,0:0:0:0:
505,174,113482,2,0,P|470:179|406:158,1,71.9999978027344,10|0,1:1|0:0,0:0:0:0:
237,227,113696,6,0,P|219:158|241:91,1,143.999995605469,12|0,0:1|0:0,0:0:0:0:
307,111,113911,2,0,P|255:158|236:227,1,143.999995605469,2|8,0:0|0:1,0:0:0:0:
248,347,114232,1,0,0:0:0:0:
177,303,114339,2,0,P|143:294|109:304,1,71.9999978027344,0|0,1:0|0:0,0:0:0:0:
19,375,114553,1,8,0:1:0:0:
19,375,114768,6,0,P|71:327|142:325,1,143.999995605469,2|0,0:0|0:0,0:0:0:0:
246,254,114983,2,0,P|256:323|220:384,1,143.999995605469,10|0,1:1|0:0,0:0:0:0:
411,384,115197,2,0,P|378:373|351:349,1,71.9999978027344,0|0,1:0|0:0,0:0:0:0:
323,202,115411,6,0,P|355:215|400:265,1,71.9999978027344,8|0,1:1|0:0,0:0:0:0:
465,186,115625,2,0,P|481:217|483:284,1,71.9999978027344,2|0,0:0|0:0,0:0:0:0:
323,202,115839,2,0,P|350:179|383:166,1,71.9999978027344,8|0,1:1|0:0,0:0:0:0:
214,206,116053,2,0,P|220:170|236:139,1,71.9999978027344,10|0,1:1|0:0,0:0:0:0:
469,66,116268,2,0,L|326:72,1,143.999995605469,8|8,0:1|1:1,0:0:0:0:
212,29,116589,1,8,0:1:0:0:
314,81,116696,2,0,L|457:75,1,143.999995605469,10|10,1:1|1:1,0:0:0:0:
350,191,117018,1,0,0:0:0:0:
257,226,117125,6,0,P|327:216|391:248,1,143.999995605469,12|0,0:1|0:0,0:0:0:0:
375,292,117339,2,0,P|324:239|245:227,1,143.999995605469,2|8,0:0|0:1,0:0:0:0:
257,225,117768,2,0,P|188:240|139:292,1,143.999995605469,0|8,1:0|0:1,0:0:0:0:
375,292,118196,6,0,P|326:240|257:226,1,143.999995605469,2|0,0:0|0:0,0:0:0:0:
172,384,118411,2,0,P|240:367|288:314,1,143.999995605469,10|0,1:1|0:0,0:0:0:0:
165,231,118625,2,0,P|178:270|203:292,1,71.9999978027344,0|0,1:0|0:0,0:0:0:0:
288,313,118839,5,8,1:1:0:0:
73,207,119054,1,2,0:0:0:0:
72,233,119161,1,0,0:0:0:0:
71,261,119268,1,8,1:1:0:0:
147,31,119482,1,2,1:0:0:0:
151,57,119589,1,0,0:0:0:0:
157,83,119696,6,0,P|201:95|247:81,1,71.9999978027344,10|0,0:1|0:0,0:0:0:0:
365,42,119911,1,8,1:1:0:0:
353,75,120018,1,0,0:0:0:0:
341,106,120125,1,10,0:1:0:0:
165,132,120339,1,8,1:1:0:0:
168,162,120446,1,0,0:0:0:0:
239,210,120554,6,0,P|170:192|103:214,1,143.999995605469,12|0,0:1|0:0,0:0:0:0:
124,281,120768,2,0,P|163:234|257:211,1,143.999995605469,2|8,0:0|0:1,0:0:0:0:
370,234,121089,1,0,0:0:0:0:
397,297,121196,2,0,P|373:264|376:212,1,71.9999978027344,0|0,1:0|0:0,0:0:0:0:
484,151,121411,2,0,P|479:187|457:215,1,71.9999978027344,8|0,0:1|0:0,0:0:0:0:
492,291,121625,6,0,P|451:229|380:211,1,143.999995605469,2|0,0:0|0:0,0:0:0:0:
274,348,121839,2,0,P|348:343|399:291,1,143.999995605469,10|0,1:1|0:0,0:0:0:0:
301,185,122054,2,0,P|297:220|308:254,1,71.9999978027344,0|0,1:0|0:0,0:0:0:0:
398,121,122268,5,10,1:1:0:0:
375,104,122375,1,0,0:0:0:0:
348,93,122482,1,0,0:0:0:0:
319,90,122589,1,0,0:0:0:0:
222,132,122696,1,10,1:1:0:0:
246,64,122804,1,0,0:0:0:0:
214,36,122911,1,10,1:1:0:0:
185,32,123018,1,0,0:0:0:0:
292,44,123125,5,8,0:1:0:0:
74,271,123339,2,0,L|88:168,1,71.9999978027344,10|8,1:1|0:1,0:0:0:0:
98,73,123554,1,10,1:1:0:0:
98,73,123768,1,8,1:1:0:0:
123,164,123982,6,8,L|342:178,1,180,6|0,1:1|0:0,0:0:0:0:
329,176,124196,1,8,0:1:0:0:
334,203,124625,1,8,0:1:0:0:
338,232,125054,1,8,0:1:0:0:
325,126,125268,1,8,0:1:0:0:
352,341,125482,1,8,0:1:0:0:
464,250,125696,6,0,L|237:236,1,180,6|0,1:0|0:0,0:0:0:0:
258,235,125911,2,0,L|274:304,1,62.9999980773926,8|0,0:1|0:0,0:0:0:0:
299,334,126125,2,0,B|321:344|321:344|326:361,1,41.9999987182618,8|0,0:1|0:0,0:0:0:0:
261,343,126339,2,0,B|281:328|281:328|298:333,1,41.9999987182618,10|0,0:1|0:0,0:0:0:0:
252,380,126554,2,0,B|249:355|249:355|261:342,1,41.9999987182618,8|0,0:1|0:0,0:0:0:0:
151,266,126768,1,10,0:1:0:0:
154,277,126875,1,0,0:0:0:0:
155,288,126982,2,0,L|129:327,1,41.9999987182618,10|0,0:1|0:0,0:0:0:0:
27,211,127196,2,0,L|72:222,1,41.9999987182618,10|0,0:1|0:0,0:0:0:0:
134,146,127411,6,8,L|341:128,1,180,6|0,1:1|0:0,0:0:0:0:
344,127,127625,1,8,0:1:0:0:
352,103,128054,1,8,0:1:0:0:
363,76,128482,1,8,0:1:0:0:
324,184,128696,1,8,0:1:0:0:
396,0,128911,1,8,0:1:0:0:
460,286,129125,5,6,1:0:0:0:
376,252,129339,1,8,0:1:0:0:
284,237,129554,2,0,L|295:298,1,60,8|0,0:1|0:0,0:0:0:0:
300,324,129768,1,10,0:1:0:0:
155,362,129982,2,0,L|166:301,1,60,8|0,0:1|0:0,0:0:0:0:
171,275,130196,1,10,0:1:0:0:
1,160,130411,2,0,P|33:177|80:175,1,60,10|0,0:1|0:0,0:0:0:0:
171,275,130625,2,0,P|145:259|115:255,1,60,10|0,0:1|0:0,0:0:0:0:
57,180,130839,6,0,L|93:-8,1,180,4|0,0:0|0:0,0:0:0:0:
157,12,131054,2,0,B|171:24|171:24|130:27,2,60,2|0|0,0:0|0:0|0:0,0:0:0:0:
250,42,131589,1,0,0:0:0:0:
255,12,131696,6,0,B|235:197,1,180,4|0,0:0|0:0,0:0:0:0:
284,225,131911,2,0,B|298:213|298:213|258:209,2,60,2|0|0,0:0|0:0|0:0,0:0:0:0:
392,236,132446,1,0,0:0:0:0:
402,211,132554,6,0,B|446:10,1,180,4|0,0:0|0:0,0:0:0:0:
504,35,132768,2,0,B|518:47|518:47|477:50,2,60,2|0|0,0:0|0:0|0:0,0:0:0:0:
401,69,133304,1,0,0:0:0:0:
406,95,133411,6,0,L|441:283,1,180,4|0,0:0|0:0,0:0:0:0:
500,304,133625,2,0,B|514:291|514:291|473:288,2,60,2|0|0,0:0|0:0|0:0,0:0:0:0:
394,348,134161,1,0,0:0:0:0:
366,322,134268,6,0,B|318:301|318:301|239:301|239:301|192:332,1,180,4|0,0:0|0:0,0:0:0:0:
199,282,134482,2,0,L|159:310,1,45,2|0,0:0|0:0,0:0:0:0:
198,281,134696,6,0,B|239:255|239:255|318:255|318:255|366:276,1,180,4|0,0:0|0:0,0:0:0:0:
366,229,134911,2,0,L|407:254,1,45,2|0,0:0|0:0,0:0:0:0:
366,229,135125,6,0,B|318:208|318:208|239:208|239:208|199:235,1,180,4|0,0:0|0:0,0:0:0:0:
197,189,135339,2,0,L|160:217,1,45,2|0,0:0|0:0,0:0:0:0:
197,189,135554,6,0,B|238:163|238:163|317:163|317:163|365:184,1,180,4|0,0:0|0:0,0:0:0:0:
366,229,135768,2,0,B|318:250|318:250|239:250|239:250|199:223,1,180,2|0,0:0|0:0,0:0:0:0:
89,179,135982,1,4,0:0:0:0:
256,192,136036,12,0,137214,0:0:0:0:
249,219,137268,5,8,1:0:0:0:
249,219,137696,6,0,P|220:265|220:305,1,90,8|0,0:1|0:0,0:0:0:0:
471,291,138125,2,0,P|466:246|440:210,1,90,8|0,0:1|0:0,0:0:0:0:
307,322,138554,2,0,L|187:292,1,90.0000034332277,4|0,0:3|0:0,0:0:0:0:
218,300,138768,6,0,P|252:236|324:227,1,150,0|0,0:0|0:0,0:0:0:0:
471,291,138982,2,0,B|483:306|483:306|443:302,1,60,2|0,0:0|0:0,0:0:0:0:
307,322,139196,6,0,B|310:275|310:275|291:224|291:224|297:175,1,150,0|0,0:0|0:0,0:0:0:0:
238,33,139411,6,0,B|188:35|167:97|167:97|220:131|194:203,1,180.000006866455,8|0,0:1|0:0,0:0:0:0:
85,254,139732,1,0,0:0:0:0:
89,162,139839,2,0,P|115:165|135:182,1,30,0|0,0:0|0:0,0:0:0:0:
57,265,140054,2,0,P|69:257|84:254,1,30,8|0,0:1|0:0,0:0:0:0:
1,378,140268,6,0,B|76:357|76:357|159:368|159:368|237:357,1,240,6|8,0:3|0:1,0:0:0:0:
237,357,140589,1,8,0:1:0:0:
303,220,140696,2,0,B|263:166|263:166|254:208,1,90.0000034332277,8|0,0:1|0:0,0:0:0:0:
161,287,140911,2,0,B|224:265|224:265|187:244,1,90.0000034332277,0|8,0:0|0:1,0:0:0:0:
79,168,141125,6,0,P|132:177|191:153,1,90,12|0,0:1|0:0,0:0:0:0:
285,43,141554,2,0,B|282:29|282:29|218:27|218:27|213:47,1,90,10|0,0:1|0:0,0:0:0:0:
79,168,141982,2,0,B|103:211|103:211|60:258,1,90.0000034332277,4|0,0:3|0:0,0:0:0:0:
76,242,142196,6,0,P|125:224|113:352,1,240,0|0,0:0|0:0,0:0:0:0:
45,330,142518,1,0,0:0:0:0:
132,339,142625,2,0,P|167:314|173:288,1,60,0|0,0:1|0:1,0:0:0:0:
229,179,142839,6,0,B|192:131|192:131|189:169,1,90.0000034332277,10|0,0:1|0:0,0:0:0:0:
262,379,143054,2,0,L|271:251,1,120,8|8,0:1|0:1,0:0:0:0:
294,82,143268,2,0,P|341:130|310:209,1,120,4|8,0:3|0:1,0:0:0:0:
332,188,143429,1,0,0:0:0:0:
332,188,143482,1,8,0:1:0:0:
387,130,143589,2,0,P|427:118|467:136,1,60,8|0,0:1|0:0,0:0:0:0:
487,42,143696,6,0,L|492:161,1,120,6|0,0:3|0:0,0:0:0:0:
483,200,143911,2,0,P|458:215|448:243,1,60,8|8,0:1|0:1,0:0:0:0:
483,347,144125,6,0,B|497:343|497:343|493:324,1,30,8|0,0:1|0:0,0:0:0:0:
406,276,144339,6,0,P|347:245|267:300,1,150,0|0,3:1|0:0,0:0:0:0:
203,371,144554,6,0,P|160:357|127:327,1,90,8|0,0:1|0:0,0:0:0:0:
295,142,144982,2,0,P|324:175|338:217,1,90,8|0,0:1|0:0,0:0:0:0:
441,276,145411,2,0,L|521:279,1,60,4|0,0:3|0:0,0:0:0:0:
501,279,145625,6,0,P|437:244|428:172,1,150,0|0,0:0|0:0,0:0:0:0:
512,72,145839,2,0,B|524:87|524:87|484:83,1,60,2|0,0:0|0:0,0:0:0:0:
382,26,146054,6,0,B|376:75|376:75|395:126|395:126|392:173,1,150,0|0,0:0|0:0,0:0:0:0:
352,302,146268,6,0,B|321:274|324:222|324:222|249:206|236:139,1,180.000006866455,8|0,0:1|0:0,0:0:0:0:
266,75,146589,1,0,0:0:0:0:
340,110,146696,2,0,P|333:124|322:133,1,30,0|0,0:0|0:0,0:0:0:0:
240,150,146911,6,0,P|178:130|102:169,1,135.000005149841,8|0,0:1|0:0,0:0:0:0:
3,160,147125,2,0,P|35:104|109:179,1,180,6|0,0:3|0:0,0:0:0:0:
115,163,147339,5,8,0:1:0:0:
114,246,147446,1,8,0:1:0:0:
45,287,147554,2,0,B|112:280|112:280|72:325,1,90.0000034332277,8|0,0:1|0:0,0:0:0:0:
218,351,147768,2,0,B|226:372|226:372|165:342,1,90.0000034332277,0|8,0:0|0:1,0:0:0:0:
256,194,147982,6,0,P|267:253|263:284,1,90,12|0,0:1|0:0,0:0:0:0:
466,374,148411,2,0,B|454:371|454:371|456:307|456:307|470:305,1,90,10|0,0:1|0:0,0:0:0:0:
379,180,148839,2,0,L|386:73,1,90.0000034332277,4|0,0:3|0:0,0:0:0:0:
235,94,149054,2,0,P|246:119|279:137,1,45.0000017166138,8|0,0:1|0:0,0:0:0:0:
311,69,149161,2,0,P|316:47|331:30,1,45.0000017166138,8|0,0:1|0:0,0:0:0:0:
384,90,149268,6,0,L|444:94,1,60,4|0,0:3|0:0,0:0:0:0:
473,101,149429,1,8,0:1:0:0:
473,101,149482,1,8,0:1:0:0:
417,185,149589,1,0,0:1:0:0:
487,263,149696,6,0,L|484:356,1,90,10|0,0:1|0:0,0:0:0:0:
450,337,150554,6,0,L|448:327,7,6,6|0|0|0|8|0|8|0,0:3|0:0|0:0|0:0|0:1|0:0|0:1|0:0,0:0:0:0:
412,314,150982,2,0,P|391:310|375:317,1,35.9999989013672,8|0,0:1|0:0,0:0:0:0:
309,278,151143,1,0,0:0:0:0:
302,286,151196,2,0,P|296:307|301:331,1,35.9999989013672,8|0,0:1|0:0,0:0:0:0:
393,110,151411,6,0,B|416:60|416:60|336:35|336:35|275:96|275:96|329:135,1,270.000010299683,8|0,0:1|0:0,0:0:0:0:
407,223,151839,2,0,B|444:250|444:250|382:310|382:310|303:286|303:286|326:236|326:236,1,270.000010299683,4|0,0:3|0:0,0:0:0:0:
171,159,152268,2,0,L|266:186,1,90.0000034332277,8|0,0:1|0:0,0:0:0:0:
228,316,152482,2,0,B|203:326|203:326|214:283,1,60,0|0,0:0|0:0,0:0:0:0:
130,290,152696,6,0,L|130:140,1,150,6|0,0:3|0:0,0:0:0:0:
35,41,152911,2,0,P|56:61|62:90,1,60,0|0,0:0|0:0,0:0:0:0:
37,208,153125,6,0,P|9:209|20:186,1,60,8|0,0:1|0:0,0:0:0:0:
124,216,153339,2,0,P|129:247|94:269,1,45.0000017166138,0|0,0:0|0:0,0:0:0:0:
160,239,153446,2,0,P|135:258|99:239,1,45.0000017166138,0|0,0:0|0:0,0:0:0:0:
178,288,153554,6,0,B|132:283|132:283|98:300|98:300|53:296,1,120,4|8,0:3|0:1,0:0:0:0:
50,293,153875,1,0,0:0:0:0:
150,371,153982,6,0,L|244:382,1,90.0000034332277,6|0,0:3|0:0,0:0:0:0:
339,295,154196,2,0,P|317:288|297:296,1,45.0000017166138,8|0,0:1|0:0,0:0:0:0:
316,258,154303,2,0,P|300:273|297:295,1,45.0000017166138,8|0,0:1|0:0,0:0:0:0:
327,377,154411,2,0,L|316:258,1,120,4|0,0:3|0:0,0:0:0:0:
209,184,154625,2,0,B|235:208|235:208|232:185,1,60,0|8,0:0|0:1,0:0:0:0:
406,135,154839,6,0,P|434:250|316:258,1,270.000010299683,12|0,0:1|0:0,0:0:0:0:
233,64,155268,2,0,B|236:16|236:16|193:17|193:17|156:-11|156:-11|128:24|128:24|86:33|86:33|97:76|97:76|77:117|77:117|118:135|118:135|140:180|140:180|177:158|177:158,1,450.000017166138,4|0,0:3|0:0,0:0:0:0:
407,230,155696,2,0,L|317:233,1,90.0000034332277,8|0,0:1|0:0,0:0:0:0:
192,249,155911,6,0,B|211:239|211:239|221:287,1,60,0|0,0:0|0:0,0:0:0:0:
240,302,156125,6,0,L|121:284,1,120,4|0,0:3|0:0,0:0:0:0:
0,350,156339,2,0,B|41:344|41:344|24:326,1,60,0|0,0:1|0:1,0:0:0:0:
0,184,156554,6,0,B|0:143|68:135|68:135|129:197|208:154,1,240,10|8,0:1|0:1,0:0:0:0:
216,147,156875,1,8,0:1:0:0:
153,54,156982,1,4,0:3:0:0:
175,30,157089,2,0,P|198:27|220:33,1,45.0000017166138,8|0,0:1|0:0,0:0:0:0:
285,88,157196,2,0,P|333:75|388:82,1,90.0000034332277,8|8,0:1|0:1,0:0:0:0:
441,31,157411,6,0,L|453:28,1,12,10|0,0:1|0:0,0:0:0:0:
463,19,157625,6,0,L|443:111,1,90.0000034332277,8|8,0:1|0:1,0:0:0:0:
357,276,157839,2,0,B|345:254|345:254|398:252,1,60,4|0,0:3|0:0,0:0:0:0:
512,252,158054,2,0,B|441:250|412:302|412:302|343:291|348:240,1,180,0|0,3:1|0:0,0:0:0:0:
291,132,158268,6,0,B|273:73|273:73|197:45|138:99|138:99|152:165,1,270.000010299683,8|0,0:1|0:0,0:0:0:0:
182,315,158696,2,0,B|164:374|164:374|88:402|29:348|29:348|43:282,1,270.000010299683,4|0,0:3|0:0,0:0:0:0:
34,92,159125,2,0,L|132:100,1,90.0000034332277,8|0,0:1|0:0,0:0:0:0:
254,167,159339,2,0,P|259:187|257:205,1,30,0|0,0:0|0:0,0:0:0:0:
281,177,159446,2,0,P|266:191|249:198,1,30,0|0,0:0|0:0,0:0:0:0:
297,224,159554,6,0,B|244:225|244:225|190:206|190:206|150:205,1,150,6|0,0:3|0:0,0:0:0:0:
12,273,159768,2,0,P|59:258|88:263,1,60,0|0,0:0|0:0,0:0:0:0:
222,375,159982,2,0,B|203:343|203:343|212:300,1,60,8|0,0:1|0:0,0:0:0:0:
363,274,160196,6,0,P|351:293|330:301,1,45.0000017166138,0|0,0:0|0:0,0:0:0:0:
288,300,160304,2,0,P|309:293|330:300,1,45.0000017166138,0|0,0:0|0:0,0:0:0:0:
360,374,160411,2,0,P|329:343|329:299,1,90.0000034332277,4|0,0:3|0:0,0:0:0:0:
457,160,160625,6,0,P|438:172|431:194,1,45.0000017166138,8|0,0:1|0:0,0:0:0:0:
434,236,160733,2,0,P|439:214|431:193,1,45.0000017166138,0|0,0:0|0:0,0:0:0:0:
356,168,160840,2,0,P|388:197|432:195,1,90.0000034332277,6|0,0:3|0:0,0:0:0:0:
412,22,161054,6,0,P|399:46|399:76,1,45.0000017166138,8|0,0:1|0:0,0:0:0:0:
412,104,161161,2,0,P|400:84|396:62,1,45.0000017166138,8|0,0:1|0:0,0:0:0:0:
486,62,161268,2,0,L|367:61,1,90.0000034332277,4|0,0:3|0:0,0:0:0:0:
191,108,161482,2,0,P|228:115|254:102,1,45.0000017166138,0|0,0:0|0:0,0:0:0:0:
217,73,161589,2,0,P|229:108|253:124,1,45.0000017166138,8|0,0:1|0:0,0:0:0:0:
277,140,161696,6,0,P|111:146|118:224,1,270.000010299683,12|0,0:1|0:0,0:0:0:0:
318,297,162125,2,0,B|329:335|329:335|280:345|280:345|253:381|253:381|218:351|218:351|173:351|173:351|175:309|175:309|148:273|148:273|184:244|184:244|193:202|193:202|244:214,1,450,6|0,0:3|0:0,0:0:0:0:
438,220,162554,2,0,P|394:237|345:200,1,90.0000034332277,4|0,0:3|0:0,0:0:0:0:
218,87,162768,2,0,B|199:100|199:100|209:110,1,30,8|8,0:1|0:1,0:0:0:0:
254,135,162982,6,0,B|188:122|188:122|123:131|123:131|38:108,1,180,4|8,0:3|0:1,0:0:0:0:
81,133,163196,2,0,P|32:57|29:148,1,240,8|0,0:1|0:0,0:0:0:0:
256,192,163518,12,0,165018,0:0:0:0:
395,330,165125,5,8,3:1:0:0:
382,238,165339,1,2,0:0:0:0:
365,287,165446,1,0,0:0:0:0:
484,204,165554,5,8,1:1:0:0:
270,233,165768,1,2,0:0:0:0:
410,49,165982,5,8,3:1:0:0:
423,141,166196,1,2,0:0:0:0:
440,92,166303,1,0,0:0:0:0:
268,114,166411,5,8,1:1:0:0:
474,325,166625,1,10,3:1:0:0:
176,339,166839,5,8,3:1:0:0:
240,259,167054,1,2,0:0:0:0:
225,312,167161,1,0,0:0:0:0:
105,292,167268,5,8,3:1:0:0:
142,192,167375,1,0,0:0:0:0:
117,118,167482,1,2,0:0:0:0:
75,119,167589,1,0,0:0:0:0:
18,204,167696,5,8,3:1:0:0:
104,196,167804,1,0,0:0:0:0:
181,189,167911,1,2,1:0:0:0:
18,204,168125,1,8,0:1:0:0:
263,181,168339,1,2,1:0:0:0:
101,309,168554,5,8,1:1:0:0:
101,309,168768,2,0,P|97:263|102:231,1,60,2|0,3:3|0:0,0:0:0:0:
67,302,168982,2,0,P|74:257|87:227,1,60,8|0,0:1|0:0,0:0:0:0:
30,96,169196,2,0,L|27:155,1,60,2|0,3:3|0:0,0:0:0:0:
208,137,169411,1,12,0:1:0:0:
122,206,169625,2,0,L|123:119,1,60,2|0,0:2|0:3,0:0:0:0:
234,83,169839,2,0,P|225:111|208:136,1,60,4|0,0:3|0:3,0:0:0:0:
313,219,170054,2,0,P|296:194|287:165,1,60,2|0,0:3|0:3,0:0:0:0:
380,79,170268,5,12,3:1:0:0:
306,21,170482,1,0,0:0:0:0:
306,21,170589,1,0,0:0:0:0:
380,79,170696,5,8,0:1:0:0:
455,18,170911,1,2,3:3:0:0:
455,18,171018,1,0,0:0:0:0:
380,79,171125,6,0,L|383:178,1,60,8|0,0:1|0:0,0:0:0:0:
482,201,171339,2,0,L|479:300,1,60,2|0,3:3|0:0,0:0:0:0:
320,215,171554,2,0,P|297:194|270:184,1,60,8|0,0:1|0:0,0:0:0:0:
135,263,171768,2,0,P|133:292|144:320,1,60,10|0,3:1|0:0,0:0:0:0:
387,319,171982,5,8,3:1:0:0:
291,336,172196,1,2,0:0:0:0:
336,307,172304,1,0,0:0:0:0:
210,276,172411,5,8,1:1:0:0:
401,173,172625,1,2,0:0:0:0:
173,133,172839,5,8,3:1:0:0:
264,142,173054,1,2,0:0:0:0:
215,158,173161,1,0,0:0:0:0:
349,93,173268,5,8,1:1:0:0:
153,353,173482,1,10,1:0:0:0:
71,69,173696,5,8,3:1:0:0:
168,67,173911,1,2,0:0:0:0:
118,41,174018,1,0,0:0:0:0:
123,161,174125,5,8,3:1:0:0:
213,144,174232,1,0,0:0:0:0:
254,78,174339,1,2,0:0:0:0:
249,32,174446,1,0,0:0:0:0:
174,90,174554,1,8,3:1:0:0:
179,187,174661,1,0,0:0:0:0:
183,277,174768,5,2,1:0:0:0:
190,365,174982,1,8,0:1:0:0:
179,187,175196,5,2,1:0:0:0:
183,277,175304,1,0,0:0:0:0:
190,365,175411,6,0,P|206:321|236:295,1,77.9999964294435,8|0,1:1|0:0,0:0:0:0:
346,195,175625,2,0,P|331:233|336:290,1,71.9999978027344,2|0,3:3|0:0,0:0:0:0:
512,293,175839,2,0,P|486:272|434:252,1,71.9999978027344,8|0,0:1|0:0,0:0:0:0:
509,121,176054,2,0,P|475:121|422:139,1,71.9999978027344,2|0,3:3|0:0,0:0:0:0:
231,215,176268,2,0,P|266:225|302:226,1,71.9999978027344,8|0,0:1|0:0,0:0:0:0:
345,48,176482,1,2,0:2:0:0:
264,116,176589,1,0,0:3:0:0:
293,114,176696,6,0,P|242:84|203:80,1,71.9999978027344,4|0,0:3|0:3,0:0:0:0:
63,179,176911,2,0,P|97:167|125:146,1,71.9999978027344,2|0,0:3|0:3,0:0:0:0:
26,10,177125,6,0,L|31:109,1,71.9999978027344,12|0,3:1|0:0,0:0:0:0:
128,189,177339,1,0,0:0:0:0:
128,189,177446,1,0,0:0:0:0:
52,105,177554,2,0,L|58:-2,1,71.9999978027344,8|0,0:1|0:0,0:0:0:0:
175,0,177768,1,2,3:3:0:0:
175,0,177875,1,0,0:0:0:0:
81,52,177982,2,0,L|87:159,1,71.9999978027344,8|0,0:1|0:0,0:0:0:0:
252,181,178196,2,0,L|246:288,1,71.9999978027344,2|0,3:3|0:0,0:0:0:0:
66,337,178411,5,8,1:1:0:0:
150,273,178518,1,0,1:0:0:0:
248,288,178625,1,10,1:1:0:0:
333,349,178732,1,0,1:0:0:0:
413,299,178839,6,0,P|435:227|506:192,1,143.999995605469,12|2,3:1|0:0,0:0:0:0:
512,190,179161,1,0,0:0:0:0:
369,249,179268,2,0,P|376:284|398:313,1,71.9999978027344,8|0,1:1|0:0,0:0:0:0:
512,190,179482,2,0,P|484:169|449:162,1,71.9999978027344,2|0,0:0|0:0,0:0:0:0:
286,170,179696,6,0,L|121:186,1,143.999995605469,8|2,3:1|0:0,0:0:0:0:
121,184,180018,1,0,0:0:0:0:
310,193,180125,2,0,L|297:264,1,71.9999978027344,8|0,1:1|0:0,0:0:0:0:
132,348,180339,2,0,L|119:278,1,71.9999978027344,10|0,1:0|0:0,0:0:0:0:
194,45,180554,5,12,3:1:0:0:
150,158,180661,1,0,0:0:0:0:
68,155,180768,1,2,0:0:0:0:
39,84,180875,1,0,0:0:0:0:
75,68,180982,6,0,L|150:68,1,71.9999978027344,8|0,3:1|0:0,0:0:0:0:
295,67,181196,2,0,L|370:67,1,71.9999978027344,2|0,0:0|0:0,0:0:0:0:
503,67,181411,5,8,3:1:0:0:
464,67,181518,1,0,0:0:0:0:
367,67,181625,2,0,L|295:67,1,71.9999978027344,2|0,1:0|0:0,0:0:0:0:
75,68,181839,2,0,L|147:68,1,71.9999978027344,8|0,0:1|0:0,0:0:0:0:
367,67,182054,2,0,L|295:67,1,71.9999978027344,2|0,1:0|0:0,0:0:0:0:
122,189,182268,5,8,1:1:0:0:
220,154,182482,1,2,3:3:0:0:
220,154,182589,1,0,0:0:0:0:
313,173,182696,5,8,0:1:0:0:
217,200,182911,1,2,3:3:0:0:
217,200,183018,1,0,0:0:0:0:
122,189,183125,6,0,L|136:275,1,71.9999978027344,8|0,0:1|0:0,0:0:0:0:
265,384,183339,1,2,0:2:0:0:
265,384,183446,1,0,0:3:0:0:
301,288,183554,2,0,P|317:264|362:235,1,71.9999978027344,4|0,0:3|0:3,0:0:0:0:
462,234,183768,2,0,P|491:253|512:283,1,71.9999978027344,2|0,0:3|0:3,0:0:0:0:
400,369,183982,5,12,3:1:0:0:
420,256,184196,1,0,0:0:0:0:
420,256,184304,1,0,0:0:0:0:
387,349,184411,5,8,0:1:0:0:
353,223,184625,1,2,3:3:0:0:
353,223,184733,1,0,0:0:0:0:
386,316,184839,6,0,L|388:232,1,71.9999978027344,12|0,0:1|0:0,0:0:0:0:
269,100,185054,2,0,P|301:109|330:146,1,71.9999978027344,2|0,3:3|0:0,0:0:0:0:
239,333,185268,1,8,0:1:0:0:
149,232,185375,1,0,0:0:0:0:
213,171,185482,1,10,3:1:0:0:
255,184,185589,1,0,0:0:0:0:
187,282,185696,6,0,P|126:247|98:151,1,143.999995605469,12|2,3:1|0:0,0:0:0:0:
91,168,186018,1,0,0:0:0:0:
137,331,186125,2,0,P|171:318|197:295,1,71.9999978027344,8|0,1:1|0:0,0:0:0:0:
91,168,186339,2,0,P|65:193|51:226,1,71.9999978027344,2|0,0:0|0:0,0:0:0:0:
214,184,186554,6,0,L|379:166,1,143.999995605469,8|2,3:1|0:0,0:0:0:0:
380,163,186875,1,0,0:0:0:0:
262,68,186982,2,0,L|249:139,1,71.9999978027344,8|0,1:1|0:0,0:0:0:0:
479,213,187196,2,0,L|465:142,1,71.9999978027344,10|0,1:0|0:0,0:0:0:0:
293,26,187411,5,12,3:1:0:0:
306,122,187518,1,0,0:0:0:0:
382,133,187625,1,2,0:0:0:0:
402,98,187732,1,0,0:0:0:0:
308,151,187839,5,8,3:1:0:0:
310,185,187946,1,0,0:0:0:0:
240,224,188054,1,2,0:0:0:0:
245,262,188161,1,0,0:0:0:0:
311,314,188268,6,0,P|283:308|236:336,1,71.9999978027344,8|0,3:1|0:0,0:0:0:0:
80,150,188482,2,0,P|108:144|155:172,1,71.9999978027344,2|0,1:0|0:0,0:0:0:0:
346,343,188696,2,0,L|337:254,1,71.9999978027344,8|0,0:1|0:0,0:0:0:0:
56,113,188911,2,0,L|49:185,1,71.9999978027344,2|0,1:0|0:0,0:0:0:0:
313,153,189125,6,0,L|241:163,1,71.9999978027344,12|0,1:1|0:0,0:0:0:0:
135,55,189339,2,0,L|206:65,1,71.9999978027344,2|0,3:3|0:0,0:0:0:0:
424,48,189554,2,0,L|352:58,1,71.9999978027344,8|0,1:1|0:0,0:0:0:0:
152,164,189768,1,2,3:3:0:0:
251,263,189875,1,0,0:0:0:0:
210,287,189982,6,0,L|217:200,1,71.9999978027344,8|0,0:1|0:0,0:0:0:0:
458,189,190196,1,2,1:2:0:0:
400,282,190304,2,0,P|382:263|380:234,1,35.9999989013672,0|0,1:3|0:0,0:0:0:0:
436,225,190411,2,0,L|427:322,1,71.9999978027344,4|0,1:3|0:3,0:0:0:0:
269,357,190625,1,2,3:3:0:0:
170,354,190732,1,0,0:3:0:0:
169,361,190786,1,0,0:0:0:0:
136,375,190839,6,0,L|135:233,1,120,0|0,1:0|0:0,0:0:0:0:
170,354,191268,2,0,L|170:234,1,120,0|0,1:0|0:0,0:0:0:0:
210,329,191696,2,0,L|209:209,1,120,0|0,1:0|0:0,0:0:0:0:
246,302,192125,2,0,L|247:160,1,120,0|0,1:0|0:0,0:0:0:0:
409,92,192554,5,8,1:0:0:0:
511,108,192768,2,0,L|432:99,1,60,0|0,0:0|0:0,0:0:0:0:
307,76,192982,1,10,0:1:0:0:
409,92,193196,2,0,L|327:111,1,60,0|0,0:0|0:0,0:0:0:0:
208,102,193411,1,10,0:1:0:0:
307,76,193625,2,0,L|228:67,1,60,0|0,0:0|0:0,0:0:0:0:
92,44,193839,2,0,P|107:86|133:110,1,60,10|0,1:1|0:0,0:0:0:0:
249,143,194054,2,0,P|220:108|187:95,1,60,0|0,0:1|0:0,0:0:0:0:
145,240,194268,5,8,1:0:0:0:
248,183,194482,2,0,P|254:219|240:260,1,60,0|0,0:0|0:0,0:0:0:0:
148,275,194696,1,10,0:1:0:0:
117,195,194911,2,0,P|111:231|125:272,1,60,0|0,0:0|0:0,0:0:0:0:
218,309,195125,2,0,P|255:294|281:258,1,60,10|0,0:1|0:0,0:0:0:0:
327,139,195339,2,0,L|336:221,1,60,10|8,0:1|0:1,0:0:0:0:
378,301,195554,5,0,1:0:0:0:
366,217,195661,1,0,0:0:0:0:
390,182,195768,1,2,0:0:0:0:
413,179,195875,1,0,0:0:0:0:
446,251,195982,5,8,1:0:0:0:
478,344,196196,2,0,L|471:285,1,60,0|0,0:0|0:0,0:0:0:0:
424,127,196411,1,10,0:1:0:0:
411,24,196625,2,0,L|403:83,1,60,0|0,0:0|0:0,0:0:0:0:
391,241,196839,1,10,0:1:0:0:
374,334,197053,2,0,L|366:274,1,60,0|0,0:0|0:0,0:0:0:0:
257,143,197268,2,0,P|231:168|225:212,1,60,10|0,1:1|0:0,0:0:0:0:
288,325,197482,2,0,P|277:297|254:277,1,60,0|0,0:1|0:0,0:0:0:0:
84,284,197696,5,8,1:0:0:0:
26,219,197911,2,0,P|70:229|96:255,1,60,0|0,0:0|0:0,0:0:0:0:
170,328,198125,1,10,0:1:0:0:
228,263,198339,2,0,P|184:273|158:299,1,60,0|0,0:0|0:0,0:0:0:0:
83,384,198554,2,0,L|77:307,1,60,10|0,0:1|0:0,0:0:0:0:
167,239,198768,2,0,L|173:162,1,60,10|8,0:1|0:1,0:0:0:0:
194,43,198982,1,0,1:0:0:0:
197,70,199089,1,0,0:0:0:0:
230,106,199196,1,2,0:0:0:0:
309,111,199304,1,0,0:0:0:0:
383,30,199411,5,8,1:0:0:0:
449,198,199625,1,0,0:0:0:0:
455,165,199732,1,0,0:0:0:0:
463,132,199839,1,10,0:1:0:0:
454,310,200054,5,0,0:0:0:0:
298,216,200268,1,10,0:1:0:0:
440,376,200482,5,0,0:0:0:0:
446,343,200589,1,0,0:0:0:0:
454,310,200696,2,0,P|440:283|398:263,1,60,10|0,1:1|0:0,0:0:0:0:
263,378,200911,2,0,P|293:376|318:360,1,60,0|0,0:1|0:0,0:0:0:0:
162,243,201125,6,0,L|89:236,2,60,8|0|2,1:0|0:0|0:0,0:0:0:0:
273,247,201446,1,0,0:0:0:0:
193,277,201554,2,0,L|182:144,1,120,10|0,0:1|0:0,0:0:0:0:
270,17,201875,1,0,0:0:0:0:
256,108,201982,5,10,0:1:0:0:
357,129,202196,2,0,L|279:127,1,60,10|8,0:1|0:1,0:0:0:0:
129,141,202411,5,0,1:0:0:0:
106,230,202625,2,0,P|129:209|144:184,1,60,2|0,0:0|0:0,0:0:0:0:
22,51,202839,6,0,L|40:177,1,120,8|0,1:0|0:0,0:0:0:0:
12,266,203161,1,0,0:0:0:0:
106,230,203268,2,0,L|93:370,1,120,10|0,0:1|0:0,0:0:0:0:
12,266,203589,1,0,0:0:0:0:
134,302,203696,2,0,L|210:311,1,60,10|0,0:1|0:0,0:0:0:0:
12,266,203911,1,0,0:0:0:0:
132,207,204018,2,0,L|191:199,2,60,0|10|0,0:0|1:1|0:0,0:0:0:0:
231,306,204339,6,0,L|352:321,1,120,0|8,0:1|1:0,0:0:0:0:
350,320,204768,1,0,0:0:0:0:
350,320,204875,1,0,0:0:0:0:
351,206,204982,2,0,P|378:217|399:240,1,60,10|0,0:1|0:0,0:0:0:0:
442,323,205196,2,0,P|471:316|494:298,1,60,0|0,0:0|0:0,0:0:0:0:
459,171,205411,2,0,L|453:93,1,60,10|0,0:1|0:0,0:0:0:0:
344,86,205625,2,0,L|350:8,1,60,10|8,0:1|0:1,0:0:0:0:
459,171,205839,2,0,L|453:93,1,60,0|0,1:0|0:0,0:0:0:0:
346,266,206054,2,0,L|352:188,1,60,2|0,0:0|0:0,0:0:0:0:
444,348,206268,5,8,0:1:0:0:
444,348,206482,2,0,P|409:330|367:331,1,60,2|0,0:1|0:1,0:0:0:0:
321,155,206696,2,0,P|340:177|350:205,1,60,10|0,0:1|0:1,0:0:0:0:
275,375,206911,2,0,P|286:337|278:296,1,60,2|0,0:1|0:1,0:0:0:0:
227,158,207125,2,0,P|218:196|190:227,1,60,10|0,0:1|0:1,0:0:0:0:
38,266,207339,2,0,P|82:265|107:286,2,60,2|0|8,0:0|0:0|1:0,0:0:0:0:
10,358,207661,1,0,0:0:0:0:
99,299,207768,2,0,L|170:300,1,60,2|0,1:0|0:0,0:0:0:0:
305,270,207982,5,8,0:1:0:0:
299,294,208196,1,10,0:1:0:0:
242,223,208304,1,0,0:0:0:0:
225,134,208411,1,8,0:1:0:0:
305,270,208625,5,10,0:1:0:0:
325,184,208733,1,8,0:1:0:0:
365,107,208839,2,0,P|384:82|484:85,1,120,8|2,0:1|0:1,0:0:0:0:
480,96,209161,1,0,0:0:0:0:
403,35,209268,2,0,P|374:27|332:33,1,60,10|0,0:1|0:0,0:0:0:0:
207,111,209482,2,0,P|185:140|171:172,1,60,10|0,0:1|0:0,0:0:0:0:
118,271,209696,6,0,P|89:202|42:175,1,120,8|2,0:1|0:0,0:0:0:0:
23,183,210018,1,0,0:0:0:0:
127,231,210125,2,0,P|201:240|248:213,1,120,8|2,0:1|0:0,0:0:0:0:
250,192,210447,1,0,0:0:0:0:
157,258,210554,2,0,P|111:317|111:371,1,120,8|0,0:1|0:0,0:0:0:0:
129,384,210876,1,0,0:0:0:0:
214,340,210982,2,0,P|274:320|293:325,1,60,8|0,0:1|0:0,0:0:0:0:
368,323,211196,2,0,P|426:346|438:362,1,60,10|0,1:1|0:0,0:0:0:0:
512,384,211411,5,8,0:1:0:0:
496,363,211518,1,0,0:0:0:0:
464,297,211625,1,2,0:0:0:0:
497,207,211732,1,0,0:0:0:0:
401,142,211839,2,0,P|403:181|424:212,1,60,8|0,0:1|0:0,0:0:0:0:
506,106,212054,1,2,1:0:0:0:
506,106,212161,1,0,0:0:0:0:
402,117,212268,6,0,P|410:76|423:58,2,60,8|0|10,0:1|0:0|1:1,0:0:0:0:
507,73,212589,1,0,0:0:0:0:
384,43,212696,2,0,P|356:34|306:47,1,60,2|0,0:0|0:0,0:0:0:0:
185,95,212911,2,0,P|213:86|263:99,1,60,2|0,0:0|0:0,0:0:0:0:
324,193,213125,6,0,L|192:178,1,120,8|2,1:0|0:0,0:0:0:0:
190,178,213446,1,0,0:0:0:0:
80,236,213554,2,0,L|212:221,1,120,8|2,1:0|1:0,0:0:0:0:
214,220,213875,1,0,0:0:0:0:
324,281,213982,2,2,L|192:266,1,120,8|0,1:0|0:0,0:0:0:0:
189,267,214304,1,0,0:0:0:0:
88,337,214411,2,0,L|151:342,1,60,8|0,1:0|0:0,0:0:0:0:
255,384,214625,2,0,L|315:380,1,60,2|0,1:0|0:0,0:0:0:0:
427,309,214839,5,8,1:0:0:0:
417,285,214946,1,0,0:0:0:0:
344,303,215054,2,0,P|372:321|413:327,2,60,10|0|8,0:1|0:0|0:1,0:0:0:0:
509,235,215482,5,10,0:1:0:0:
492,252,215589,1,8,0:1:0:0:
461,172,215696,2,0,L|477:40,1,120,8|2,0:1|0:1,0:0:0:0:
490,29,216018,1,0,0:0:0:0:
390,76,216125,2,0,L|318:94,1,60,10|0,0:1|0:0,0:0:0:0:
284,206,216339,2,0,L|224:195,1,60,10|0,0:1|0:0,0:0:0:0:
130,102,216554,6,0,P|147:167|132:244,1,120,8|2,0:1|0:0,0:0:0:0:
259,271,216875,1,0,0:0:0:0:
279,182,216982,2,0,P|214:164|155:112,1,120,8|2,0:1|0:0,0:0:0:0:
51,253,217304,1,0,0:0:0:0:
135,271,217411,2,0,P|182:223|256:198,1,120,8|0,0:1|0:0,0:0:0:0:
371,228,217732,1,0,0:0:0:0:
264,253,217839,2,0,P|268:207|278:177,1,60,8|0,0:1|0:0,0:0:0:0:
362,133,218054,2,0,P|361:103|355:74,1,60,10|0,1:1|0:0,0:0:0:0:
212,96,218268,5,8,0:1:0:0:
221,110,218375,1,0,0:0:0:0:
251,133,218482,1,2,0:0:0:0:
325,128,218589,1,0,0:0:0:0:
406,155,218696,1,8,0:1:0:0:
432,30,218911,5,2,1:0:0:0:
440,48,219018,1,0,0:0:0:0:
468,117,219125,1,8,0:1:0:0:
472,215,219232,2,0,P|475:186|464:159,1,60,0|10,0:0|1:1,0:0:0:0:
344,233,219446,2,0,P|371:221|389:197,1,60,0|2,0:0|0:0,0:0:0:0:
394,245,219768,1,2,0:0:0:0:
389,271,219875,1,2,0:0:0:0:
378,314,219982,6,0,B|280:314|280:314|262:305|262:305|244:314|244:314|119:314,2,240,8|4|8,1:0|0:3|1:0,0:0:0:0:
395,327,221054,1,0,0:0:0:0:
403,307,221161,1,0,0:0:0:0:
354,229,221268,2,0,P|324:214|281:216,1,60,8|0,0:1|0:0,0:0:0:0:
291,119,221482,2,0,P|258:126|226:155,1,60,2|0,0:0|0:0,0:0:0:0:
73,71,221696,6,0,L|250:74,1,120,8|2,1:1|0:0,0:0:0:0:
196,63,222018,1,0,0:0:0:0:
126,192,222125,2,0,P|129:132|98:82,1,120,4|2,0:3|0:0,0:0:0:0:
218,272,222446,1,0,0:0:0:0:
135,221,222554,2,0,P|213:176|256:179,1,120,8|2,1:0|0:0,0:0:0:0:
250,181,222875,1,0,0:0:0:0:
337,265,222982,2,0,L|208:272,1,120,10|0,0:1|0:0,0:0:0:0:
146,323,223304,1,0,0:0:0:0:
261,352,223411,6,0,B|362:352|362:352|390:371|390:371|505:372,2,240,8|4|8,1:0|0:3|1:0,0:0:0:0:
235,328,224482,2,0,P|225:298|167:278,1,60,0|0,0:0|0:0,0:0:0:0:
118,311,224696,2,0,L|291:275,2,120,4|2|8,0:3|0:0|1:1,0:0:0:0:
114,278,225232,2,0,P|91:297|83:326,2,60,0|2|0,0:0|0:0|0:0,0:0:0:0:
141,137,225661,2,0,P|164:157|173:185,2,60,0|2|0,0:0|0:0|0:0,0:0:0:0:
18,193,225982,6,0,L|90:198,1,60,8|0,1:0|0:0,0:0:0:0:
254,332,226196,1,2,0:0:0:0:
173,273,226304,2,0,L|114:278,1,60,0|4,0:0|0:3,0:0:0:0:
343,204,226625,1,2,0:0:0:0:
339,169,226732,1,2,0:0:0:0:
266,152,226839,6,0,B|357:152|357:152|418:192|418:192|503:188,2,240,8|4|8,1:0|0:3|1:0,0:0:0:0:
238,147,227911,1,0,0:0:0:0:
232,122,228018,1,0,0:0:0:0:
163,71,228125,2,0,L|73:74,1,60,8|0,0:1|0:0,0:0:0:0:
67,157,228339,2,0,L|8:156,1,60,2|0,0:0|0:0,0:0:0:0:
79,39,228554,1,8,1:1:0:0:
91,62,228661,1,0,0:0:0:0:
101,145,228768,1,2,0:0:0:0:
47,212,228875,1,0,0:0:0:0:
135,137,228982,5,4,0:3:0:0:
194,232,229196,1,2,0:0:0:0:
161,152,229303,1,0,0:0:0:0:
184,265,229411,5,8,0:1:0:0:
189,301,229625,1,2,0:0:0:0:
231,235,229732,1,0,0:0:0:0:
326,207,229839,2,0,P|360:229|372:261,1,60,4|0,0:3|0:0,0:0:0:0:
277,369,230054,2,0,P|273:339|285:312,1,60,0|0,0:0|0:0,0:0:0:0:
500,336,230268,6,0,L|360:330,1,120,8|0,0:1|0:0,0:0:0:0:
364,323,230589,1,0,0:0:0:0:
472,299,230696,2,0,P|413:282|353:223,1,120,4|0,0:3|0:0,0:0:0:0:
374,227,231017,1,0,0:0:0:0:
452,263,231125,2,0,P|409:218|425:135,1,120,8|0,0:1|0:0,0:0:0:0:
435,165,231446,1,0,0:0:0:0:
307,169,231554,5,6,0:3:0:0:
512,199,231768,1,0,0:0:0:0:
315,52,231982,6,0,P|299:122|309:176,1,120,8|0,0:1|0:0,0:0:0:0:
346,347,232411,2,0,P|287:305|258:258,1,120,4|8,0:3|0:1,0:0:0:0:
169,125,232732,1,0,0:0:0:0:
142,67,232839,2,0,P|130:134|104:184,1,120,6|8,0:3|0:1,0:0:0:0:
93,186,233161,1,8,0:1:0:0:
169,125,233268,2,0,P|206:132|240:149,1,60,4|0,0:3|0:0,0:0:0:0:
300,228,233482,2,0,P|263:235|229:252,1,60,0|8,0:0|0:1,0:0:0:0:
130,328,233696,5,8,0:1:0:0:
147,363,233911,1,0,0:0:0:0:
157,288,234018,1,0,0:0:0:0:
167,213,234125,5,10,0:1:0:0:
310,303,234339,1,0,0:0:0:0:
300,228,234446,1,0,0:0:0:0:
290,153,234554,5,8,0:1:0:0:
167,213,234768,1,0,0:0:0:0:
180,135,234875,1,0,0:0:0:0:
114,48,234982,1,8,0:1:0:0:
141,69,235089,1,0,0:0:0:0:
231,73,235196,1,10,0:1:0:0:
258,52,235303,1,0,0:0:0:0:
348,60,235411,5,8,0:1:0:0:
369,107,235625,1,0,0:0:0:0:
449,15,235732,1,0,0:0:0:0:
395,98,235839,2,0,L|410:224,1,120,8|10,0:1|0:1,0:0:0:0:
393,242,236161,1,0,0:0:0:0:
498,208,236268,2,0,P|446:204|383:266,1,120,8|10,0:1|0:1,0:0:0:0:
389,262,236589,1,8,0:1:0:0:
494,347,236696,2,0,P|467:332|439:324,1,60,8|0,0:1|0:0,0:0:0:0:
338,326,236911,2,0,P|309:333|283:348,1,60,2|0,0:0|0:0,0:0:0:0:
157,349,237125,6,0,L|48:340,1,107.999996704102,8|2,0:1|0:0,0:0:0:0:
94,257,237554,2,0,L|202:249,1,107.999996704102,8|2,0:1|0:0,0:0:0:0:
244,158,237982,2,0,L|135:149,1,107.999996704102,8|0,0:1|0:0,0:0:0:0:
181,66,238411,2,0,L|289:58,2,107.999996704102,8|10|8,0:1|1:1|0:1,0:0:0:0:
63,105,239161,5,0,0:0:0:0:
66,122,239268,1,8,0:1:0:0:
27,204,239589,5,0,0:0:0:0:
32,222,239696,1,8,0:1:0:0:
103,321,239911,1,10,0:1:0:0:
116,284,240018,5,0,0:0:0:0:
127,251,240125,2,0,L|199:246,1,53.9999983520508,0|2,1:0|1:0,0:0:0:0:
231,166,240286,2,0,L|223:127,1,26.9999991760254,0|2,0:0|1:0,0:0:0:0:
193,271,240446,1,0,0:0:0:0:
245,193,240554,6,0,L|257:85,1,107.999996704102,8|0,0:1|0:0,0:0:0:0:
387,74,240875,1,0,0:0:0:0:
403,111,240982,2,0,L|395:164,1,53.9999983520508,10|0,0:1|0:0,0:0:0:0:
326,256,241196,1,0,0:0:0:0:
512,346,241411,1,8,0:1:0:0:
465,232,241625,5,0,0:0:0:0:
447,262,241732,1,0,0:0:0:0:
425,233,241839,2,0,L|421:166,1,53.9999983520508,8|0,0:1|0:0,0:0:0:0:
324,152,242054,2,0,L|337:38,1,107.999996704102,10|8,0:1|0:1,0:0:0:0:
172,59,242482,1,0,0:0:0:0:
211,46,242589,1,0,0:0:0:0:
210,63,242696,5,8,0:1:0:0:
154,183,242911,1,10,0:1:0:0:
142,169,243018,1,0,0:0:0:0:
112,164,243125,2,0,P|92:192|94:219,1,53.9999983520508,8|0,0:1|0:0,0:0:0:0:
195,306,243339,2,0,P|191:279|174:259,1,53.9999983520508,10|8,0:1|0:1,0:0:0:0:
102,321,243554,2,0,L|48:313,1,53.9999983520508,8|0,0:1|0:0,0:0:0:0:
0,205,243768,2,0,L|53:212,1,53.9999983520508,2|0,0:0|0:0,0:0:0:0:
154,183,243982,5,10,0:1:0:0:
206,187,244411,5,10,0:1:0:0:
252,191,244839,5,10,0:1:0:0:
299,194,245268,5,10,0:1:0:0:
83,201,245482,1,10,1:1:0:0:
346,199,245696,5,8,0:1:0:0:
443,377,245911,1,2,0:0:0:0:
438,357,246018,1,0,0:0:0:0:
442,271,246125,1,8,0:1:0:0:
479,272,246232,2,0,P|494:280|504:304,2,26.9999991760254,0|0|2,0:0|0:0|0:0,0:0:0:0:
371,311,246446,1,0,0:0:0:0:
425,235,246554,6,0,L|423:108,2,107.999996704102,8|10|2,0:1|0:1|1:0,0:0:0:0:
351,291,247089,1,2,0:0:0:0:
291,228,247196,2,0,P|231:210|172:231,1,107.999996704102,2|0,0:0|0:0,0:0:0:0:
67,156,247625,5,8,0:1:0:0:
83,119,247696,5,8,0:1:0:0:
158,124,247768,5,8,0:1:0:0:
226,54,247839,5,10,0:1:0:0:
