osu file format v14

[General]
AudioFilename: audio.mp3
AudioLeadIn: 0
PreviewTime: 33053
Countdown: 0
SampleSet: Soft
StackLeniency: 0.5
Mode: 0
LetterboxInBreaks: 0
WidescreenStoryboard: 0

[Editor]
Bookmarks: 27653,33139,44110,55082
DistanceSpacing: 1.7
BeatDivisor: 12
GridSize: 32
TimelineZoom: 3.499999

[Metadata]
Title:Revolution
TitleUnicode:Revolution
Artist:Tanchiky
ArtistUnicode:Tanchiky
Creator:Ascended
Version:Insane
Source:
Tags:drumstep electronic instrumental featured artist fa mappers' guild mpg mg 4th fourth revolt Riparia Records kuyusu mbc monthly beatmapping contest july 2021
BeatmapID:4458092
BeatmapSetID:2121604

[Difficulty]
HPDrainRate:5
CircleSize:4
OverallDifficulty:8
ApproachRate:9
SliderMultiplier:2
SliderTickRate:1

[Events]
//Background and Video events
0,0,"ascended normal bg challenge (possible).jpg",0,0
//Break Periods
//Storyboard Layer 0 (Background)
//Storyboard Layer 1 (Fail)
//Storyboard Layer 2 (Pass)
//Storyboard Layer 3 (Foreground)
//Storyboard Layer 4 (Overlay)
//Storyboard Sound Samples

[TimingPoints]
225,342.857142857143,4,2,1,60,1,0
225,-200,4,2,1,60,0,0
739,-200,4,2,1,60,0,0
5025,-100,4,2,1,60,0,0
5710,-83.3333333333333,4,2,1,70,0,0
8796,-133.333333333333,4,2,1,70,0,0
9139,-83.3333333333333,4,2,1,70,0,0
9825,-100,4,2,1,70,0,0
11196,-83.3333333333333,4,2,1,70,0,0
16167,-100,4,2,1,70,0,0
16682,-83.3333333333333,4,2,1,70,0,0
25596,-90.9090909090909,4,2,1,70,0,0
25939,-83.3333333333333,4,2,1,70,0,0
27310,-71.4285714285714,4,2,1,70,0,0
27653,-200,4,2,1,60,0,0
32453,-100,4,2,1,60,0,0
32796,-100,4,2,1,60,0,0
33139,-83.3333333333333,4,2,1,80,0,0
33482,-62.5,4,2,1,80,0,0
33825,-66.6666666666667,4,2,1,80,0,0
34682,-83.3333333333333,4,2,1,80,0,0
35196,-100,4,2,1,80,0,0
36225,-66.6666666666667,4,2,1,80,0,0
36567,-100,4,2,1,80,0,0
36910,-66.6666666666667,4,2,1,80,0,0
37939,-100,4,2,1,80,0,0
38282,-66.6666666666667,4,2,1,80,0,0
38625,-100,4,2,1,80,0,0
38967,-76.9230769230769,4,2,1,80,0,0
39310,-66.6666666666667,4,2,1,80,0,0
39653,-100,4,2,1,80,0,0
40167,-76.9230769230769,4,2,1,80,0,0
42739,-66.6666666666667,4,2,1,80,0,0
43253,-66.6666666666667,4,2,1,80,0,0
43596,-100,4,2,1,80,0,0
44110,-76.9230769230769,4,2,1,80,0,0
44453,-83.3333333333333,4,2,1,80,0,0
49596,-83.3333333333333,4,2,1,80,0,0
53710,-66.6666666666667,4,2,1,80,0,0
54225,-66.6666666666667,4,2,1,80,0,0
54567,-66.6666666666667,4,2,1,80,0,0
55082,-200,4,2,1,60,0,0
59882,-100,4,2,1,60,0,0

[Colours]
Combo1 : 70,83,236
Combo2 : 131,142,243

[HitObjects]
273,286,225,6,0,P|275:250|266:284,1,100,4|0,1:2|0:0,0:0:0:0:
213,356,739,6,0,B|322:328|273:284|402:255,1,200,12|0,0:0|0:0,0:0:0:0:
468,258,1596,6,0,P|496:267|521:287,1,50,4|0,0:0|0:0,0:0:0:0:
425,182,1939,2,0,P|446:162|476:150,1,50,2|0,0:3|0:0,0:0:0:0:
343,183,2282,2,0,P|336:154|341:122,1,50,2|0,0:3|0:0,0:0:0:0:
283,283,2625,5,2,0:3:0:0:
286,276,2710,1,2,0:3:0:0:
293,279,2796,1,2,0:3:0:0:
289,286,2882,1,2,0:3:0:0:
287,265,2967,2,0,P|289:301|280:267,1,100,4|0,1:2|0:0,0:0:0:0:
361,384,3482,6,0,P|290:339|170:325,1,200,12|0,0:0|0:0,0:0:0:0:
80,357,4339,6,0,P|53:374|30:380,1,50,12|0,0:0|0:0,0:0:0:0:
103,257,4682,2,0,P|74:242|58:225,1,50,12|0,0:0|0:0,0:0:0:0:
192,228,5025,6,0,B|202:183|202:183|185:154,2,66.6666666666667,2|2|2,0:3|0:3|0:3,0:0:0:0:
176,324,5367,1,10,0:2:0:0:
178,0,5710,5,0,1:2:0:0:
17,74,5882,2,0,P|73:104|139:87,1,119.999996337891,2|8,0:2|0:2,0:2:0:0:
182,4,6225,5,0,0:2:0:0:
130,99,6396,2,0,P|72:107|21:78,1,119.999996337891,2|0,1:2|0:2,0:2:0:0:
186,8,6739,5,8,0:2:0:0:
25,82,6910,2,0,P|81:112|147:95,1,119.999996337891,2|0,0:2|1:2,0:2:0:0:
190,12,7253,5,0,0:2:0:0:
138,107,7425,2,0,P|80:115|29:86,1,119.999996337891,10|0,0:2|0:2,0:2:0:0:
194,16,7767,5,0,1:2:0:0:
33,90,7939,2,0,P|89:120|155:103,1,119.999996337891,2|8,0:2|0:2,0:2:0:0:
198,20,8282,5,0,0:2:0:0:
284,76,8453,1,2,1:2:0:0:
284,76,8539,1,2,0:2:0:0:
284,76,8625,1,2,0:2:0:0:
226,181,8796,6,0,L|232:140,1,37.5000014305115,10|0,0:2|0:2,0:2:0:0:
303,198,8967,2,0,L|309:157,1,37.5000014305115,2|0,0:2|0:2,0:2:0:0:
235,272,9139,6,0,P|298:235|408:240,1,179.999994506836,2|0,1:2|0:2,0:2:0:0:
405,252,9482,2,0,P|326:293|237:286,1,179.999994506836,10|0,0:2|0:2,0:2:0:0:
226,280,9825,2,0,L|120:299,1,100,2|0,1:2|0:2,0:2:0:0:
0,384,10167,2,0,B|10:258|38:326|49:188,1,200,10|0,0:2|1:2,0:2:0:0:
45,90,10682,6,0,L|-5:111,1,50,2|0,1:3|0:2,0:2:0:0:
60,74,10853,2,0,L|66:19,1,50,8|0,0:2|0:2,0:2:0:0:
71,95,11025,2,0,L|114:127,1,50,0|0,1:3|0:2,0:2:0:0:
182,175,11196,5,4,1:2:0:0:
322,59,11368,2,0,P|270:88|212:80,1,119.999996337891,2|8,0:2|0:2,0:2:0:0:
186,179,11711,5,0,0:2:0:0:
329,50,11882,2,0,P|380:20|438:28,1,119.999996337891,2|0,1:2|0:2,0:2:0:0:
190,183,12225,5,8,0:2:0:0:
323,67,12396,2,0,P|271:96|213:88,1,119.999996337891,2|0,0:2|1:2,0:2:0:0:
194,187,12739,5,0,0:2:0:0:
330,58,12910,2,0,P|381:28|439:36,1,119.999996337891,10|0,0:2|0:2,0:2:0:0:
198,191,13253,5,0,1:2:0:0:
325,77,13425,2,0,P|273:106|215:98,1,119.999996337891,2|8,0:2|0:2,0:2:0:0:
202,195,13768,5,0,0:2:0:0:
252,293,13939,1,2,1:2:0:0:
252,293,14025,1,2,0:2:0:0:
252,293,14110,1,2,0:2:0:0:
504,222,14282,6,0,L|321:252,1,179.999994506836,8|0,0:2|0:2,0:2:0:0:
293,167,14625,2,0,P|352:165|400:198,1,119.999996337891,0|0,1:2|0:2,0:2:0:0:
252,293,14967,2,0,L|129:273,1,119.999996337891,8|0,0:2|0:2,0:2:0:0:
35,183,15310,5,0,1:2:0:0:
73,194,15395,1,0,1:2:0:0:
112,189,15481,1,2,0:3:0:0:
147,170,15567,1,2,0:3:0:0:
172,139,15652,1,8,0:2:0:0:
84,98,15825,5,2,1:2:0:0:
133,273,15996,1,0,1:2:0:0:
256,61,16167,6,0,L|298:27,1,50,2|0,1:2|0:2,0:2:0:0:
234,66,16338,2,0,L|182:45,1,50,8|0,0:2|0:2,0:2:0:0:
251,95,16510,5,8,0:0:0:0:
257,147,16596,1,8,0:0:0:0:
265,203,16682,1,4,1:2:0:0:
458,122,16853,2,0,L|334:144,1,119.999996337891,2|8,0:2|0:2,0:2:0:0:
269,207,17195,5,0,0:2:0:0:
343,146,17367,2,0,L|462:126,1,119.999996337891,2|0,1:2|0:2,0:2:0:0:
273,211,17710,5,8,0:2:0:0:
465,129,17882,2,0,L|347:150,1,119.999996337891,2|0,0:2|1:2,0:2:0:0:
277,215,18225,5,0,0:2:0:0:
350,153,18396,2,0,L|469:133,1,119.999996337891,10|0,0:2|0:2,0:2:0:0:
281,219,18739,5,0,1:2:0:0:
472,136,18910,2,0,L|354:157,1,119.999996337891,2|8,0:2|0:2,0:2:0:0:
285,223,19253,5,0,0:2:0:0:
197,204,19425,1,2,1:2:0:0:
197,204,19510,1,2,0:2:0:0:
197,204,19596,1,2,0:2:0:0:
270,364,19767,6,0,P|261:335|261:296,1,59.9999981689454,10|0,0:2|0:2,0:2:0:0:
339,294,19939,2,0,P|348:323|348:362,1,59.9999981689454,2|0,0:2|0:2,0:2:0:0:
281,219,20110,6,0,L|294:34,1,179.999994506836,2|0,1:2|0:2,0:2:0:0:
297,43,20453,2,0,L|285:223,1,179.999994506836,10|0,0:2|0:2,0:2:0:0:
280,227,20796,1,2,1:2:0:0:
197,204,20967,1,2,0:2:0:0:
9,319,21139,2,0,P|92:342|160:287,1,179.999994506836,10|0,0:2|0:2,0:2:0:0:
160,288,21482,1,2,1:2:0:0:
55,172,21654,6,0,L|-1:148,1,59.9999981689454,2|0,1:3|0:2,0:2:0:0:
73,192,21825,2,0,L|79:253,1,59.9999981689454,10|0,0:2|0:2,0:2:0:0:
86,169,21997,2,0,L|134:133,1,59.9999981689454,2|0,1:3|0:2,0:2:0:0:
55,58,22167,5,4,1:2:0:0:
221,120,22339,2,0,L|234:0,1,119.999996337891,2|8,0:2|0:2,0:2:0:0:
59,62,22682,5,0,0:2:0:0:
232,126,22853,2,0,L|245:245,1,119.999996337891,2|0,1:2|0:2,0:2:0:0:
63,66,23197,5,8,0:2:0:0:
240,128,23367,2,0,L|253:8,1,119.999996337891,2|0,0:2|1:2,0:2:0:0:
67,70,23710,5,0,0:2:0:0:
251,134,23881,2,0,L|264:253,1,119.999996337891,10|0,0:2|0:2,0:2:0:0:
71,74,24226,5,0,1:2:0:0:
259,136,24396,2,0,L|272:16,1,119.999996337891,2|8,0:2|0:2,0:2:0:0:
75,78,24740,5,2,0:2:0:0:
120,159,24910,1,2,1:2:0:0:
120,159,24996,1,2,0:2:0:0:
120,159,25082,1,2,0:2:0:0:
26,196,25253,6,0,P|113:184|174:251,1,179.999994506836,8|0,0:2|0:2,0:2:0:0:
82,275,25596,2,0,P|78:334|69:394,1,110.000003356934,0|0,1:2|0:2,0:2:0:0:
185,257,25939,6,0,P|272:268|333:202,1,179.999994506836,8|0,0:2|0:2,0:2:0:0:
333,191,26282,1,0,1:2:0:0:
423,224,26453,5,2,0:3:0:0:
423,224,26539,1,2,0:3:0:0:
423,224,26625,2,0,L|498:212,1,59.9999981689454,12|0,0:3|0:2,0:2:0:0:
407,135,26796,2,0,L|482:123,1,59.9999981689454,4|0,0:3|0:2,0:2:0:0:
333,191,26967,1,4,1:3:0:0:
333,191,27139,1,4,0:3:0:0:
270,252,27310,6,0,P|287:187|286:108,1,139.999995727539,8|0,0:0|0:0,0:0:0:0:
286,27,27653,6,0,P|284:-9|293:25,1,100,4|0,1:2|0:0,0:0:0:0:
278,112,28167,6,0,B|159:132|215:185|89:213,1,200,12|0,0:0|0:0,0:0:0:0:
11,285,29024,6,0,P|39:294|64:314,1,50,4|0,0:0|0:0,0:0:0:0:
51,178,29367,2,0,P|70:199|82:229,1,50,2|0,0:3|0:0,0:0:0:0:
141,107,29710,2,0,P|147:135|142:167,1,50,2|0,0:3|0:0,0:0:0:0:
211,246,30053,5,2,0:3:0:0:
208,239,30138,1,2,0:3:0:0:
201,242,30224,1,2,0:3:0:0:
205,249,30310,1,2,0:3:0:0:
207,228,30395,2,0,P|205:264|214:230,1,100,4|0,1:2|0:0,0:0:0:0:
137,347,30910,6,0,P|222:297|321:288,1,200,12|0,0:0|0:0,0:0:0:0:
386,229,31767,6,0,P|395:257|415:282,1,50,12|0,0:0|0:0,0:0:0:0:
249,342,32110,2,0,P|270:361|300:373,1,50,12|0,0:0|0:0,0:0:0:0:
486,312,32453,6,2,P|502:243|483:164,1,150,2|0,0:3|0:0,0:1:0:0:
500,117,32796,6,0,L|445:127,1,50,10|0,0:2|0:0,0:0:0:0:
512,197,32967,2,0,L|457:207,1,50,2|0,0:3|0:0,0:0:0:0:
264,159,33139,6,0,P|321:159|384:178,1,119.999996337891,4|0,1:2|0:2,0:2:0:0:
131,237,33482,2,0,P|226:197|210:77,1,240,10|0,0:2|0:2,0:2:0:0:
210,77,33825,1,2,0:2:0:0:
130,226,33996,6,0,P|125:199|135:225,1,75.0000028610231,2|0,1:2|0:2,0:2:0:0:
178,304,34167,2,0,P|116:265|39:278,1,150.000005722046,10|0,0:2|0:2,0:2:0:0:
102,357,34510,5,2,1:2:0:0:
2,205,34682,1,2,0:2:0:0:
2,205,34767,1,2,0:2:0:0:
2,205,34853,2,0,P|12:145|14:84,1,119.999996337891,8|0,0:2|0:2,0:2:0:0:
184,171,35196,5,0,1:2:0:0:
184,171,35367,1,0,1:2:0:0:
145,18,35539,2,0,P|140:-15|148:17,1,100,8|2,0:2|0:3,0:2:0:0:
14,85,35882,2,0,P|64:99|129:102,1,100,0|0,1:2|0:2,0:2:0:0:
372,9,36225,2,0,P|267:14|256:116,1,225.000008583069,10|0,0:2|0:2,0:2:0:0:
273,122,36567,2,0,B|304:114|304:114|281:112,1,50,0|0,1:2|0:2,0:2:0:0:
184,171,36739,5,0,1:2:0:0:
184,171,36825,1,0,1:2:0:0:
184,171,36910,2,0,P|278:162|309:273,1,225.000008583069,8|0,0:2|0:2,0:2:0:0:
300,287,37253,5,0,1:2:0:0:
218,274,37425,1,0,3:2:0:0:
362,371,37596,2,0,P|484:337|489:250,1,225.000008583069,10|0,0:2|0:2,0:2:0:0:
396,256,37939,6,0,L|404:206,1,50,0|0,1:2|0:2,0:2:0:0:
489,76,38110,1,0,1:2:0:0:
512,124,38196,1,0,1:2:0:0:
473,160,38282,2,0,P|342:120|348:29,1,225.000008583069,8|0,0:2|0:2,0:2:0:0:
259,15,38625,6,0,P|209:13|138:2,1,100,4|0,1:2|0:2,0:2:0:0:
240,117,38967,2,0,P|301:124|339:74,1,129.999994049073,10|0,0:2|0:2,0:2:0:0:
177,201,39310,6,0,P|68:175|52:71,1,225.000008583069,2|0,0:2|0:2,0:2:0:0:
63,221,39653,2,0,P|32:237|57:214,1,100,10|2,0:2|0:3,0:2:0:0:
154,112,39996,1,0,1:2:0:0:
304,224,40167,5,2,1:2:0:0:
304,224,40253,1,2,1:2:0:0:
304,224,40339,2,0,P|413:204|451:335,1,259.999988098145,8|0,0:2|1:2,0:2:0:0:
210,324,40853,6,0,P|217:302|218:321,1,64.9999970245363,0|0,1:2|1:2,0:2:0:0:
366,357,41025,2,0,B|224:346|279:264|122:241,1,259.999988098145,8|4,0:2|1:2,0:2:0:0:
94,66,41539,5,0,1:2:0:0:
59,290,41710,2,0,P|49:262|52:218,1,64.9999970245363,8|0,0:2|0:2,0:2:0:0:
116,161,41882,1,2,1:2:0:0:
116,161,41967,1,2,1:2:0:0:
116,161,42053,2,0,P|183:155|256:134,1,129.999994049073,0|0,1:2|3:2,0:2:0:0:
354,176,42310,1,2,3:2:0:0:
354,176,42396,2,0,P|265:143|274:47,1,194.999991073609,10|0,0:2|0:2,0:2:0:0:
355,78,42739,6,0,B|429:54|424:118|516:95,2,150.000005722046,0|2|8,1:2|0:3|0:2,0:2:0:0:
323,261,43253,6,0,P|307:279|318:255,1,75.0000028610231,2|0,0:3|0:2,0:2:0:0:
354,176,43425,1,0,1:2:0:0:
203,132,43596,5,0,1:2:0:0:
155,141,43682,1,0,1:2:0:0:
110,149,43767,2,0,L|6:170,1,100,8|0,0:2|0:2,0:2:0:0:
178,291,44110,6,0,P|84:279|14:343,1,194.999991073609,4|0,1:2|0:2,0:2:0:0:
13,351,44453,2,0,B|71:336|62:378|140:365,1,119.999996337891,8|0,0:2|0:2,0:2:0:0:
258,229,44796,5,2,0:2:0:0:
275,168,44882,1,2,0:2:0:0:
259,109,44967,1,2,1:2:0:0:
175,46,45139,1,8,0:2:0:0:
245,214,45310,5,2,0:2:0:0:
260,166,45396,1,2,0:2:0:0:
250,119,45481,1,2,1:2:0:0:
179,50,45653,1,0,1:2:0:0:
234,194,45825,5,10,0:2:0:0:
244,163,45911,1,2,0:2:0:0:
237,132,45996,1,2,0:2:0:0:
151,164,46167,1,0,1:2:0:0:
252,306,46339,1,2,1:2:0:0:
252,306,46425,1,2,1:2:0:0:
252,306,46510,2,0,P|303:276|376:272,1,119.999996337891,10|0,0:2|0:2,0:2:0:0:
163,367,46853,6,0,P|76:382|7:330,1,179.999994506836,0|0,1:2|0:2,0:2:0:0:
7,330,47196,1,10,0:2:0:0:
172,215,47367,1,2,0:2:0:0:
96,287,47539,2,0,L|78:164,1,119.999996337891,2|0,0:2|1:2,0:2:0:0:
63,183,47796,1,0,3:2:0:0:
63,183,47882,2,0,L|81:60,1,119.999996337891,8|2,0:2|0:3,0:2:0:0:
13,5,48225,5,2,1:2:0:0:
169,123,48396,1,2,0:2:0:0:
169,123,48567,2,0,P|228:126|282:22,1,179.999994506836,10|0,0:2|0:2,0:2:0:0:
269,18,48910,1,2,1:2:0:0:
383,239,49082,5,2,1:2:0:0:
383,239,49167,1,2,1:2:0:0:
383,239,49253,2,0,P|386:179|282:126,1,179.999994506836,10|0,0:2|0:2,0:2:0:0:
262,204,49596,6,0,L|69:237,1,179.999994506836,4|0,1:2|0:2,0:2:0:0:
18,298,49939,2,0,P|67:322|137:309,1,119.999996337891,10|0,0:2|0:2,0:2:0:0:
353,319,50282,5,2,0:2:0:0:
295,309,50367,1,2,0:2:0:0:
237,299,50453,1,2,1:2:0:0:
172,224,50625,1,8,0:2:0:0:
339,325,50796,5,2,0:2:0:0:
292,316,50881,1,2,0:2:0:0:
245,309,50967,1,2,1:2:0:0:
172,224,51139,1,0,1:2:0:0:
327,333,51310,5,10,0:2:0:0:
291,326,51395,1,2,0:2:0:0:
254,320,51481,1,2,0:2:0:0:
397,262,51653,1,0,1:2:0:0:
506,364,51825,1,2,1:2:0:0:
506,364,51911,1,2,1:2:0:0:
506,364,51996,2,0,L|487:237,1,119.999996337891,10|0,0:2|0:2,0:2:0:0:
475,48,52339,5,4,1:2:0:0:
475,48,52510,2,0,P|482:77|454:95,1,59.9999981689454,2|0,0:2|0:2,0:2:0:0:
416,163,52682,2,0,P|387:154|385:121,1,59.9999981689454,10|0,0:2|0:2,0:2:0:0:
348,53,52853,2,0,P|369:32|399:47,1,59.9999981689454,2|0,0:2|0:2,0:2:0:0:
291,125,53025,5,2,0:2:0:0:
340,297,53196,1,2,1:2:0:0:
340,297,53282,1,2,1:2:0:0:
340,297,53367,2,0,P|275:257|155:256,1,179.999994506836,8|0,0:2|0:2,0:2:0:0:
151,262,53710,6,0,B|88:304|88:304|7:276,2,150.000005722046,0|2|8,1:2|0:3|0:2,0:2:0:0:
208,137,54225,2,0,P|170:136|135:123,1,75.0000028610231,2|0,0:3|0:2,0:2:0:0:
267,221,54396,1,0,1:2:0:0:
52,196,54568,5,0,1:2:0:0:
52,196,54653,1,0,1:2:0:0:
52,196,54739,2,0,P|84:113|205:136,1,225.000008583069,8|0,0:2|0:2,0:2:0:0:
219,115,55082,6,0,P|221:79|212:113,1,100,4|0,1:2|0:0,0:0:0:0:
323,148,55596,6,0,P|425:157|470:74,1,200,12|0,0:0|0:0,0:0:0:0:
389,38,56453,6,0,P|381:70|382:91,1,50,4|0,0:0|0:0,0:0:0:0:
317,157,56796,2,0,P|333:185|349:199,1,50,2|0,0:3|0:0,0:0:0:0:
350,292,57139,2,0,P|382:300|403:299,1,50,2|0,0:3|0:0,0:0:0:0:
449,206,57482,5,2,0:3:0:0:
452,199,57567,1,2,0:3:0:0:
459,202,57653,1,2,0:3:0:0:
455,209,57739,1,2,0:3:0:0:
453,188,57824,2,0,P|455:224|446:190,1,100,4|0,1:2|0:0,0:0:0:0:
263,237,58339,6,0,B|157:219|176:299|68:279,1,200,12|0,0:0|0:0,0:0:0:0:
32,176,59196,6,0,P|60:172|82:165,1,50,12|0,0:0|0:0,0:0:0:0:
35,372,59539,2,0,P|63:376|85:383,1,50,12|0,0:0|0:0,0:0:0:0:
290,255,59882,6,0,L|286:325,2,66.6666666666667,2|2|2,0:3|0:3|0:3,0:0:0:0:
181,275,60225,1,10,0:2:0:0:
