osu file format v14

[General]
AudioFilename: audio.mp3
AudioLeadIn: 0
PreviewTime: -1
Countdown: 1
SampleSet: Soft
StackLeniency: 0.7
Mode: 1
LetterboxInBreaks: 0
WidescreenStoryboard: 0

[Editor]
Bookmarks: 1500,13500,25500,37500,49500,61500,73500,85500,109500
DistanceSpacing: 1.2
BeatDivisor: 3
GridSize: 32
TimelineZoom: 2.5

[Metadata]
Title:ENERGY SYNERGY MATRIX
TitleUnicode:ENERGY SYNERGY MATRIX
Artist:Tanchiky
ArtistUnicode:八间灵
Creator:driodx
Version:U.R.A.
Source:BMS
Tags:
BeatmapID:2042274
BeatmapSetID:975795

[Difficulty]
HPDrainRate:4
CircleSize:5
OverallDifficulty:7
ApproachRate:5
SliderMultiplier:1.4
SliderTickRate:1

[Events]
//Background and Video events
0,0,"ESM.jpg",0,0
//Break Periods
//Storyboard Layer 0 (Background)
//Storyboard Layer 1 (Fail)
//Storyboard Layer 2 (Pass)
//Storyboard Layer 3 (Foreground)
//Storyboard Sound Samples

[TimingPoints]
0,375,4,2,0,60,1,0
0,-100,4,2,0,60,0,0
1125,-99.009900990099,4,2,0,65,0,0
1218,-98.0392156862745,4,2,0,70,0,0
1312,-97.0873786407767,4,2,0,75,0,0
1406,-96.1538461538461,4,2,0,80,0,0
1500,-95.2380952380952,4,2,0,80,0,0
7125,-94.3396226415094,4,2,0,80,0,0
7218,-93.4579439252336,4,2,0,80,0,0
7312,-92.5925925925926,4,2,0,80,0,0
7406,-91.743119266055,4,2,0,80,0,0
7500,-90.9090909090909,4,2,0,80,0,0
12750,-89.2857142857143,4,2,0,80,0,0
13125,-88.1057268722467,4,2,0,80,0,0
13500,-86.9565217391304,4,2,0,80,0,0
18000,-85.4700854700855,4,2,0,80,0,0
18375,-86.2068965517241,4,2,0,80,0,0
18562,-86.9565217391304,4,2,0,80,0,0
18937,-85.4700854700855,4,2,0,80,0,0
19406,-86.2068965517241,4,2,0,80,0,0
19500,-86.9565217391304,4,2,0,80,0,0
24000,-85.4700854700855,4,2,0,80,0,0
24937,-84.0336134453781,4,2,0,80,0,0
25125,-82.6446280991736,4,2,0,80,0,0
25500,-85.4700854700855,4,2,0,80,0,0
31500,-84.7457627118644,4,2,0,80,0,0
34500,-83.3333333333333,4,2,0,80,0,0
34687,-81.9672131147541,4,2,0,80,0,0
34875,-80.6451612903226,4,2,0,80,0,0
35000,-80,4,2,0,80,0,0
35125,-79.3650793650794,4,2,0,80,0,0
35250,-78.7401574803149,4,2,0,80,0,0
35343,-78.125,4,2,0,80,0,0
35437,-77.5193798449612,4,2,0,80,0,0
35531,-76.9230769230769,4,2,0,80,0,0
35625,-76.3358778625954,4,2,0,80,0,0
36000,-78.7401574803149,4,2,0,80,0,0
36375,-81.3008130081301,4,2,0,80,0,0
36750,-81.9672131147541,4,2,0,80,0,0
37125,-82.6446280991736,4,2,0,80,0,0
37500,-83.3333333333333,4,2,0,90,0,0
48281,-81.9672131147541,4,2,0,90,0,0
48562,-80.6451612903226,4,2,0,90,0,0
48750,-80,4,2,0,90,0,0
49000,-80.6451612903226,4,2,0,90,0,0
49250,-81.9672131147541,4,2,0,90,0,0
49500,-83.3333333333333,4,2,0,90,0,0
54000,-82.6446280991736,4,2,0,90,0,0
54625,-81.3008130081301,4,2,0,90,0,0
54875,-80,4,2,0,90,0,0
55125,-81.3008130081301,4,2,0,90,0,0
55312,-81.9672131147541,4,2,0,90,0,0
55500,-83.3333333333333,4,2,0,90,0,0
60000,-81.3008130081301,4,2,0,90,0,0
60281,-83.3333333333333,4,2,0,90,0,0
60562,-86.9565217391304,4,2,0,90,0,0
60843,-90.9090909090909,4,2,0,90,0,0
61125,-95.2380952380952,4,2,0,90,0,0
61500,-100,4,2,0,50,0,0
73125,-99.009900990099,4,2,0,50,0,0
73218,-98.0392156862745,4,2,0,50,0,0
73312,-97.0873786407767,4,2,0,50,0,0
73406,-96.1538461538461,4,2,0,50,0,0
73500,-95.2380952380952,4,2,0,60,0,0
79500,-94.3396226415094,4,2,0,60,0,0
79875,-93.4579439252336,4,2,0,60,0,0
80250,-92.5925925925926,4,2,0,60,0,0
80625,-91.743119266055,4,2,0,60,0,0
81000,-90.9090909090909,4,2,0,70,0,0
81375,-90.0900900900901,4,2,0,70,0,0
81750,-89.2857142857143,4,2,0,70,0,0
82125,-88.4955752212389,4,2,0,70,0,0
82500,-87.719298245614,4,2,0,80,0,0
82875,-86.9565217391304,4,2,0,80,0,0
83250,-86.2068965517241,4,2,0,80,0,0
83625,-85.4700854700855,4,2,0,90,0,0
84000,-84.7457627118644,4,2,0,95,0,0
84375,-83.3333333333333,4,2,0,95,0,0
84750,-84.7457627118644,4,2,0,95,0,0
85125,-80.6451612903226,4,2,0,96,0,0
85187,-81.3008130081301,4,2,0,97,0,0
85250,-81.9672131147541,4,2,0,98,0,0
85312,-82.6446280991736,4,2,0,99,0,0
85500,-83.3333333333333,4,2,0,100,0,1
94500,-80.6451612903226,4,2,0,100,0,1
95250,-78.125,4,2,0,100,0,1
96000,-75.7575757575758,4,2,0,100,0,1
96937,-77.5193798449612,4,2,0,100,0,1
97125,-79.3650793650794,4,2,0,100,0,1
97312,-81.3008130081301,4,2,0,100,0,1
97500,-83.3333333333333,4,2,0,100,0,0
97593,-83.3333333333333,4,2,0,100,0,1
106218,-82.6446280991736,4,2,0,100,0,1
106312,-81.9672131147541,4,2,0,100,0,1
106406,-81.3008130081301,4,2,0,100,0,1
106500,-80.6451612903226,4,2,0,100,0,1
106687,-79.3650793650794,4,2,0,100,0,1
106781,-78.7401574803149,4,2,0,100,0,1
106875,-78.125,4,2,0,100,0,1
107062,-76.9230769230769,4,2,0,100,0,1
107156,-76.3358778625954,4,2,0,100,0,1
107250,-75.7575757575758,4,2,0,100,0,1
107437,-75.7575757575758,4,2,0,100,0,1
107531,-76.3358778625954,4,2,0,100,0,1
107625,-76.9230769230769,4,2,0,100,0,1
107812,-78.125,4,2,0,100,0,1
107906,-78.7401574803149,4,2,0,100,0,1
108000,-79.3650793650794,4,2,0,100,0,1
108375,-80.6451612903226,4,2,0,100,0,1
108750,-81.9672131147541,4,2,0,100,0,1
109125,-82.6446280991736,4,2,0,100,0,1
109500,-83.3333333333333,4,2,0,100,0,0
115125,-81.9672131147541,4,2,0,100,0,0
115500,-80.6451612903226,4,2,0,100,0,0
120750,-79.3650793650794,4,2,0,100,0,0
120937,-78.125,4,2,0,100,0,0
121125,-76.9230769230769,4,2,0,100,0,0
121500,-74.0740740740741,4,2,0,100,0,0
122250,-66.6666666666667,4,2,0,100,0,0

[HitObjects]
192,256,750,5,0,1:0:0:0:
192,256,937,1,0,1:0:0:0:
320,256,1125,1,8,1:0:0:0:
320,256,1218,1,8,1:0:0:0:
320,256,1312,1,8,1:0:0:0:
320,256,1406,1,8,1:0:0:0:
192,128,1500,1,4,1:0:0:0:
320,256,1781,1,8,1:0:0:0:
192,256,2062,1,0,1:0:0:0:
192,256,2250,1,0,1:0:0:0:
320,256,2437,1,8,1:0:0:0:
192,256,2531,1,0,1:0:0:0:
320,256,2625,1,8,1:0:0:0:
192,128,2812,1,4,1:0:0:0:
192,128,3000,1,4,1:0:0:0:
320,256,3281,1,8,1:0:0:0:
192,256,3562,1,0,1:0:0:0:
192,256,3750,1,0,1:0:0:0:
192,256,3843,1,0,1:0:0:0:
320,256,3937,1,8,1:0:0:0:
192,256,4031,1,0,1:0:0:0:
320,256,4125,1,8,1:0:0:0:
320,256,4218,1,8,1:0:0:0:
320,256,4312,1,8,1:0:0:0:
320,256,4406,1,8,1:0:0:0:
192,128,4500,1,4,1:0:0:0:
320,256,4781,1,8,1:0:0:0:
192,128,5062,1,4,1:0:0:0:
192,128,5250,1,4,1:0:0:0:
320,256,5437,1,8,1:0:0:0:
192,128,5531,1,4,1:0:0:0:
320,256,5625,1,8,1:0:0:0:
192,128,5812,1,4,1:0:0:0:
192,128,6000,1,4,1:0:0:0:
320,256,6281,1,8,1:0:0:0:
192,256,6375,1,0,1:0:0:0:
320,256,6468,1,8,1:0:0:0:
192,256,6562,1,0,1:0:0:0:
320,256,6656,1,8,1:0:0:0:
192,256,6750,1,0,1:0:0:0:
192,256,6843,1,0,1:0:0:0:
192,256,6937,1,0,1:0:0:0:
192,256,7031,1,0,1:0:0:0:
320,256,7125,1,8,1:0:0:0:
320,256,7218,1,8,1:0:0:0:
320,256,7312,1,8,1:0:0:0:
320,256,7406,1,8,1:0:0:0:
192,256,7500,1,4,1:0:0:0:
192,256,7687,1,0,1:0:0:0:
192,256,7781,1,0,1:0:0:0:
320,256,7875,1,8,1:0:0:0:
192,256,8062,1,0,1:0:0:0:
320,256,8250,1,8,1:0:0:0:
320,256,8437,1,8,1:0:0:0:
192,256,8531,1,0,1:0:0:0:
192,256,8625,1,0,1:0:0:0:
320,256,8812,1,8,1:0:0:0:
192,256,9000,1,0,1:0:0:0:
192,256,9187,1,0,1:0:0:0:
320,256,9281,1,8,1:0:0:0:
320,256,9375,1,8,1:0:0:0:
192,256,9562,1,0,1:0:0:0:
320,256,9750,1,8,1:0:0:0:
320,256,9843,1,8,1:0:0:0:
192,256,9937,1,0,1:0:0:0:
192,256,10031,1,0,1:0:0:0:
320,256,10125,1,8,1:0:0:0:
320,256,10312,1,8,1:0:0:0:
192,256,10500,1,0,1:0:0:0:
192,256,10593,1,0,1:0:0:0:
320,256,10687,1,8,1:0:0:0:
320,256,10781,1,8,1:0:0:0:
192,256,10875,1,0,1:0:0:0:
192,256,10968,1,0,1:0:0:0:
192,256,11062,1,0,1:0:0:0:
192,256,11156,1,0,1:0:0:0:
320,256,11250,1,8,1:0:0:0:
192,256,11312,1,0,1:0:0:0:
192,256,11375,1,0,1:0:0:0:
320,256,11437,1,8,1:0:0:0:
192,256,11531,1,0,1:0:0:0:
320,256,11625,1,8,1:0:0:0:
320,256,11687,1,8,1:0:0:0:
320,256,11750,1,8,1:0:0:0:
192,256,11812,1,0,1:0:0:0:
192,256,11906,1,0,1:0:0:0:
320,256,12000,1,8,1:0:0:0:
320,256,12093,1,8,1:0:0:0:
320,256,12187,1,8,1:0:0:0:
320,256,12281,1,8,1:0:0:0:
192,256,12375,1,0,1:0:0:0:
192,128,12750,1,4,1:0:0:0:
320,128,13125,1,12,1:0:0:0:
320,128,13500,1,12,1:0:0:0:
192,256,13875,1,0,1:0:0:0:
192,256,13968,1,0,1:0:0:0:
192,256,14062,1,0,1:0:0:0:
320,256,14156,1,8,1:0:0:0:
320,256,14203,1,8,1:0:0:0:
192,256,14343,1,0,1:0:0:0:
320,256,14531,1,8,1:0:0:0:
192,256,14625,1,0,1:0:0:0:
192,256,14718,1,0,1:0:0:0:
320,256,14812,1,8,1:0:0:0:
192,256,14906,1,0,1:0:0:0:
320,256,15000,1,8,1:0:0:0:
192,256,15062,1,0,1:0:0:0:
192,256,15125,1,0,1:0:0:0:
320,256,15187,1,8,1:0:0:0:
192,256,15281,1,0,1:0:0:0:
320,256,15375,1,8,1:0:0:0:
192,256,15468,1,0,1:0:0:0:
192,256,15562,1,0,1:0:0:0:
320,256,15656,1,8,1:0:0:0:
320,256,15703,1,8,1:0:0:0:
192,256,15843,1,0,1:0:0:0:
192,256,16031,1,0,1:0:0:0:
320,256,16125,1,8,1:0:0:0:
192,256,16218,1,0,1:0:0:0:
320,256,16312,1,8,1:0:0:0:
320,256,16406,1,8,1:0:0:0:
192,256,16500,1,0,1:0:0:0:
320,256,16546,1,8,1:0:0:0:
320,256,16687,1,8,1:0:0:0:
192,256,16781,1,0,1:0:0:0:
192,256,16875,1,0,1:0:0:0:
192,256,16968,1,0,1:0:0:0:
192,256,17062,1,0,1:0:0:0:
320,256,17156,1,8,1:0:0:0:
320,256,17203,1,8,1:0:0:0:
192,256,17343,1,0,1:0:0:0:
320,256,17531,1,8,1:0:0:0:
192,256,17625,1,0,1:0:0:0:
192,256,17718,1,0,1:0:0:0:
320,256,17812,1,8,1:0:0:0:
192,256,17906,1,0,1:0:0:0:
320,128,18000,1,12,1:0:0:0:
320,256,18187,1,8,1:0:0:0:
320,256,18281,1,8,1:0:0:0:
192,256,18375,1,0,1:0:0:0:
192,256,18468,1,0,1:0:0:0:
320,256,18562,1,8,1:0:0:0:
192,256,18656,1,0,1:0:0:0:
320,128,18750,1,12,1:0:0:0:
192,256,18937,1,0,1:0:0:0:
320,256,19031,1,8,1:0:0:0:
192,128,19125,1,4,1:0:0:0:
320,256,19312,1,8,1:0:0:0:
192,256,19406,1,0,1:0:0:0:
320,128,19500,1,12,1:0:0:0:
192,256,19687,1,0,1:0:0:0:
192,256,19781,1,0,1:0:0:0:
320,256,19875,1,8,1:0:0:0:
192,256,19968,1,0,1:0:0:0:
320,256,20062,1,8,1:0:0:0:
320,256,20156,1,8,1:0:0:0:
192,256,20250,1,0,1:0:0:0:
320,256,20343,1,8,1:0:0:0:
320,256,20390,1,8,1:0:0:0:
320,256,20531,1,8,1:0:0:0:
320,256,20625,1,8,1:0:0:0:
192,256,20718,1,0,1:0:0:0:
320,256,20812,1,8,1:0:0:0:
192,256,20906,1,0,1:0:0:0:
320,256,21000,1,8,1:0:0:0:
192,256,21062,1,0,1:0:0:0:
192,256,21125,1,0,1:0:0:0:
320,256,21187,1,8,1:0:0:0:
192,256,21281,1,0,1:0:0:0:
320,256,21375,1,8,1:0:0:0:
192,256,21468,1,0,1:0:0:0:
320,256,21562,1,8,1:0:0:0:
320,256,21656,1,8,1:0:0:0:
192,256,21750,1,0,1:0:0:0:
320,256,21843,1,8,1:0:0:0:
320,256,21890,1,8,1:0:0:0:
320,256,22031,1,8,1:0:0:0:
192,256,22125,1,0,1:0:0:0:
192,256,22218,1,0,1:0:0:0:
320,256,22312,1,8,1:0:0:0:
320,256,22406,1,8,1:0:0:0:
192,256,22500,1,0,1:0:0:0:
192,256,22562,1,0,1:0:0:0:
192,256,22625,1,0,1:0:0:0:
320,256,22687,1,8,1:0:0:0:
320,256,22781,1,8,1:0:0:0:
192,256,22875,1,0,1:0:0:0:
192,256,22968,1,0,1:0:0:0:
320,256,23062,1,8,1:0:0:0:
320,256,23156,1,8,1:0:0:0:
192,256,23250,1,0,1:0:0:0:
320,256,23343,1,8,1:0:0:0:
192,256,23390,1,0,1:0:0:0:
320,256,23531,1,8,1:0:0:0:
192,256,23625,1,0,1:0:0:0:
320,256,23718,1,8,1:0:0:0:
192,256,23812,1,0,1:0:0:0:
192,256,23906,1,0,1:0:0:0:
320,128,24000,1,12,1:0:0:0:
320,256,24187,1,8,1:0:0:0:
192,256,24281,1,0,1:0:0:0:
320,256,24375,1,8,1:0:0:0:
192,256,24468,1,0,1:0:0:0:
192,256,24562,1,0,1:0:0:0:
192,256,24656,1,0,1:0:0:0:
320,128,24750,1,12,1:0:0:0:
192,128,24937,1,4,1:0:0:0:
320,128,25125,1,12,1:0:0:0:
320,128,25500,1,12,1:0:0:0:
192,256,25687,1,0,1:0:0:0:
192,256,25781,1,0,1:0:0:0:
320,256,25875,1,8,1:0:0:0:
320,256,25968,1,8,1:0:0:0:
192,256,26062,1,0,1:0:0:0:
320,256,26156,1,8,1:0:0:0:
192,256,26250,1,0,1:0:0:0:
320,256,26343,1,8,1:0:0:0:
192,256,26437,1,0,1:0:0:0:
192,256,26531,1,0,1:0:0:0:
320,256,26625,1,8,1:0:0:0:
192,256,26718,1,0,1:0:0:0:
320,256,26812,1,8,1:0:0:0:
192,256,26906,1,0,1:0:0:0:
320,256,27000,1,8,1:0:0:0:
320,256,27093,1,8,1:0:0:0:
192,256,27187,1,0,1:0:0:0:
192,256,27281,1,0,1:0:0:0:
320,256,27375,1,8,1:0:0:0:
320,256,27468,1,8,1:0:0:0:
192,256,27562,1,0,1:0:0:0:
320,256,27656,1,8,1:0:0:0:
192,256,27750,1,0,1:0:0:0:
192,256,27843,1,0,1:0:0:0:
320,256,27937,1,8,1:0:0:0:
192,256,28031,1,0,1:0:0:0:
320,256,28125,1,8,1:0:0:0:
320,256,28312,1,8,1:0:0:0:
320,128,28500,1,12,1:0:0:0:
320,256,28687,1,8,1:0:0:0:
192,256,28781,1,0,1:0:0:0:
320,256,28875,1,8,1:0:0:0:
320,256,28968,1,8,1:0:0:0:
192,256,29062,1,0,1:0:0:0:
320,256,29156,1,8,1:0:0:0:
192,256,29250,1,0,1:0:0:0:
320,256,29343,1,8,1:0:0:0:
192,256,29437,1,0,1:0:0:0:
192,256,29531,1,0,1:0:0:0:
320,256,29625,1,8,1:0:0:0:
192,256,29718,1,0,1:0:0:0:
320,256,29812,1,8,1:0:0:0:
192,256,29906,1,0,1:0:0:0:
320,256,30000,1,8,1:0:0:0:
192,256,30187,1,0,1:0:0:0:
320,256,30375,1,8,1:0:0:0:
192,256,30468,1,0,1:0:0:0:
192,256,30656,1,0,1:0:0:0:
320,128,30750,1,12,1:0:0:0:
320,128,30937,1,12,1:0:0:0:
192,256,31125,1,0,1:0:0:0:
192,256,31187,1,0,1:0:0:0:
320,256,31250,1,8,1:0:0:0:
320,256,31312,1,8,1:0:0:0:
192,256,31375,1,0,1:0:0:0:
192,256,31437,1,0,1:0:0:0:
320,128,31500,1,12,1:0:0:0:
192,256,31687,1,0,1:0:0:0:
192,256,31781,1,0,1:0:0:0:
320,256,31875,1,8,1:0:0:0:
192,256,31968,1,0,1:0:0:0:
320,256,32062,1,8,1:0:0:0:
192,256,32156,1,0,1:0:0:0:
320,256,32250,1,8,1:0:0:0:
192,256,32343,1,0,1:0:0:0:
192,256,32437,1,0,1:0:0:0:
320,256,32531,1,8,1:0:0:0:
320,256,32625,1,8,1:0:0:0:
192,256,32718,1,0,1:0:0:0:
192,256,32812,1,0,1:0:0:0:
192,256,32906,1,0,1:0:0:0:
320,256,33000,1,8,1:0:0:0:
192,256,33093,1,0,1:0:0:0:
320,256,33187,1,8,1:0:0:0:
192,256,33281,1,0,1:0:0:0:
320,256,33375,1,8,1:0:0:0:
320,256,33468,1,8,1:0:0:0:
192,256,33562,1,0,1:0:0:0:
192,256,33656,1,0,1:0:0:0:
320,256,33750,1,8,1:0:0:0:
192,256,33843,1,0,1:0:0:0:
192,256,33937,1,0,1:0:0:0:
192,256,34031,1,0,1:0:0:0:
320,256,34125,1,8,1:0:0:0:
192,256,34218,1,0,1:0:0:0:
320,256,34312,1,8,1:0:0:0:
192,256,34406,1,0,1:0:0:0:
320,128,34500,1,12,1:0:0:0:
192,256,34687,1,0,1:0:0:0:
192,256,34875,1,0,1:0:0:0:
192,256,35000,1,0,1:0:0:0:
192,256,35125,1,0,1:0:0:0:
192,256,35250,1,0,1:0:0:0:
192,256,35343,1,0,1:0:0:0:
192,256,35437,1,0,1:0:0:0:
192,256,35531,1,0,1:0:0:0:
192,256,35625,1,0,1:0:0:0:
192,128,36000,1,4,1:0:0:0:
320,128,36375,1,12,1:0:0:0:
320,128,36750,1,12,1:0:0:0:
192,256,36937,1,0,1:0:0:0:
320,128,37125,1,12,1:0:0:0:
320,128,37500,1,12,1:0:0:0:
192,256,37687,1,0,1:0:0:0:
320,256,37781,1,8,1:0:0:0:
320,256,37875,1,8,1:0:0:0:
320,256,37968,1,8,1:0:0:0:
192,256,38062,1,0,1:0:0:0:
320,256,38250,1,8,1:0:0:0:
320,256,38343,1,8,1:0:0:0:
192,256,38437,1,0,1:0:0:0:
320,256,38531,1,8,1:0:0:0:
192,256,38625,1,0,1:0:0:0:
320,256,38812,1,8,1:0:0:0:
192,256,39000,1,0,1:0:0:0:
320,256,39187,1,8,1:0:0:0:
192,256,39281,1,0,1:0:0:0:
320,256,39375,1,8,1:0:0:0:
192,256,39468,1,0,1:0:0:0:
192,256,39562,1,0,1:0:0:0:
320,256,39750,1,8,1:0:0:0:
320,256,39843,1,8,1:0:0:0:
192,256,39937,1,0,1:0:0:0:
320,256,40031,1,8,1:0:0:0:
192,256,40125,1,0,1:0:0:0:
192,256,40218,1,0,1:0:0:0:
320,256,40312,1,8,1:0:0:0:
320,256,40500,1,8,1:0:0:0:
192,256,40687,1,0,1:0:0:0:
192,256,40781,1,0,1:0:0:0:
320,256,40875,1,8,1:0:0:0:
192,256,40968,1,0,1:0:0:0:
192,256,41062,1,0,1:0:0:0:
320,256,41250,1,8,1:0:0:0:
192,256,41343,1,0,1:0:0:0:
320,256,41437,1,8,1:0:0:0:
320,256,41531,1,8,1:0:0:0:
192,256,41625,1,0,1:0:0:0:
320,256,41812,1,8,1:0:0:0:
320,256,42000,1,8,1:0:0:0:
192,256,42093,1,0,1:0:0:0:
192,256,42187,1,0,1:0:0:0:
320,256,42281,1,8,1:0:0:0:
192,256,42375,1,0,1:0:0:0:
192,256,42468,1,0,1:0:0:0:
320,256,42562,1,8,1:0:0:0:
192,256,42656,1,0,1:0:0:0:
192,256,42750,1,0,1:0:0:0:
320,256,42843,1,8,1:0:0:0:
192,256,42937,1,0,1:0:0:0:
192,256,43031,1,0,1:0:0:0:
320,256,43125,1,8,1:0:0:0:
192,256,43218,1,0,1:0:0:0:
320,256,43312,1,8,1:0:0:0:
192,256,43406,1,0,1:0:0:0:
320,256,43500,1,8,1:0:0:0:
192,256,43687,1,0,1:0:0:0:
320,256,43781,1,8,1:0:0:0:
320,256,43875,1,8,1:0:0:0:
320,256,44062,1,8,1:0:0:0:
192,256,44250,1,0,1:0:0:0:
192,256,44343,1,0,1:0:0:0:
320,256,44437,1,8,1:0:0:0:
192,256,44531,1,0,1:0:0:0:
192,256,44625,1,0,1:0:0:0:
320,256,44812,1,8,1:0:0:0:
320,256,45000,1,8,1:0:0:0:
192,256,45187,1,0,1:0:0:0:
320,256,45281,1,8,1:0:0:0:
192,256,45375,1,0,1:0:0:0:
320,256,45562,1,8,1:0:0:0:
320,256,45750,1,8,1:0:0:0:
320,256,45843,1,8,1:0:0:0:
320,256,45937,1,8,1:0:0:0:
192,256,46031,1,0,1:0:0:0:
192,256,46125,1,0,1:0:0:0:
192,256,46218,1,0,1:0:0:0:
320,256,46312,1,8,1:0:0:0:
320,256,46500,1,8,1:0:0:0:
192,256,46593,1,0,1:0:0:0:
192,256,46687,1,0,1:0:0:0:
320,256,46781,1,8,1:0:0:0:
192,256,46875,1,0,1:0:0:0:
192,256,46968,1,0,1:0:0:0:
320,256,47062,1,8,1:0:0:0:
192,256,47156,1,0,1:0:0:0:
320,256,47250,1,8,1:0:0:0:
192,256,47312,1,0,1:0:0:0:
192,256,47375,1,0,1:0:0:0:
320,256,47437,1,8,1:0:0:0:
192,256,47531,1,0,1:0:0:0:
320,256,47625,1,8,1:0:0:0:
320,256,47687,1,8,1:0:0:0:
320,256,47750,1,8,1:0:0:0:
192,256,47812,1,0,1:0:0:0:
192,256,47906,1,0,1:0:0:0:
320,256,48000,1,8,1:0:0:0:
320,256,48281,1,8,1:0:0:0:
320,256,48562,1,8,1:0:0:0:
192,128,48750,1,4,1:0:0:0:
192,256,49000,1,4,1:0:0:0:
320,128,49250,1,12,1:0:0:0:
320,128,49500,1,12,1:0:0:0:
192,256,49687,1,0,1:0:0:0:
192,256,49781,1,0,1:0:0:0:
320,256,49875,1,8,1:0:0:0:
192,256,49968,1,0,1:0:0:0:
320,256,50062,1,8,1:0:0:0:
192,256,50156,1,0,1:0:0:0:
320,256,50250,1,8,1:0:0:0:
192,256,50343,1,0,1:0:0:0:
192,256,50437,1,0,1:0:0:0:
320,256,50531,1,8,1:0:0:0:
320,256,50625,1,8,1:0:0:0:
192,256,50718,1,0,1:0:0:0:
320,256,50812,1,8,1:0:0:0:
192,256,50906,1,0,1:0:0:0:
320,256,51000,1,8,1:0:0:0:
320,256,51093,1,8,1:0:0:0:
320,256,51187,1,8,1:0:0:0:
192,256,51281,1,0,1:0:0:0:
320,256,51375,1,8,1:0:0:0:
192,256,51468,1,0,1:0:0:0:
320,256,51562,1,8,1:0:0:0:
192,256,51656,1,0,1:0:0:0:
320,256,51750,1,8,1:0:0:0:
192,256,51843,1,0,1:0:0:0:
192,256,51937,1,0,1:0:0:0:
320,256,52031,1,8,1:0:0:0:
320,256,52125,1,8,1:0:0:0:
320,256,52312,1,8,1:0:0:0:
192,256,52406,1,0,1:0:0:0:
320,256,52500,1,8,1:0:0:0:
320,256,52593,1,8,1:0:0:0:
320,256,52687,1,8,1:0:0:0:
192,256,52781,1,0,1:0:0:0:
320,256,52875,1,8,1:0:0:0:
320,256,52968,1,8,1:0:0:0:
192,256,53062,1,0,1:0:0:0:
192,256,53156,1,0,1:0:0:0:
320,256,53250,1,8,1:0:0:0:
192,256,53343,1,0,1:0:0:0:
320,256,53437,1,8,1:0:0:0:
192,256,53531,1,0,1:0:0:0:
320,256,53625,1,8,1:0:0:0:
320,256,53718,1,8,1:0:0:0:
320,256,53812,1,8,1:0:0:0:
320,256,53906,1,8,1:0:0:0:
192,128,54000,1,4,1:0:0:0:
320,256,54187,1,8,1:0:0:0:
192,256,54281,1,0,1:0:0:0:
192,256,54375,1,0,1:0:0:0:
192,256,54468,1,0,1:0:0:0:
320,128,54625,1,12,1:0:0:0:
320,128,54875,1,12,1:0:0:0:
192,128,55125,1,4,1:0:0:0:
192,128,55312,1,4,1:0:0:0:
320,128,55500,1,12,1:0:0:0:
192,256,55687,1,0,1:0:0:0:
192,256,55781,1,0,1:0:0:0:
320,256,55875,1,8,1:0:0:0:
192,256,55968,1,0,1:0:0:0:
192,256,56062,1,0,1:0:0:0:
320,256,56156,1,8,1:0:0:0:
320,256,56250,1,8,1:0:0:0:
192,256,56343,1,0,1:0:0:0:
320,256,56437,1,8,1:0:0:0:
192,256,56531,1,0,1:0:0:0:
320,256,56625,1,8,1:0:0:0:
320,256,56718,1,8,1:0:0:0:
192,256,56812,1,0,1:0:0:0:
192,256,56906,1,0,1:0:0:0:
320,256,57000,1,8,1:0:0:0:
320,256,57093,1,8,1:0:0:0:
192,256,57187,1,0,1:0:0:0:
192,256,57281,1,0,1:0:0:0:
320,256,57375,1,8,1:0:0:0:
192,256,57468,1,0,1:0:0:0:
320,256,57562,1,8,1:0:0:0:
192,256,57656,1,0,1:0:0:0:
320,256,57750,1,8,1:0:0:0:
192,256,57843,1,0,1:0:0:0:
192,256,57937,1,0,1:0:0:0:
192,256,58031,1,0,1:0:0:0:
320,256,58125,1,8,1:0:0:0:
192,256,58218,1,0,1:0:0:0:
320,256,58312,1,8,1:0:0:0:
192,256,58406,1,0,1:0:0:0:
320,256,58500,1,8,1:0:0:0:
320,256,58562,1,8,1:0:0:0:
320,256,58625,1,8,1:0:0:0:
192,256,58687,1,0,1:0:0:0:
192,256,58781,1,0,1:0:0:0:
320,256,58875,1,8,1:0:0:0:
320,256,58968,1,8,1:0:0:0:
192,256,59062,1,0,1:0:0:0:
192,256,59156,1,0,1:0:0:0:
320,256,59250,1,8,1:0:0:0:
320,256,59312,1,8,1:0:0:0:
320,256,59375,1,8,1:0:0:0:
192,256,59437,1,0,1:0:0:0:
192,256,59531,1,0,1:0:0:0:
320,256,59625,1,8,1:0:0:0:
192,256,59687,1,0,1:0:0:0:
192,256,59750,1,0,1:0:0:0:
320,256,59812,1,8,1:0:0:0:
192,256,59906,1,0,1:0:0:0:
320,128,60000,1,12,1:0:0:0:
320,128,60281,1,12,1:0:0:0:
320,128,60562,1,12,1:0:0:0:
192,128,60843,1,4,1:0:0:0:
320,128,61125,1,12,1:0:0:0:
192,256,61500,1,0,0:0:0:0:
320,256,61593,1,8,0:0:0:0:
320,256,61875,1,8,0:0:0:0:
192,256,62062,1,0,0:0:0:0:
320,256,62250,1,8,0:0:0:0:
320,256,62437,1,8,0:0:0:0:
320,256,62625,1,8,0:0:0:0:
320,256,63000,1,8,0:0:0:0:
320,256,63093,1,8,0:0:0:0:
320,256,63375,1,8,0:0:0:0:
320,256,63562,1,8,0:0:0:0:
320,256,63750,1,8,0:0:0:0:
192,256,63843,1,0,0:0:0:0:
320,256,63937,1,8,0:0:0:0:
320,256,64125,1,8,0:0:0:0:
192,256,64312,1,0,0:0:0:0:
320,256,64500,1,8,0:0:0:0:
320,256,64593,1,8,0:0:0:0:
320,256,64875,1,8,0:0:0:0:
320,256,65062,1,8,0:0:0:0:
192,256,65250,1,0,0:0:0:0:
320,256,65437,1,8,0:0:0:0:
192,256,65625,1,0,0:0:0:0:
320,256,65812,1,8,0:0:0:0:
192,256,66000,1,0,0:0:0:0:
320,256,66093,1,8,0:0:0:0:
192,256,66187,1,0,0:0:0:0:
192,256,66281,1,0,0:0:0:0:
192,256,66375,1,0,0:0:0:0:
192,256,66562,1,0,0:0:0:0:
320,256,66750,1,8,0:0:0:0:
320,256,66937,1,8,0:0:0:0:
320,256,67125,1,8,0:0:0:0:
192,256,67500,1,0,0:0:0:0:
192,256,67593,1,0,0:0:0:0:
192,256,67687,1,0,0:0:0:0:
320,256,67875,1,8,0:0:0:0:
320,256,67968,1,8,0:0:0:0:
320,256,68062,1,8,0:0:0:0:
320,256,68250,1,8,0:0:0:0:
192,256,68343,1,0,0:0:0:0:
320,256,68437,1,8,0:0:0:0:
320,256,68625,1,8,0:0:0:0:
192,256,68812,1,0,0:0:0:0:
320,256,69000,1,8,0:0:0:0:
320,256,69093,1,8,0:0:0:0:
320,256,69375,1,8,0:0:0:0:
320,256,69562,1,8,0:0:0:0:
192,256,69750,1,0,0:0:0:0:
320,256,69937,1,8,0:0:0:0:
320,256,70125,1,8,0:0:0:0:
192,256,70312,1,0,0:0:0:0:
192,256,70406,1,0,0:0:0:0:
320,256,70500,1,8,0:0:0:0:
320,256,70593,1,8,0:0:0:0:
320,256,70687,1,8,0:0:0:0:
320,256,70875,1,8,0:0:0:0:
320,256,71062,1,8,0:0:0:0:
320,256,71250,1,8,0:0:0:0:
192,256,71343,1,0,0:0:0:0:
320,256,71437,1,8,0:0:0:0:
320,256,71625,1,8,0:0:0:0:
320,256,71812,1,8,0:0:0:0:
192,256,72000,1,0,0:0:0:0:
320,256,72093,1,8,0:0:0:0:
320,256,72187,1,8,0:0:0:0:
192,256,72281,1,0,0:0:0:0:
192,256,72375,1,0,0:0:0:0:
192,256,72562,1,0,0:0:0:0:
320,256,72750,1,8,0:0:0:0:
192,256,72937,1,0,0:0:0:0:
192,256,73125,1,0,0:0:0:0:
320,256,73218,1,8,0:0:0:0:
192,256,73312,1,0,0:0:0:0:
320,256,73406,1,8,0:0:0:0:
192,128,73500,1,4,1:0:0:0:
320,256,73687,1,8,1:0:0:0:
320,256,73875,1,8,1:0:0:0:
320,256,73968,1,8,1:0:0:0:
192,256,74156,1,0,1:0:0:0:
192,256,74343,1,0,1:0:0:0:
192,256,74531,1,0,1:0:0:0:
320,256,74625,1,8,1:0:0:0:
320,256,74812,1,8,1:0:0:0:
192,256,75000,1,0,1:0:0:0:
192,256,75187,1,0,1:0:0:0:
192,256,75375,1,0,1:0:0:0:
320,256,75468,1,8,1:0:0:0:
320,256,75656,1,8,1:0:0:0:
320,256,75843,1,8,1:0:0:0:
192,256,76031,1,0,1:0:0:0:
320,256,76125,1,8,1:0:0:0:
320,256,76312,1,8,1:0:0:0:
320,256,76500,1,8,1:0:0:0:
320,256,76687,1,8,1:0:0:0:
192,256,76781,1,0,1:0:0:0:
320,256,76875,1,8,1:0:0:0:
320,256,76968,1,8,1:0:0:0:
192,256,77156,1,0,1:0:0:0:
192,256,77343,1,0,1:0:0:0:
320,256,77437,1,8,1:0:0:0:
320,256,77531,1,8,1:0:0:0:
192,256,77625,1,0,1:0:0:0:
320,256,77812,1,8,1:0:0:0:
192,256,78000,1,0,1:0:0:0:
192,256,78187,1,0,1:0:0:0:
320,256,78281,1,8,1:0:0:0:
192,256,78375,1,0,1:0:0:0:
320,256,78468,1,8,1:0:0:0:
320,256,78656,1,8,1:0:0:0:
320,256,78843,1,8,1:0:0:0:
192,256,78937,1,0,1:0:0:0:
320,256,79031,1,8,1:0:0:0:
320,256,79125,1,8,1:0:0:0:
192,256,79312,1,0,1:0:0:0:
320,256,79500,1,8,1:0:0:0:
192,256,79593,1,0,1:0:0:0:
192,256,79687,1,0,1:0:0:0:
192,256,79781,1,0,1:0:0:0:
320,256,79875,1,8,1:0:0:0:
320,256,79968,1,8,1:0:0:0:
192,256,80062,1,0,1:0:0:0:
320,256,80156,1,8,1:0:0:0:
192,256,80250,1,0,1:0:0:0:
320,256,80343,1,8,1:0:0:0:
192,256,80437,1,0,1:0:0:0:
320,256,80531,1,8,1:0:0:0:
320,256,80625,1,8,1:0:0:0:
192,256,80718,1,0,1:0:0:0:
320,256,80812,1,8,1:0:0:0:
192,256,80906,1,0,1:0:0:0:
320,256,81000,1,8,1:0:0:0:
192,256,81093,1,0,1:0:0:0:
320,256,81187,1,8,1:0:0:0:
192,256,81281,1,0,1:0:0:0:
320,256,81375,1,8,1:0:0:0:
320,256,81468,1,8,1:0:0:0:
192,256,81562,1,0,1:0:0:0:
320,256,81656,1,8,1:0:0:0:
192,256,81750,1,0,1:0:0:0:
320,256,81843,1,8,1:0:0:0:
192,256,81937,1,0,1:0:0:0:
320,256,82031,1,8,1:0:0:0:
320,256,82125,1,8,1:0:0:0:
192,256,82218,1,0,1:0:0:0:
320,256,82312,1,8,1:0:0:0:
192,256,82406,1,0,1:0:0:0:
320,256,82500,1,8,1:0:0:0:
320,256,82593,1,8,1:0:0:0:
192,256,82687,1,0,1:0:0:0:
192,256,82781,1,0,1:0:0:0:
320,256,82875,1,8,1:0:0:0:
320,256,82968,1,8,1:0:0:0:
192,256,83062,1,0,1:0:0:0:
192,256,83156,1,0,1:0:0:0:
320,256,83250,1,8,1:0:0:0:
320,256,83312,1,8,1:0:0:0:
320,256,83375,1,8,1:0:0:0:
192,256,83437,1,0,1:0:0:0:
192,256,83531,1,0,1:0:0:0:
320,256,83625,1,8,1:0:0:0:
320,256,83687,1,8,1:0:0:0:
192,256,83750,1,0,1:0:0:0:
192,256,83812,1,0,1:0:0:0:
320,256,83906,1,8,1:0:0:0:
192,128,84000,1,4,1:0:0:0:
320,128,84375,1,12,1:0:0:0:
192,128,84750,1,0,1:0:0:0:
320,256,85125,1,8,1:0:0:0:
320,256,85187,1,8,1:0:0:0:
320,256,85250,1,8,1:0:0:0:
192,256,85312,1,0,1:0:0:0:
320,128,85500,1,12,1:0:0:0:
192,256,85687,1,0,1:0:0:0:
320,256,85875,1,8,1:0:0:0:
320,256,85968,1,8,1:0:0:0:
192,256,86156,1,0,1:0:0:0:
320,256,86250,1,8,1:0:0:0:
192,256,86343,1,0,1:0:0:0:
320,256,86531,1,8,1:0:0:0:
192,256,86625,1,0,1:0:0:0:
320,256,86812,1,8,1:0:0:0:
320,256,86906,1,8,1:0:0:0:
192,256,87000,1,0,1:0:0:0:
192,256,87187,1,0,1:0:0:0:
192,256,87375,1,0,1:0:0:0:
320,256,87468,1,8,1:0:0:0:
320,256,87656,1,8,1:0:0:0:
320,256,87843,1,8,1:0:0:0:
192,256,88031,1,0,1:0:0:0:
320,256,88125,1,8,1:0:0:0:
320,256,88312,1,8,1:0:0:0:
320,128,88500,1,12,1:0:0:0:
192,256,88687,1,0,1:0:0:0:
192,256,88781,1,0,1:0:0:0:
320,256,88875,1,8,1:0:0:0:
320,256,88968,1,8,1:0:0:0:
320,256,89156,1,8,1:0:0:0:
320,256,89343,1,8,1:0:0:0:
320,256,89531,1,8,1:0:0:0:
192,256,89625,1,0,1:0:0:0:
192,256,89718,1,0,1:0:0:0:
320,256,89812,1,8,1:0:0:0:
192,128,90000,1,4,1:0:0:0:
192,256,90187,1,0,1:0:0:0:
192,256,90281,1,0,1:0:0:0:
192,256,90375,1,0,1:0:0:0:
320,256,90468,1,8,1:0:0:0:
320,256,90656,1,8,1:0:0:0:
320,256,90843,1,8,1:0:0:0:
192,256,91031,1,0,1:0:0:0:
320,256,91125,1,8,1:0:0:0:
192,256,91312,1,0,1:0:0:0:
320,128,91500,1,12,1:0:0:0:
192,256,91687,1,0,1:0:0:0:
320,256,91875,1,8,1:0:0:0:
320,256,91968,1,8,1:0:0:0:
192,256,92062,1,0,1:0:0:0:
320,256,92156,1,8,1:0:0:0:
320,256,92343,1,8,1:0:0:0:
320,256,92531,1,8,1:0:0:0:
192,256,92625,1,0,1:0:0:0:
192,256,92718,1,0,1:0:0:0:
320,256,92812,1,8,1:0:0:0:
192,128,93000,1,4,1:0:0:0:
192,256,93187,1,0,1:0:0:0:
192,256,93375,1,0,1:0:0:0:
320,256,93468,1,8,1:0:0:0:
320,256,93656,1,8,1:0:0:0:
192,256,93750,1,0,1:0:0:0:
320,256,93843,1,8,1:0:0:0:
192,256,94031,1,0,1:0:0:0:
320,256,94125,1,8,1:0:0:0:
320,256,94312,1,8,1:0:0:0:
320,128,94500,1,12,1:0:0:0:
192,256,94781,1,0,1:0:0:0:
192,256,95062,1,0,1:0:0:0:
320,128,95250,1,12,1:0:0:0:
192,256,95531,1,0,1:0:0:0:
192,256,95812,1,0,1:0:0:0:
320,128,96000,1,12,1:0:0:0:
320,256,96187,1,8,1:0:0:0:
320,256,96281,1,8,1:0:0:0:
192,256,96375,1,0,1:0:0:0:
192,256,96468,1,0,1:0:0:0:
320,256,96562,1,8,1:0:0:0:
320,256,96656,1,8,1:0:0:0:
320,256,96750,1,8,1:0:0:0:
320,256,96937,1,8,1:0:0:0:
192,256,97125,1,0,1:0:0:0:
192,256,97312,1,0,1:0:0:0:
320,128,97500,1,12,1:0:0:0:
192,256,97687,1,0,1:0:0:0:
192,256,97781,1,0,1:0:0:0:
320,256,97875,1,8,1:0:0:0:
320,256,97968,1,8,1:0:0:0:
192,256,98062,1,0,1:0:0:0:
320,256,98156,1,8,1:0:0:0:
192,256,98343,1,0,1:0:0:0:
320,256,98531,1,8,1:0:0:0:
192,256,98625,1,0,1:0:0:0:
192,256,98718,1,0,1:0:0:0:
320,256,98812,1,8,1:0:0:0:
192,128,99000,1,4,1:0:0:0:
192,256,99187,1,0,1:0:0:0:
320,256,99375,1,8,1:0:0:0:
192,256,99468,1,0,1:0:0:0:
192,256,99656,1,0,1:0:0:0:
320,256,99750,1,8,1:0:0:0:
192,256,99843,1,0,1:0:0:0:
192,256,99937,1,0,1:0:0:0:
320,256,100031,1,8,1:0:0:0:
192,256,100125,1,0,1:0:0:0:
320,256,100312,1,8,1:0:0:0:
320,128,100500,1,12,1:0:0:0:
192,256,100687,1,0,1:0:0:0:
192,256,100781,1,0,1:0:0:0:
320,256,100875,1,8,1:0:0:0:
320,256,100968,1,8,1:0:0:0:
192,256,101062,1,0,1:0:0:0:
320,256,101156,1,8,1:0:0:0:
192,256,101343,1,0,1:0:0:0:
320,256,101531,1,8,1:0:0:0:
192,256,101625,1,0,1:0:0:0:
192,256,101718,1,0,1:0:0:0:
320,256,101812,1,8,1:0:0:0:
320,128,102000,1,12,1:0:0:0:
192,256,102187,1,0,1:0:0:0:
192,256,102375,1,0,1:0:0:0:
320,256,102468,1,8,1:0:0:0:
320,256,102562,1,8,1:0:0:0:
192,256,102656,1,0,1:0:0:0:
320,256,102750,1,8,1:0:0:0:
192,256,102843,1,0,1:0:0:0:
192,256,102937,1,0,1:0:0:0:
192,256,103031,1,0,1:0:0:0:
320,256,103125,1,8,1:0:0:0:
192,256,103312,1,0,1:0:0:0:
320,128,103500,1,12,1:0:0:0:
192,256,103687,1,0,1:0:0:0:
192,256,103781,1,0,1:0:0:0:
320,256,103875,1,8,1:0:0:0:
320,256,103968,1,8,1:0:0:0:
192,256,104062,1,0,1:0:0:0:
320,256,104156,1,8,1:0:0:0:
320,256,104250,1,8,1:0:0:0:
192,256,104343,1,0,1:0:0:0:
192,256,104437,1,0,1:0:0:0:
320,256,104531,1,8,1:0:0:0:
192,256,104625,1,0,1:0:0:0:
192,256,104718,1,0,1:0:0:0:
320,256,104812,1,8,1:0:0:0:
192,128,105000,1,4,1:0:0:0:
192,256,105187,1,0,1:0:0:0:
192,256,105281,1,0,1:0:0:0:
320,256,105375,1,8,1:0:0:0:
192,256,105468,1,0,1:0:0:0:
192,256,105562,1,0,1:0:0:0:
192,256,105656,1,0,1:0:0:0:
320,256,105750,1,8,1:0:0:0:
192,256,105843,1,0,1:0:0:0:
192,256,105937,1,0,1:0:0:0:
320,256,106031,1,8,1:0:0:0:
192,256,106125,1,0,1:0:0:0:
320,256,106218,1,8,1:0:0:0:
320,256,106312,1,8,1:0:0:0:
192,256,106406,1,0,1:0:0:0:
320,128,106500,1,12,1:0:0:0:
192,256,106687,1,0,1:0:0:0:
192,256,106781,1,0,1:0:0:0:
320,128,106875,1,12,1:0:0:0:
320,256,107062,1,8,1:0:0:0:
320,256,107156,1,8,1:0:0:0:
192,128,107250,1,4,1:0:0:0:
192,256,107437,1,0,1:0:0:0:
320,256,107531,1,8,1:0:0:0:
192,128,107625,1,4,1:0:0:0:
320,256,107812,1,8,1:0:0:0:
192,256,107906,1,0,1:0:0:0:
320,128,108000,1,12,1:0:0:0:
320,128,108375,1,12,1:0:0:0:
320,128,108750,1,12,1:0:0:0:
320,256,109125,1,8,1:0:0:0:
320,256,109187,1,8,1:0:0:0:
320,256,109250,1,8,1:0:0:0:
192,256,109312,1,0,1:0:0:0:
192,256,109406,1,0,1:0:0:0:
320,256,109500,1,8,1:0:0:0:
192,256,109687,1,0,1:0:0:0:
320,256,109781,1,8,1:0:0:0:
192,256,109875,1,0,1:0:0:0:
192,256,109968,1,0,1:0:0:0:
320,256,110062,1,8,1:0:0:0:
192,256,110156,1,0,1:0:0:0:
320,256,110250,1,8,1:0:0:0:
320,256,110343,1,8,1:0:0:0:
192,256,110437,1,0,1:0:0:0:
320,256,110531,1,8,1:0:0:0:
320,256,110625,1,8,1:0:0:0:
192,256,110718,1,0,1:0:0:0:
320,256,110812,1,8,1:0:0:0:
192,256,111000,1,0,1:0:0:0:
192,256,111093,1,0,1:0:0:0:
320,256,111187,1,8,1:0:0:0:
192,256,111281,1,0,1:0:0:0:
192,256,111375,1,0,1:0:0:0:
320,256,111468,1,8,1:0:0:0:
192,256,111562,1,0,1:0:0:0:
320,256,111656,1,8,1:0:0:0:
320,256,111750,1,8,1:0:0:0:
320,256,111843,1,8,1:0:0:0:
192,256,111937,1,0,1:0:0:0:
320,256,112031,1,8,1:0:0:0:
320,256,112125,1,8,1:0:0:0:
192,256,112218,1,0,1:0:0:0:
320,256,112312,1,8,1:0:0:0:
320,256,112406,1,8,1:0:0:0:
320,256,112500,1,8,1:0:0:0:
192,256,112593,1,0,1:0:0:0:
192,256,112687,1,0,1:0:0:0:
320,256,112781,1,8,1:0:0:0:
192,256,112875,1,0,1:0:0:0:
192,256,112968,1,0,1:0:0:0:
320,256,113062,1,8,1:0:0:0:
192,256,113156,1,0,1:0:0:0:
320,256,113250,1,8,1:0:0:0:
320,256,113343,1,8,1:0:0:0:
192,256,113437,1,0,1:0:0:0:
320,256,113531,1,8,1:0:0:0:
320,256,113625,1,8,1:0:0:0:
192,256,113718,1,0,1:0:0:0:
320,256,113812,1,8,1:0:0:0:
192,256,113906,1,0,1:0:0:0:
320,128,114000,1,12,1:0:0:0:
320,256,114187,1,8,1:0:0:0:
320,256,114281,1,8,1:0:0:0:
192,256,114375,1,0,1:0:0:0:
192,256,114468,1,0,1:0:0:0:
192,256,114562,1,0,1:0:0:0:
192,256,114656,1,0,1:0:0:0:
320,128,114750,1,12,1:0:0:0:
192,128,115125,1,4,1:0:0:0:
320,128,115500,1,12,1:0:0:0:
192,256,115875,1,0,1:0:0:0:
192,256,115968,1,0,1:0:0:0:
320,256,116062,1,8,1:0:0:0:
192,256,116156,1,0,1:0:0:0:
320,256,116250,1,8,1:0:0:0:
320,256,116343,1,8,1:0:0:0:
192,256,116437,1,0,1:0:0:0:
192,256,116531,1,0,1:0:0:0:
320,256,116625,1,8,1:0:0:0:
320,256,116718,1,8,1:0:0:0:
192,256,116812,1,0,1:0:0:0:
320,256,116906,1,8,1:0:0:0:
192,256,117000,1,0,1:0:0:0:
192,256,117093,1,0,1:0:0:0:
320,256,117187,1,8,1:0:0:0:
192,256,117281,1,0,1:0:0:0:
192,256,117375,1,0,1:0:0:0:
320,256,117468,1,8,1:0:0:0:
320,256,117562,1,8,1:0:0:0:
192,256,117656,1,0,1:0:0:0:
320,256,117750,1,8,1:0:0:0:
320,256,117843,1,8,1:0:0:0:
192,256,117937,1,0,1:0:0:0:
320,256,118031,1,8,1:0:0:0:
320,256,118125,1,8,1:0:0:0:
192,256,118218,1,0,1:0:0:0:
320,256,118312,1,8,1:0:0:0:
192,256,118406,1,0,1:0:0:0:
320,256,118500,1,8,1:0:0:0:
192,256,118593,1,0,1:0:0:0:
192,256,118687,1,0,1:0:0:0:
192,256,118781,1,0,1:0:0:0:
320,256,118875,1,8,1:0:0:0:
192,256,118968,1,0,1:0:0:0:
192,256,119062,1,0,1:0:0:0:
192,256,119156,1,0,1:0:0:0:
320,256,119250,1,8,1:0:0:0:
320,256,119312,1,8,1:0:0:0:
320,256,119375,1,8,1:0:0:0:
192,256,119437,1,0,1:0:0:0:
192,256,119531,1,0,1:0:0:0:
320,256,119625,1,8,1:0:0:0:
192,256,119687,1,0,1:0:0:0:
192,256,119750,1,0,1:0:0:0:
320,256,119812,1,8,1:0:0:0:
192,256,119906,1,0,1:0:0:0:
320,128,120000,1,12,1:0:0:0:
320,256,120187,1,8,1:0:0:0:
320,256,120281,1,8,1:0:0:0:
192,256,120375,1,0,1:0:0:0:
192,256,120468,1,0,1:0:0:0:
192,256,120562,1,0,1:0:0:0:
192,256,120656,1,0,1:0:0:0:
320,128,120750,1,12,1:0:0:0:
192,128,120937,1,4,1:0:0:0:
320,128,121125,1,12,1:0:0:0:
320,128,121500,1,12,1:0:0:0:
192,256,121687,1,0,1:0:0:0:
320,256,121781,1,8,1:0:0:0:
192,256,122062,1,0,1:0:0:0:
320,128,122250,1,12,1:0:0:0:
320,128,122531,1,12,1:0:0:0:
320,128,122812,1,12,1:0:0:0:
