osu file format v14

[General]
AudioFilename: audio.mp3
AudioLeadIn: 0
PreviewTime: 85517
Countdown: 0
SampleSet: Normal
StackLeniency: 0.7
Mode: 1
LetterboxInBreaks: 0
WidescreenStoryboard: 0

[Editor]
DistanceSpacing: 1
BeatDivisor: 4
GridSize: 32
TimelineZoom: 3.299999

[Metadata]
Title:ENERGY SYNERGY MATRIX
TitleUnicode:ENERGY SYNERGY MATRIX
Artist:Tanchiky
ArtistUnicode:Tanchiky
Creator:Kunieda
Version:TIME PARADOX
Source:BMS
Tags:purinharumaki power bass bofu2017 legenda est a myth
BeatmapID:1491750
BeatmapSetID:705287

[Difficulty]
HPDrainRate:6
CircleSize:3
OverallDifficulty:5
ApproachRate:8
SliderMultiplier:1.6
SliderTickRate:1

[Events]
//Background and Video events
0,0,"bg2.png",0,0
//Break Periods
//Storyboard Layer 0 (Background)
//Storyboard Layer 1 (Fail)
//Storyboard Layer 2 (Pass)
//Storyboard Layer 3 (Foreground)
//Storyboard Sound Samples

[TimingPoints]
1517,375,4,1,0,80,1,0
12767,-50,4,1,0,80,0,0
13610,-100,4,1,0,80,0,0
18017,-50,4,1,0,80,0,0
19610,-100,4,1,0,80,0,0
20173,-95.2380952380952,4,1,0,80,0,0
20267,-90.9090909090909,4,1,0,80,0,0
20360,-86.9565217391304,4,1,0,80,0,0
20454,-83.3333333333333,4,1,0,80,0,0
20548,-80,4,1,0,80,0,0
20642,-83.3333333333333,4,1,0,80,0,0
20735,-86.9565217391304,4,1,0,80,0,0
20829,-90.9090909090909,4,1,0,80,0,0
20923,-95.2380952380952,4,1,0,80,0,0
21017,-100,4,1,0,80,0,0
21860,-95.2380952380952,4,1,0,80,0,0
21954,-90.9090909090909,4,1,0,80,0,0
22048,-86.9565217391304,4,1,0,80,0,0
22142,-83.3333333333333,4,1,0,80,0,0
22235,-86.9565217391304,4,1,0,80,0,0
22329,-90.9090909090909,4,1,0,80,0,0
22423,-95.2380952380952,4,1,0,80,0,0
22517,-100,4,1,0,80,0,0
23360,-90.9090909090909,4,1,0,80,0,0
23548,-83.3333333333333,4,1,0,80,0,0
23642,-90.9090909090909,4,1,0,80,0,0
23735,-95.2380952380952,4,1,0,80,0,0
23829,-100,4,1,0,80,0,0
24767,-50,4,1,0,80,0,0
25517,-83.3333333333333,4,1,0,80,0,1
36017,-40,4,1,0,80,0,1
37517,-100,4,1,0,80,0,0
44829,-95.2380952380952,4,1,0,80,0,0
46329,-95.2380952380952,4,1,0,80,0,0
46423,-90.9090909090909,4,1,0,80,0,0
46517,-86.9565217391304,4,1,0,80,0,0
46610,-83.3333333333333,4,1,0,80,0,0
46704,-80,4,1,0,80,0,0
46798,-76.9230769230769,4,1,0,80,0,0
47267,-80,4,1,0,80,0,0
47360,-83.3333333333333,4,1,0,80,0,0
47454,-86.9565217391304,4,1,0,80,0,0
47548,-90.9090909090909,4,1,0,80,0,0
47642,-95.2380952380952,4,1,0,80,0,0
48017,-100,4,1,0,80,0,0
48767,-50,4,1,0,80,0,0
49610,-100,4,1,0,80,0,0
54017,-50,4,1,0,80,0,0
55610,-100,4,1,0,80,0,0
58048,-95.2380952380952,4,1,0,80,0,0
58142,-90.9090909090909,4,1,0,80,0,0
58235,-86.9565217391304,4,1,0,80,0,0
58329,-83.3333333333333,4,1,0,80,0,0
58423,-80,4,1,0,80,0,0
58517,-76.9230769230769,4,1,0,80,0,0
58892,-74.0740740740741,4,1,0,80,0,0
60017,-40,4,1,0,80,0,0
61517,-133.333333333333,4,2,0,70,0,0
67517,-111.111111111111,4,2,0,70,0,0
73517,-100,4,1,0,80,0,0
82517,-95.2380952380952,4,1,0,80,0,0
82610,-90.9090909090909,4,1,0,80,0,0
82704,-86.9565217391304,4,1,0,80,0,0
82798,-83.3333333333333,4,1,0,80,0,0
82892,-80,4,1,0,80,0,0
84017,-40,4,1,0,80,0,0
85517,-83.3333333333333,4,1,0,80,0,1
108017,-40,4,1,0,80,0,1
109517,-100,4,1,0,80,0,0
114017,-40,4,1,0,80,0,0
115610,-100,4,1,0,80,0,0
115798,-95.2380952380952,4,1,0,80,0,0
115892,-90.9090909090909,4,1,0,80,0,0
115985,-86.9565217391304,4,1,0,80,0,0
116079,-83.3333333333333,4,1,0,80,0,0
116173,-80,4,1,0,80,0,0
116267,-76.9230769230769,4,1,0,80,0,0
116360,-80,4,1,0,80,0,0
116454,-83.3333333333333,4,1,0,80,0,0
116548,-86.9565217391304,4,1,0,80,0,0
116642,-90.9090909090909,4,1,0,80,0,0
116735,-95.2380952380952,4,1,0,80,0,0
116829,-100,4,1,0,80,0,0
117392,-95.2380952380952,4,1,0,80,0,0
117485,-90.9090909090909,4,1,0,80,0,0
117579,-86.9565217391304,4,1,0,80,0,0
117673,-83.3333333333333,4,1,0,80,0,0
117767,-80,4,1,0,80,0,0
117860,-76.9230769230769,4,1,0,80,0,0
117954,-80,4,1,0,80,0,0
118048,-83.3333333333333,4,1,0,80,0,0
118142,-86.9565217391304,4,1,0,80,0,0
118235,-90.9090909090909,4,1,0,80,0,0
118329,-95.2380952380952,4,1,0,80,0,0
118423,-100,4,1,0,80,0,0
118892,-95.2380952380952,4,1,0,80,0,0
118985,-90.9090909090909,4,1,0,80,0,0
119079,-86.9565217391304,4,1,0,80,0,0
119173,-83.3333333333333,4,1,0,80,0,0
119267,-86.9565217391304,4,1,0,80,0,0
119360,-90.9090909090909,4,1,0,80,0,0
119454,-95.2380952380952,4,1,0,80,0,0
119548,-100,4,1,0,80,0,0
121517,-40,4,1,0,80,0,0

[HitObjects]
256,192,1517,5,4,0:0:0:0:
256,192,2829,1,0,0:0:0:0:
256,192,3017,1,4,0:0:0:0:
256,192,4142,1,8,0:0:0:0:
256,192,4235,1,8,0:0:0:0:
256,192,4329,1,8,0:0:0:0:
256,192,4423,1,8,0:0:0:0:
256,192,4517,1,0,0:0:0:0:
256,192,5079,1,8,0:0:0:0:
256,192,5267,1,4,0:0:0:0:
256,192,5548,1,4,0:0:0:0:
256,192,5829,1,12,0:0:0:0:
256,192,6017,1,0,0:0:0:0:
256,192,7142,1,8,0:0:0:0:
256,192,7235,1,8,0:0:0:0:
256,192,7329,1,8,0:0:0:0:
256,192,7423,1,8,0:0:0:0:
256,192,7517,1,4,0:0:0:0:
256,192,7704,1,0,0:0:0:0:
256,192,7892,1,8,0:0:0:0:
256,192,8079,1,0,0:0:0:0:
256,192,8173,1,8,0:0:0:0:
256,192,8267,1,0,0:0:0:0:
256,192,8454,1,0,0:0:0:0:
256,192,8642,1,8,0:0:0:0:
256,192,8829,1,8,0:0:0:0:
256,192,8923,1,0,0:0:0:0:
256,192,9017,1,4,0:0:0:0:
256,192,9204,1,0,0:0:0:0:
256,192,9392,1,8,0:0:0:0:
256,192,9579,1,0,0:0:0:0:
256,192,9673,1,8,0:0:0:0:
256,192,9767,1,0,0:0:0:0:
256,192,9954,1,0,0:0:0:0:
256,192,10142,1,8,0:0:0:0:
256,192,10329,1,8,0:0:0:0:
256,192,10423,1,8,0:0:0:0:
256,192,10517,1,4,0:0:0:0:
256,192,10704,1,8,0:0:0:0:
256,192,10798,1,0,0:0:0:0:
256,192,10985,1,0,0:0:0:0:
256,192,11079,1,8,0:0:0:0:
256,192,11267,1,8,0:0:0:0:
256,192,11329,1,0,0:0:0:0:
256,192,11392,1,0,0:0:0:0:
256,192,11454,1,0,0:0:0:0:
256,192,11548,1,8,0:0:0:0:
256,192,11642,1,0,0:0:0:0:
256,192,11735,1,0,0:0:0:0:
256,192,11829,1,8,0:0:0:0:
256,192,12017,1,8,0:0:0:0:
256,192,12110,1,0,0:0:0:0:
256,192,12204,1,8,0:0:0:0:
256,192,12298,1,0,0:0:0:0:
256,192,12392,1,8,0:0:0:0:
256,192,12454,1,0,0:0:0:0:
256,192,12517,1,0,0:0:0:0:
256,192,12579,1,0,0:0:0:0:
256,192,12767,1,4,0:0:0:0:
256,192,13142,1,12,0:0:0:0:
256,192,13517,1,4,0:0:0:0:
256,192,13892,1,0,0:0:0:0:
256,192,13986,1,0,0:0:0:0:
256,192,14080,1,8,0:0:0:0:
256,192,14173,1,0,0:0:0:0:
256,192,14360,1,0,0:0:0:0:
256,192,14548,1,8,0:0:0:0:
256,192,14642,1,0,0:0:0:0:
256,192,14735,1,0,0:0:0:0:
256,192,14829,1,8,0:0:0:0:
256,192,14923,1,8,0:0:0:0:
256,192,15017,1,0,0:0:0:0:
256,192,15204,1,0,0:0:0:0:
256,192,15392,1,0,0:0:0:0:
256,192,15485,1,0,0:0:0:0:
256,192,15579,1,8,0:0:0:0:
256,192,15673,1,0,0:0:0:0:
256,192,15860,1,0,0:0:0:0:
256,192,16048,1,0,0:0:0:0:
256,192,16142,1,0,0:0:0:0:
256,192,16235,1,0,0:0:0:0:
256,192,16329,1,8,0:0:0:0:
256,192,16423,1,8,0:0:0:0:
256,192,16517,1,0,0:0:0:0:
256,192,16704,1,0,0:0:0:0:
256,192,16892,1,0,0:0:0:0:
256,192,16985,1,0,0:0:0:0:
256,192,17079,1,8,0:0:0:0:
256,192,17173,1,0,0:0:0:0:
256,192,17360,1,0,0:0:0:0:
256,192,17548,1,0,0:0:0:0:
256,192,17642,1,0,0:0:0:0:
256,192,17735,1,0,0:0:0:0:
256,192,17829,1,8,0:0:0:0:
256,192,18017,1,4,0:0:0:0:
256,192,18767,1,12,0:0:0:0:
256,192,19142,1,4,0:0:0:0:
256,192,19517,1,12,0:0:0:0:
256,192,19704,1,0,0:0:0:0:
256,192,19798,1,0,0:0:0:0:
256,192,19892,1,8,0:0:0:0:
256,192,19985,1,0,0:0:0:0:
256,192,20173,1,8,0:0:0:0:
256,192,20360,1,8,0:0:0:0:
256,192,20454,1,0,0:0:0:0:
256,192,20548,1,8,0:0:0:0:
256,192,20642,1,0,0:0:0:0:
256,192,20735,1,0,0:0:0:0:
256,192,20829,1,8,0:0:0:0:
256,192,21017,1,0,0:0:0:0:
256,192,21392,1,0,0:0:0:0:
256,192,21486,1,0,0:0:0:0:
256,192,21580,1,8,0:0:0:0:
256,192,21673,1,0,0:0:0:0:
256,192,21860,1,8,0:0:0:0:
256,192,22048,1,8,0:0:0:0:
256,192,22142,1,0,0:0:0:0:
256,192,22235,1,0,0:0:0:0:
256,192,22329,1,8,0:0:0:0:
256,192,22423,1,8,0:0:0:0:
256,192,22517,1,0,0:0:0:0:
256,192,22892,1,0,0:0:0:0:
256,192,22985,1,0,0:0:0:0:
256,192,23079,1,8,0:0:0:0:
256,192,23173,1,0,0:0:0:0:
256,192,23360,1,8,0:0:0:0:
256,192,23548,1,8,0:0:0:0:
256,192,23642,1,0,0:0:0:0:
256,192,23735,1,0,0:0:0:0:
256,192,23829,1,0,0:0:0:0:
256,192,23923,1,0,0:0:0:0:
256,192,24017,1,12,0:0:0:0:
256,192,24392,1,0,0:0:0:0:
288,192,24454,1,0,0:0:0:0:
256,192,24517,1,8,0:0:0:0:
256,192,24579,1,0,0:0:0:0:
256,192,24642,1,8,0:0:0:0:
256,192,24767,1,4,0:0:0:0:
256,192,24954,1,4,0:0:0:0:
256,192,25142,1,12,0:0:0:0:
256,192,25517,1,12,0:0:0:0:
256,192,25704,1,8,0:0:0:0:
256,192,25798,1,0,0:0:0:0:
256,192,25892,1,0,0:0:0:0:
256,192,25985,1,8,0:0:0:0:
256,192,26173,1,8,0:0:0:0:
256,192,26267,1,0,0:0:0:0:
256,192,26360,1,8,0:0:0:0:
256,192,26548,1,0,0:0:0:0:
256,192,26642,1,0,0:0:0:0:
256,192,26735,1,0,0:0:0:0:
256,192,26829,1,8,0:0:0:0:
256,192,27017,1,8,0:0:0:0:
256,192,27204,1,8,0:0:0:0:
256,192,27298,1,0,0:0:0:0:
256,192,27392,1,0,0:0:0:0:
256,192,27485,1,8,0:0:0:0:
256,192,27673,1,8,0:0:0:0:
256,192,27767,1,0,0:0:0:0:
256,192,27860,1,8,0:0:0:0:
256,192,28048,1,8,0:0:0:0:
256,192,28142,1,0,0:0:0:0:
256,192,28236,1,0,0:0:0:0:
256,192,28329,1,8,0:0:0:0:
256,192,28423,1,8,0:0:0:0:
256,192,28517,1,0,0:0:0:0:
256,192,28704,1,8,0:0:0:0:
256,192,28798,1,0,0:0:0:0:
256,192,28892,1,0,0:0:0:0:
256,192,28985,1,8,0:0:0:0:
256,192,29173,1,0,0:0:0:0:
256,192,29360,1,8,0:0:0:0:
256,192,29548,1,8,0:0:0:0:
256,192,29642,1,0,0:0:0:0:
256,192,29735,1,8,0:0:0:0:
256,192,29829,1,0,0:0:0:0:
256,192,30017,1,0,0:0:0:0:
256,192,30204,1,8,0:0:0:0:
256,192,30298,1,0,0:0:0:0:
256,192,30392,1,0,0:0:0:0:
256,192,30485,1,8,0:0:0:0:
256,192,30673,1,8,0:0:0:0:
256,192,30860,1,8,0:0:0:0:
256,192,31048,1,8,0:0:0:0:
256,192,31142,1,0,0:0:0:0:
256,192,31204,1,0,0:0:0:0:
256,192,31267,1,0,0:0:0:0:
256,192,31329,1,8,0:0:0:0:
256,192,31423,1,8,0:0:0:0:
256,192,31517,1,4,0:0:0:0:
256,192,31704,1,8,0:0:0:0:
256,192,31798,1,0,0:0:0:0:
256,192,31892,1,0,0:0:0:0:
256,192,31985,1,8,0:0:0:0:
256,192,32173,1,8,0:0:0:0:
256,192,32267,1,0,0:0:0:0:
256,192,32360,1,8,0:0:0:0:
256,192,32548,1,8,0:0:0:0:
256,192,32642,1,0,0:0:0:0:
256,192,32735,1,0,0:0:0:0:
256,192,32829,1,8,0:0:0:0:
256,192,32923,1,8,0:0:0:0:
256,192,33017,1,0,0:0:0:0:
256,192,33204,1,0,0:0:0:0:
256,192,33298,1,8,0:0:0:0:
256,192,33392,1,0,0:0:0:0:
256,192,33485,1,8,0:0:0:0:
256,192,33673,1,8,0:0:0:0:
256,192,33860,1,8,0:0:0:0:
256,192,34048,1,0,0:0:0:0:
256,192,34142,1,8,0:0:0:0:
256,192,34235,1,0,0:0:0:0:
256,192,34329,1,0,0:0:0:0:
256,192,34423,1,8,0:0:0:0:
256,192,34517,1,4,0:0:0:0:
256,192,34704,1,0,0:0:0:0:
256,192,34892,1,8,0:0:0:0:
256,192,35017,1,8,0:0:0:0:
256,192,35142,1,8,0:0:0:0:
256,192,35267,1,0,0:0:0:0:
256,192,35360,1,0,0:0:0:0:
256,192,35454,1,0,0:0:0:0:
256,192,35548,1,8,0:0:0:0:
256,192,35642,1,8,0:0:0:0:
256,192,35735,1,0,0:0:0:0:
256,192,35829,1,8,0:0:0:0:
256,192,36017,1,4,0:0:0:0:
256,192,36392,1,12,0:0:0:0:
256,192,36767,1,4,0:0:0:0:
256,192,36954,1,4,0:0:0:0:
256,192,37142,2,0,L|128:160,2,112.5
256,192,37517,1,4,0:0:0:0:
256,192,37704,1,0,0:0:0:0:
256,192,37798,1,0,0:0:0:0:
256,192,37892,1,8,0:0:0:0:
256,192,37985,1,0,0:0:0:0:
256,192,38079,1,0,0:0:0:0:
256,192,38267,1,8,0:0:0:0:
256,192,38454,1,0,0:0:0:0:
256,192,38548,1,0,0:0:0:0:
256,192,38642,1,8,0:0:0:0:
256,192,38829,1,12,0:0:0:0:
256,192,39017,1,0,0:0:0:0:
256,192,39204,1,12,0:0:0:0:
256,192,39392,1,12,0:0:0:0:
256,192,39579,1,0,0:0:0:0:
256,192,39767,1,0,0:0:0:0:
256,192,39860,1,0,0:0:0:0:
256,192,39954,1,8,0:0:0:0:
256,192,40048,1,0,0:0:0:0:
256,192,40142,1,8,0:0:0:0:
256,192,40329,1,12,0:0:0:0:
256,192,40517,1,4,0:0:0:0:
256,192,40704,1,8,0:0:0:0:
256,192,40798,1,0,0:0:0:0:
256,192,40892,1,8,0:0:0:0:
256,192,41079,1,0,0:0:0:0:
256,192,41267,1,8,0:0:0:0:
256,192,41360,1,0,0:0:0:0:
256,192,41454,1,0,0:0:0:0:
256,192,41548,1,8,0:0:0:0:
256,192,41642,1,0,0:0:0:0:
256,192,41829,1,4,0:0:0:0:
256,192,42017,1,12,0:0:0:0:
256,192,42204,1,4,0:0:0:0:
256,192,42298,1,12,0:0:0:0:
256,192,42485,1,4,0:0:0:0:
256,192,42579,1,12,0:0:0:0:
256,192,42767,1,0,0:0:0:0:
256,192,42860,1,8,0:0:0:0:
256,192,42954,1,0,0:0:0:0:
256,192,43142,1,12,0:0:0:0:
256,192,43329,1,12,0:0:0:0:
256,192,43517,1,4,0:0:0:0:
256,192,43704,1,0,0:0:0:0:
256,192,43798,1,0,0:0:0:0:
256,192,43892,1,8,0:0:0:0:
256,192,43985,1,8,0:0:0:0:
256,192,44079,1,0,0:0:0:0:
256,192,44267,1,8,0:0:0:0:
256,192,44454,1,0,0:0:0:0:
256,192,44548,1,8,0:0:0:0:
256,192,44642,1,0,0:0:0:0:
256,192,44829,1,12,0:0:0:0:
288,192,45017,1,0,0:0:0:0:
256,192,45079,1,0,0:0:0:0:
256,192,45142,1,0,0:0:0:0:
256,192,45204,1,0,0:0:0:0:
256,192,45298,1,8,0:0:0:0:
256,192,45392,1,0,0:0:0:0:
256,192,45485,1,0,0:0:0:0:
256,192,45579,1,8,0:0:0:0:
256,192,45767,1,8,0:0:0:0:
256,192,45860,1,8,0:0:0:0:
256,192,45954,1,0,0:0:0:0:
256,192,46048,1,8,0:0:0:0:
256,192,46142,1,0,0:0:0:0:
256,192,46329,1,12,0:0:0:0:
256,192,46517,1,0,0:0:0:0:
288,192,46579,1,0,0:0:0:0:
288,192,46642,1,0,0:0:0:0:
256,192,46704,1,8,0:0:0:0:
256,192,46798,1,0,0:0:0:0:
256,192,46892,1,8,0:0:0:0:
256,192,47079,1,12,0:0:0:0:
256,192,47267,1,0,0:0:0:0:
256,192,47329,1,0,0:0:0:0:
256,192,47392,1,0,0:0:0:0:
256,192,47454,1,0,0:0:0:0:
256,192,47548,1,8,0:0:0:0:
256,192,47642,1,0,0:0:0:0:
256,192,47735,1,0,0:0:0:0:
256,192,47829,1,8,0:0:0:0:
256,192,47923,1,0,0:0:0:0:
256,192,48017,1,8,0:0:0:0:
256,192,48298,1,8,0:0:0:0:
256,192,48579,1,8,0:0:0:0:
256,192,48767,1,4,0:0:0:0:
256,192,49048,1,12,0:0:0:0:
256,192,49235,1,12,0:0:0:0:
256,192,49517,1,4,0:0:0:0:
256,192,49704,1,0,0:0:0:0:
256,192,49798,1,0,0:0:0:0:
256,192,49892,1,8,0:0:0:0:
256,192,50079,1,0,0:0:0:0:
256,192,50267,1,8,0:0:0:0:
256,192,50360,1,0,0:0:0:0:
256,192,50454,1,8,0:0:0:0:
256,192,50548,1,0,0:0:0:0:
256,192,50642,1,8,0:0:0:0:
256,192,50829,1,0,0:0:0:0:
256,192,51017,1,8,0:0:0:0:
256,192,51110,1,8,0:0:0:0:
256,192,51204,1,0,0:0:0:0:
256,192,51298,1,0,0:0:0:0:
256,192,51392,1,8,0:0:0:0:
256,192,51485,1,0,0:0:0:0:
256,192,51579,1,8,0:0:0:0:
256,192,51767,1,0,0:0:0:0:
256,192,51860,1,0,0:0:0:0:
256,192,51954,1,0,0:0:0:0:
256,192,52048,1,0,0:0:0:0:
256,192,52142,1,8,0:0:0:0:
256,192,52329,1,8,0:0:0:0:
256,192,52517,1,0,0:0:0:0:
256,192,52610,1,0,0:0:0:0:
256,192,52704,1,0,0:0:0:0:
256,192,52798,1,0,0:0:0:0:
256,192,52892,1,8,0:0:0:0:
256,192,52985,1,0,0:0:0:0:
256,192,53079,1,0,0:0:0:0:
256,192,53173,1,0,0:0:0:0:
256,192,53267,1,8,0:0:0:0:
256,192,53360,1,0,0:0:0:0:
256,192,53454,1,0,0:0:0:0:
256,192,53548,1,8,0:0:0:0:
256,192,53642,1,8,0:0:0:0:
256,192,53735,1,8,0:0:0:0:
256,192,53829,1,8,0:0:0:0:
256,192,53923,1,8,0:0:0:0:
256,192,54017,1,4,0:0:0:0:
256,192,54579,1,12,0:0:0:0:
256,192,54860,1,4,0:0:0:0:
256,192,55142,1,4,0:0:0:0:
256,192,55329,1,4,0:0:0:0:
256,192,55517,1,12,0:0:0:0:
256,192,55892,1,0,0:0:0:0:
256,192,55986,1,0,0:0:0:0:
256,192,56080,1,8,0:0:0:0:
256,192,56173,1,0,0:0:0:0:
256,192,56360,1,0,0:0:0:0:
256,192,56548,1,8,0:0:0:0:
256,192,56642,1,0,0:0:0:0:
256,192,56735,1,0,0:0:0:0:
256,192,56829,1,8,0:0:0:0:
256,192,56923,1,8,0:0:0:0:
256,192,57017,1,0,0:0:0:0:
256,192,57204,1,0,0:0:0:0:
256,192,57392,1,0,0:0:0:0:
256,192,57485,1,0,0:0:0:0:
256,192,57579,1,8,0:0:0:0:
256,192,57673,1,0,0:0:0:0:
256,192,57860,1,0,0:0:0:0:
256,192,58048,1,0,0:0:0:0:
256,192,58142,1,0,0:0:0:0:
256,192,58235,1,0,0:0:0:0:
256,192,58329,1,8,0:0:0:0:
256,192,58423,1,8,0:0:0:0:
256,192,58517,1,0,0:0:0:0:
256,192,58704,1,0,0:0:0:0:
256,192,58892,1,0,0:0:0:0:
256,192,58985,1,0,0:0:0:0:
256,192,59079,1,8,0:0:0:0:
256,192,59173,1,0,0:0:0:0:
256,192,59267,1,8,0:0:0:0:
256,192,59360,1,8,0:0:0:0:
256,192,59454,1,0,0:0:0:0:
256,192,59548,1,0,0:0:0:0:
256,192,59642,1,8,0:0:0:0:
256,192,59735,1,0,0:0:0:0:
256,192,59829,1,8,0:0:0:0:
256,192,60017,1,4,0:0:0:0:
256,192,60298,1,4,0:0:0:0:
256,192,60579,1,4,0:0:0:0:
256,192,60860,1,4,0:0:0:0:
256,192,61142,1,12,0:0:0:0:
256,192,61517,1,4,0:0:0:0:
256,192,61892,1,8,0:0:0:0:
256,192,62079,1,0,0:0:0:0:
256,192,62267,1,8,0:0:0:0:
256,192,62454,1,8,0:0:0:0:
256,192,62642,1,8,0:0:0:0:
256,192,63017,1,8,0:0:0:0:
256,192,63110,1,8,0:0:0:0:
256,192,63204,1,8,0:0:0:0:
256,192,63392,1,8,0:0:0:0:
256,192,63579,1,0,0:0:0:0:
256,192,63767,1,0,0:0:0:0:
256,192,63954,1,8,0:0:0:0:
256,192,64142,1,8,0:0:0:0:
256,192,64329,1,0,0:0:0:0:
256,192,64517,1,8,0:0:0:0:
256,192,64892,1,8,0:0:0:0:
256,192,64985,1,8,0:0:0:0:
256,192,65079,1,8,0:0:0:0:
256,192,65267,1,8,0:0:0:0:
256,192,65454,1,8,0:0:0:0:
256,192,65642,1,8,0:0:0:0:
256,192,65829,1,0,0:0:0:0:
256,192,66017,1,8,0:0:0:0:
256,192,66110,1,0,0:0:0:0:
256,192,66204,1,0,0:0:0:0:
256,192,66298,1,0,0:0:0:0:
256,192,66392,1,8,0:0:0:0:
256,192,66579,1,0,0:0:0:0:
256,192,66767,1,8,0:0:0:0:
256,192,66954,1,0,0:0:0:0:
256,192,67142,1,8,0:0:0:0:
256,192,67517,1,0,0:0:0:0:
256,192,67892,1,8,0:0:0:0:
256,192,68079,1,0,0:0:0:0:
256,192,68267,1,8,0:0:0:0:
256,192,68454,1,8,0:0:0:0:
256,192,68642,1,8,0:0:0:0:
256,192,69017,1,8,0:0:0:0:
256,192,69392,1,8,0:0:0:0:
256,192,69579,1,0,0:0:0:0:
256,192,69767,1,0,0:0:0:0:
256,192,69954,1,8,0:0:0:0:
256,192,70142,1,8,0:0:0:0:
256,192,70329,1,0,0:0:0:0:
256,192,70517,1,8,0:0:0:0:
256,192,70892,1,8,0:0:0:0:
256,192,70985,1,8,0:0:0:0:
256,192,71079,1,8,0:0:0:0:
256,192,71267,1,8,0:0:0:0:
256,192,71454,1,8,0:0:0:0:
256,192,71642,1,8,0:0:0:0:
256,192,71829,1,0,0:0:0:0:
256,192,72017,1,8,0:0:0:0:
256,192,72110,1,0,0:0:0:0:
256,192,72204,1,0,0:0:0:0:
256,192,72298,1,0,0:0:0:0:
256,192,72392,1,8,0:0:0:0:
256,192,72579,1,0,0:0:0:0:
256,192,72767,1,8,0:0:0:0:
256,192,72954,1,0,0:0:0:0:
256,192,73142,1,12,0:0:0:0:
256,192,73517,1,4,0:0:0:0:
256,192,73704,1,0,0:0:0:0:
256,192,73798,1,0,0:0:0:0:
256,192,73892,1,8,0:0:0:0:
256,192,73985,1,0,0:0:0:0:
256,192,74173,1,0,0:0:0:0:
256,192,74360,1,8,0:0:0:0:
256,192,74548,1,0,0:0:0:0:
256,192,74642,1,8,0:0:0:0:
256,192,74735,1,0,0:0:0:0:
256,192,74829,1,8,0:0:0:0:
256,192,75017,1,8,0:0:0:0:
256,192,75204,1,8,0:0:0:0:
256,192,75298,1,0,0:0:0:0:
256,192,75392,1,0,0:0:0:0:
256,192,75485,1,8,0:0:0:0:
256,192,75673,1,8,0:0:0:0:
256,192,75860,1,8,0:0:0:0:
256,192,75954,1,8,0:0:0:0:
256,192,76048,1,0,0:0:0:0:
256,192,76142,1,8,0:0:0:0:
256,192,76329,1,0,0:0:0:0:
256,192,76517,1,8,0:0:0:0:
256,192,76892,1,8,0:0:0:0:
256,192,76985,1,0,0:0:0:0:
256,192,77079,1,0,0:0:0:0:
256,192,77173,1,8,0:0:0:0:
256,192,77360,1,8,0:0:0:0:
256,192,77548,1,0,0:0:0:0:
256,192,77642,1,0,0:0:0:0:
256,192,77735,1,8,0:0:0:0:
256,192,77829,1,8,0:0:0:0:
256,192,77923,1,0,0:0:0:0:
256,192,78017,1,8,0:0:0:0:
256,192,78204,1,8,0:0:0:0:
256,192,78392,1,0,0:0:0:0:
256,192,78485,1,8,0:0:0:0:
256,192,78673,1,8,0:0:0:0:
256,192,78860,1,0,0:0:0:0:
256,192,78954,1,8,0:0:0:0:
256,192,79048,1,0,0:0:0:0:
256,192,79142,1,8,0:0:0:0:
256,192,79329,1,0,0:0:0:0:
256,192,79517,1,8,0:0:0:0:
256,192,79892,1,0,0:0:0:0:
256,192,79985,1,0,0:0:0:0:
256,192,80079,1,8,0:0:0:0:
256,192,80173,1,0,0:0:0:0:
256,192,80360,1,0,0:0:0:0:
256,192,80548,1,0,0:0:0:0:
256,192,80642,1,8,0:0:0:0:
256,192,80829,1,0,0:0:0:0:
256,192,80923,1,0,0:0:0:0:
256,192,81017,1,8,0:0:0:0:
256,192,81110,1,8,0:0:0:0:
256,192,81204,1,8,0:0:0:0:
256,192,81392,1,0,0:0:0:0:
256,192,81485,1,8,0:0:0:0:
256,192,81673,1,0,0:0:0:0:
256,192,81860,1,8,0:0:0:0:
256,192,82048,1,0,0:0:0:0:
256,192,82142,1,8,0:0:0:0:
256,192,82329,1,8,0:0:0:0:
256,192,82517,1,0,0:0:0:0:
256,192,82610,1,0,0:0:0:0:
256,192,82704,1,0,0:0:0:0:
256,192,82798,1,0,0:0:0:0:
256,192,82892,1,8,0:0:0:0:
256,192,82985,1,0,0:0:0:0:
256,192,83079,1,0,0:0:0:0:
256,192,83173,1,0,0:0:0:0:
256,192,83267,1,8,0:0:0:0:
256,192,83329,1,0,0:0:0:0:
256,192,83392,1,0,0:0:0:0:
256,192,83454,1,0,0:0:0:0:
256,192,83548,1,0,0:0:0:0:
256,192,83642,1,8,0:0:0:0:
256,192,83735,1,0,0:0:0:0:
256,192,83829,1,8,0:0:0:0:
256,192,84017,1,4,0:0:0:0:
256,192,84392,1,12,0:0:0:0:
256,192,84767,1,4,0:0:0:0:
256,192,85142,2,0,P|160:192|128:224,2,112.5
256,192,85517,1,4,0:0:0:0:
256,192,85704,1,0,0:0:0:0:
256,192,85798,1,0,0:0:0:0:
256,192,85892,1,0,0:0:0:0:
256,192,85985,1,8,0:0:0:0:
256,192,86173,1,8,0:0:0:0:
256,192,86360,1,8,0:0:0:0:
256,192,86548,1,0,0:0:0:0:
256,192,86642,1,8,0:0:0:0:
256,192,86829,1,8,0:0:0:0:
256,192,87017,1,8,0:0:0:0:
256,192,87110,1,8,0:0:0:0:
256,192,87204,1,8,0:0:0:0:
256,192,87392,1,0,0:0:0:0:
256,192,87485,1,8,0:0:0:0:
256,192,87673,1,8,0:0:0:0:
256,192,87767,1,0,0:0:0:0:
256,192,87860,1,8,0:0:0:0:
256,192,87954,1,0,0:0:0:0:
256,192,88142,1,4,0:0:0:0:
256,192,88329,1,4,0:0:0:0:
256,192,88517,1,12,0:0:0:0:
256,192,88892,1,0,0:0:0:0:
256,192,88986,1,0,0:0:0:0:
256,192,89080,1,8,0:0:0:0:
256,192,89173,1,0,0:0:0:0:
256,192,89360,1,0,0:0:0:0:
256,192,89454,1,8,0:0:0:0:
256,192,89642,1,0,0:0:0:0:
256,192,89830,1,8,0:0:0:0:
256,192,90017,1,8,0:0:0:0:
256,192,90110,1,8,0:0:0:0:
256,192,90204,1,8,0:0:0:0:
256,192,90392,1,8,0:0:0:0:
256,192,90485,1,0,0:0:0:0:
256,192,90673,1,8,0:0:0:0:
256,192,90861,1,0,0:0:0:0:
256,192,90955,1,8,0:0:0:0:
256,192,91048,1,0,0:0:0:0:
256,192,91142,1,8,0:0:0:0:
256,192,91330,1,4,0:0:0:0:
256,192,91517,1,4,0:0:0:0:
256,192,91892,1,0,0:0:0:0:
256,192,91985,1,0,0:0:0:0:
256,192,92079,1,8,0:0:0:0:
256,192,92172,1,0,0:0:0:0:
256,192,92359,1,0,0:0:0:0:
256,192,92453,1,8,0:0:0:0:
256,192,92641,1,0,0:0:0:0:
256,192,92829,1,8,0:0:0:0:
256,192,93016,1,8,0:0:0:0:
256,192,93109,1,8,0:0:0:0:
256,192,93203,1,8,0:0:0:0:
256,192,93391,1,8,0:0:0:0:
256,192,93484,1,0,0:0:0:0:
256,192,93672,1,8,0:0:0:0:
256,192,93860,1,8,0:0:0:0:
256,192,93954,1,0,0:0:0:0:
256,192,94047,1,8,0:0:0:0:
256,192,94141,1,0,0:0:0:0:
256,192,94329,1,4,0:0:0:0:
256,192,94516,1,4,0:0:0:0:
256,192,94798,1,8,0:0:0:0:
256,192,94985,1,0,0:0:0:0:
256,192,95079,1,8,0:0:0:0:
256,192,95267,1,4,0:0:0:0:
256,192,95454,1,0,0:0:0:0:
256,192,95548,1,8,0:0:0:0:
256,192,95642,1,0,0:0:0:0:
256,192,95829,1,0,0:0:0:0:
256,192,96017,1,4,0:0:0:0:
256,192,96204,1,0,0:0:0:0:
256,192,96298,1,0,0:0:0:0:
256,192,96392,1,8,0:0:0:0:
256,192,96485,1,0,0:0:0:0:
256,192,96579,1,8,0:0:0:0:
256,192,96767,1,0,0:0:0:0:
256,192,96860,1,0,0:0:0:0:
256,192,96954,1,8,0:0:0:0:
256,192,97048,1,8,0:0:0:0:
256,192,97142,1,0,0:0:0:0:
256,192,97329,1,0,0:0:0:0:
256,192,97517,1,12,0:0:0:0:
256,192,97892,1,8,0:0:0:0:
256,192,97985,1,0,0:0:0:0:
256,192,98079,1,0,0:0:0:0:
256,192,98173,1,8,0:0:0:0:
256,192,98360,1,8,0:0:0:0:
256,192,98548,1,0,0:0:0:0:
256,192,98642,1,8,0:0:0:0:
256,192,98829,1,0,0:0:0:0:
256,192,99017,1,8,0:0:0:0:
256,192,99110,1,8,0:0:0:0:
256,192,99204,1,8,0:0:0:0:
256,192,99392,1,0,0:0:0:0:
256,192,99485,1,8,0:0:0:0:
256,192,99673,1,0,0:0:0:0:
256,192,99860,1,8,0:0:0:0:
256,192,99954,1,0,0:0:0:0:
256,192,100048,1,0,0:0:0:0:
256,192,100142,1,0,0:0:0:0:
256,192,100329,1,0,0:0:0:0:
256,192,100517,1,8,0:0:0:0:
256,192,100892,1,0,0:0:0:0:
256,192,100985,1,0,0:0:0:0:
256,192,101079,1,8,0:0:0:0:
256,192,101173,1,8,0:0:0:0:
256,192,101360,1,8,0:0:0:0:
256,192,101548,1,8,0:0:0:0:
256,192,101642,1,0,0:0:0:0:
256,192,101829,1,0,0:0:0:0:
256,192,102017,1,8,0:0:0:0:
256,192,102110,1,0,0:0:0:0:
256,192,102204,1,8,0:0:0:0:
256,192,102298,1,0,0:0:0:0:
256,192,102392,1,0,0:0:0:0:
256,192,102485,1,8,0:0:0:0:
256,192,102673,1,8,0:0:0:0:
256,192,102860,1,8,0:0:0:0:
256,192,103048,1,8,0:0:0:0:
256,192,103142,1,0,0:0:0:0:
256,192,103204,1,0,0:0:0:0:
256,192,103267,1,0,0:0:0:0:
256,192,103329,1,8,0:0:0:0:
256,192,103423,1,8,0:0:0:0:
256,192,103517,1,4,0:0:0:0:
256,192,103704,1,8,0:0:0:0:
256,192,103798,1,0,0:0:0:0:
256,192,103892,1,0,0:0:0:0:
256,192,103985,1,8,0:0:0:0:
256,192,104173,1,8,0:0:0:0:
256,192,104267,1,0,0:0:0:0:
256,192,104360,1,8,0:0:0:0:
256,192,104548,1,8,0:0:0:0:
256,192,104642,1,0,0:0:0:0:
256,192,104735,1,0,0:0:0:0:
256,192,104829,1,8,0:0:0:0:
256,192,105017,1,8,0:0:0:0:
256,192,105204,1,8,0:0:0:0:
256,192,105392,1,0,0:0:0:0:
256,192,105485,1,8,0:0:0:0:
256,192,105673,1,8,0:0:0:0:
256,192,105767,1,0,0:0:0:0:
256,192,105860,1,0,0:0:0:0:
256,192,105954,1,8,0:0:0:0:
256,192,106048,1,8,0:0:0:0:
256,192,106142,1,0,0:0:0:0:
256,192,106329,1,4,0:0:0:0:
256,192,106517,1,4,0:0:0:0:
256,192,106892,1,8,0:0:0:0:
256,192,107267,1,0,0:0:0:0:
256,192,107642,1,8,0:0:0:0:
256,192,108017,1,4,0:0:0:0:
256,192,108392,1,12,0:0:0:0:
256,192,108767,1,4,0:0:0:0:
256,192,108954,1,4,0:0:0:0:
256,192,109142,2,0,L|128:160,2,112.5
256,192,109517,1,4,0:0:0:0:
256,192,109704,1,0,0:0:0:0:
256,192,109798,1,0,0:0:0:0:
256,192,109892,1,0,0:0:0:0:
256,192,109985,1,8,0:0:0:0:
256,192,110173,1,8,0:0:0:0:
256,192,110360,1,8,0:0:0:0:
256,192,110454,1,0,0:0:0:0:
256,192,110548,1,8,0:0:0:0:
256,192,110642,1,0,0:0:0:0:
256,192,110735,1,0,0:0:0:0:
256,192,110829,1,8,0:0:0:0:
256,192,111017,1,0,0:0:0:0:
256,192,111392,1,0,0:0:0:0:
256,192,111486,1,0,0:0:0:0:
256,192,111580,1,8,0:0:0:0:
256,192,111673,1,0,0:0:0:0:
256,192,111860,1,8,0:0:0:0:
256,192,112048,1,8,0:0:0:0:
256,192,112142,1,0,0:0:0:0:
256,192,112235,1,0,0:0:0:0:
256,192,112329,1,8,0:0:0:0:
256,192,112423,1,8,0:0:0:0:
256,192,112517,1,0,0:0:0:0:
256,192,112892,1,0,0:0:0:0:
256,192,112985,1,0,0:0:0:0:
256,192,113079,1,8,0:0:0:0:
256,192,113173,1,0,0:0:0:0:
256,192,113360,1,8,0:0:0:0:
256,192,113548,1,8,0:0:0:0:
256,192,113642,1,8,0:0:0:0:
256,192,113735,1,0,0:0:0:0:
256,192,113829,1,0,0:0:0:0:
256,192,114017,1,12,0:0:0:0:
256,192,114767,1,12,0:0:0:0:
256,192,115142,1,4,0:0:0:0:
256,192,115517,1,12,0:0:0:0:
256,192,115892,1,0,0:0:0:0:
256,192,115986,1,0,0:0:0:0:
256,192,116080,1,8,0:0:0:0:
256,192,116173,1,0,0:0:0:0:
256,192,116360,1,8,0:0:0:0:
256,192,116454,1,8,0:0:0:0:
256,192,116548,1,8,0:0:0:0:
256,192,116642,1,0,0:0:0:0:
256,192,116735,1,0,0:0:0:0:
256,192,116829,1,8,0:0:0:0:
256,192,116923,1,8,0:0:0:0:
256,192,117017,1,0,0:0:0:0:
256,192,117204,1,0,0:0:0:0:
256,192,117392,1,0,0:0:0:0:
256,192,117485,1,0,0:0:0:0:
256,192,117579,1,8,0:0:0:0:
256,192,117673,1,0,0:0:0:0:
224,192,117860,1,8,0:0:0:0:
256,192,117954,1,8,0:0:0:0:
256,192,118049,1,8,0:0:0:0:
256,192,118142,1,0,0:0:0:0:
256,192,118236,1,0,0:0:0:0:
256,192,118329,1,8,0:0:0:0:
256,192,118423,1,8,0:0:0:0:
256,192,118517,1,0,0:0:0:0:
256,192,118892,1,0,0:0:0:0:
256,192,118985,1,0,0:0:0:0:
256,192,119079,1,8,0:0:0:0:
256,192,119173,1,0,0:0:0:0:
256,192,119360,1,8,0:0:0:0:
256,192,119454,1,8,0:0:0:0:
256,192,119548,1,8,0:0:0:0:
256,192,119642,1,0,0:0:0:0:
256,192,119735,1,0,0:0:0:0:
256,192,119829,1,0,0:0:0:0:
256,192,119923,1,0,0:0:0:0:
256,192,120017,1,12,0:0:0:0:
256,192,120204,1,8,0:0:0:0:
256,192,120298,1,8,0:0:0:0:
256,192,120392,1,0,0:0:0:0:
256,192,120454,1,0,0:0:0:0:
256,192,120517,1,0,0:0:0:0:
256,192,120579,1,0,0:0:0:0:
256,192,120767,1,4,0:0:0:0:
256,192,120954,1,4,0:0:0:0:
256,192,121142,1,12,0:0:0:0:
256,192,121517,1,4,0:0:0:0:
256,192,122267,1,12,0:0:0:0:
256,192,122548,1,4,0:0:0:0:
256,192,122829,1,12,0:0:0:0:
