osu file format v14

[General]
AudioFilename: audio.mp3
AudioLeadIn: 0
PreviewTime: 85517
Countdown: 0
SampleSet: Normal
StackLeniency: 0.7
Mode: 1
LetterboxInBreaks: 0
WidescreenStoryboard: 1

[Editor]
DistanceSpacing: 1
BeatDivisor: 4
GridSize: 32
TimelineZoom: 3.199999

[Metadata]
Title:ENERGY SYNERGY MATRIX
TitleUnicode:ENERGY SYNERGY MATRIX
Artist:Tanchiky
ArtistUnicode:Tanchiky
Creator:Kunieda
Version:ONI
Source:BMS
Tags:purinharumaki power bass bofu2017 legenda est a myth
BeatmapID:1491749
BeatmapSetID:705287

[Difficulty]
HPDrainRate:5
CircleSize:3
OverallDifficulty:4.5
ApproachRate:6
SliderMultiplier:1.6
SliderTickRate:1

[Events]
//Background and Video events
0,0,"bg1.png",0,0
//Break Periods
//Storyboard Layer 0 (Background)
//Storyboard Layer 1 (Fail)
//Storyboard Layer 2 (Pass)
//Storyboard Layer 3 (Foreground)
//Storyboard Sound Samples

[TimingPoints]
1517,375,4,1,0,80,1,0
25517,-83.3333333333333,4,1,0,80,0,1
37517,-100,4,1,0,80,0,0
61517,-133.333333333333,4,2,0,70,0,0
67517,-111.111111111111,4,2,0,70,0,0
73517,-100,4,1,0,80,0,0
85517,-83.3333333333333,4,1,0,80,0,1
109517,-100,4,1,0,80,0,0

[HitObjects]
256,192,1517,5,4,0:0:0:0:
256,192,2829,1,8,0:0:0:0:
256,192,3017,1,4,0:0:0:0:
256,192,4142,1,8,0:0:0:0:
256,192,4235,1,8,0:0:0:0:
256,192,4329,1,8,0:0:0:0:
256,192,4517,1,4,0:0:0:0:
256,192,5079,1,8,0:0:0:0:
256,192,5267,1,4,0:0:0:0:
256,192,5548,1,4,0:0:0:0:
256,192,5829,1,12,0:0:0:0:
256,192,6017,1,4,0:0:0:0:
256,192,6767,1,0,0:0:0:0:
256,192,7142,1,8,0:0:0:0:
256,192,7235,1,8,0:0:0:0:
256,192,7329,1,8,0:0:0:0:
256,192,7517,1,4,0:0:0:0:
256,192,7704,1,0,0:0:0:0:
256,192,7892,1,8,0:0:0:0:
256,192,8173,1,8,0:0:0:0:
256,192,8266,1,0,0:0:0:0:
256,192,8454,1,0,0:0:0:0:
256,192,8642,1,8,0:0:0:0:
256,192,9017,1,4,0:0:0:0:
256,192,9204,1,0,0:0:0:0:
256,192,9392,1,8,0:0:0:0:
256,192,9673,1,8,0:0:0:0:
256,192,9766,1,0,0:0:0:0:
256,192,9955,1,0,0:0:0:0:
256,192,10142,1,8,0:0:0:0:
256,192,10517,1,4,0:0:0:0:
256,192,10704,1,0,0:0:0:0:
256,192,10892,1,8,0:0:0:0:
256,192,11267,1,4,0:0:0:0:
256,192,11454,1,0,0:0:0:0:
256,192,11642,1,8,0:0:0:0:
256,192,11829,1,0,0:0:0:0:
256,192,12017,1,8,0:0:0:0:
256,192,12110,1,8,0:0:0:0:
256,192,12204,1,0,0:0:0:0:
256,192,12298,1,0,0:0:0:0:
256,192,12392,1,8,0:0:0:0:
256,192,12485,1,8,0:0:0:0:
256,192,12579,1,0,0:0:0:0:
256,192,12767,1,4,0:0:0:0:
256,192,13142,1,12,0:0:0:0:
256,192,13517,1,4,0:0:0:0:
256,192,13892,1,0,0:0:0:0:
256,192,13985,1,8,0:0:0:0:
256,192,14173,1,8,0:0:0:0:
256,192,14267,1,0,0:0:0:0:
256,192,14360,1,8,0:0:0:0:
256,192,14642,1,0,0:0:0:0:
256,192,14829,1,8,0:0:0:0:
256,192,15017,1,0,0:0:0:0:
256,192,15392,1,0,0:0:0:0:
256,192,15485,1,8,0:0:0:0:
256,192,15673,1,8,0:0:0:0:
256,192,15766,1,0,0:0:0:0:
256,192,15860,1,8,0:0:0:0:
256,192,16141,1,0,0:0:0:0:
256,192,16329,1,8,0:0:0:0:
256,192,16517,1,0,0:0:0:0:
256,192,16892,1,0,0:0:0:0:
256,192,16985,1,8,0:0:0:0:
256,192,17173,1,8,0:0:0:0:
256,192,17267,1,0,0:0:0:0:
256,192,17360,1,8,0:0:0:0:
256,192,17642,1,0,0:0:0:0:
256,192,17829,1,8,0:0:0:0:
256,192,18017,1,4,0:0:0:0:
256,192,18392,1,0,0:0:0:0:
256,192,18767,1,12,0:0:0:0:
256,192,19142,1,4,0:0:0:0:
256,192,19517,1,12,0:0:0:0:
256,192,19892,1,0,0:0:0:0:
256,192,19985,1,8,0:0:0:0:
256,192,20173,1,8,0:0:0:0:
256,192,20267,1,0,0:0:0:0:
256,192,20360,1,8,0:0:0:0:
256,192,20642,1,0,0:0:0:0:
256,192,20829,1,8,0:0:0:0:
256,192,21017,1,0,0:0:0:0:
256,192,21392,1,0,0:0:0:0:
256,192,21485,1,8,0:0:0:0:
256,192,21673,1,8,0:0:0:0:
256,192,21766,1,0,0:0:0:0:
256,192,21860,1,8,0:0:0:0:
256,192,22141,1,0,0:0:0:0:
256,192,22329,1,8,0:0:0:0:
256,192,22517,1,0,0:0:0:0:
256,192,22892,1,0,0:0:0:0:
256,192,22985,1,8,0:0:0:0:
256,192,23173,1,8,0:0:0:0:
256,192,23267,1,0,0:0:0:0:
256,192,23360,1,8,0:0:0:0:
256,192,23642,1,0,0:0:0:0:
256,192,23829,1,8,0:0:0:0:
256,192,24017,1,4,0:0:0:0:
256,192,24392,1,8,0:0:0:0:
256,192,24485,1,8,0:0:0:0:
256,192,24579,1,8,0:0:0:0:
256,192,24767,1,4,0:0:0:0:
256,192,24954,1,4,0:0:0:0:
256,192,25142,1,12,0:0:0:0:
256,192,25517,1,4,0:0:0:0:
256,192,25704,1,8,0:0:0:0:
256,192,25891,1,0,0:0:0:0:
256,192,25985,1,8,0:0:0:0:
256,192,26173,1,8,0:0:0:0:
256,192,26267,1,0,0:0:0:0:
256,192,26360,1,8,0:0:0:0:
256,192,26548,1,8,0:0:0:0:
256,192,26642,1,0,0:0:0:0:
256,192,26829,1,0,0:0:0:0:
256,192,27017,1,8,0:0:0:0:
256,192,27110,1,0,0:0:0:0:
256,192,27204,1,8,0:0:0:0:
256,192,27392,1,8,0:0:0:0:
256,192,27485,1,0,0:0:0:0:
256,192,27579,1,0,0:0:0:0:
256,192,27767,1,0,0:0:0:0:
256,192,27860,1,0,0:0:0:0:
256,192,27954,1,8,0:0:0:0:
256,192,28142,1,0,0:0:0:0:
256,192,28235,1,0,0:0:0:0:
256,192,28329,1,8,0:0:0:0:
256,192,28423,1,8,0:0:0:0:
256,192,28517,1,0,0:0:0:0:
256,192,28704,1,8,0:0:0:0:
256,192,28892,1,0,0:0:0:0:
256,192,28985,1,8,0:0:0:0:
256,192,29173,1,8,0:0:0:0:
256,192,29267,1,0,0:0:0:0:
256,192,29360,1,8,0:0:0:0:
256,192,29548,1,8,0:0:0:0:
256,192,29642,1,0,0:0:0:0:
256,192,29735,1,0,0:0:0:0:
256,192,29829,1,8,0:0:0:0:
256,192,29923,1,8,0:0:0:0:
256,192,30017,1,0,0:0:0:0:
256,192,30204,1,8,0:0:0:0:
256,192,30392,1,0,0:0:0:0:
256,192,30485,1,8,0:0:0:0:
256,192,30673,1,8,0:0:0:0:
256,192,30767,1,0,0:0:0:0:
256,192,30860,1,0,0:0:0:0:
256,192,30954,1,8,0:0:0:0:
256,192,31142,1,4,0:0:0:0:
256,192,31329,1,12,0:0:0:0:
256,192,31517,1,4,0:0:0:0:
256,192,31704,1,8,0:0:0:0:
256,192,31891,1,0,0:0:0:0:
256,192,31985,1,8,0:0:0:0:
256,192,32173,1,8,0:0:0:0:
256,192,32267,1,0,0:0:0:0:
256,192,32360,1,8,0:0:0:0:
256,192,32548,1,8,0:0:0:0:
256,192,32642,1,0,0:0:0:0:
256,192,32829,1,0,0:0:0:0:
256,192,33017,1,8,0:0:0:0:
256,192,33110,1,0,0:0:0:0:
256,192,33204,1,8,0:0:0:0:
256,192,33392,1,8,0:0:0:0:
256,192,33485,1,0,0:0:0:0:
256,192,33579,1,0,0:0:0:0:
256,192,33767,1,0,0:0:0:0:
256,192,33860,1,0,0:0:0:0:
256,192,33954,1,8,0:0:0:0:
256,192,34142,1,0,0:0:0:0:
256,192,34235,1,0,0:0:0:0:
256,192,34329,1,8,0:0:0:0:
256,192,34423,1,8,0:0:0:0:
256,192,34517,1,0,0:0:0:0:
256,192,34704,1,0,0:0:0:0:
256,192,34892,1,8,0:0:0:0:
256,192,34985,1,8,0:0:0:0:
256,192,35079,1,8,0:0:0:0:
256,192,35267,1,0,0:0:0:0:
256,192,35454,1,0,0:0:0:0:
256,192,35642,1,8,0:0:0:0:
256,192,35829,1,0,0:0:0:0:
256,192,36017,1,4,0:0:0:0:
256,192,36392,1,12,0:0:0:0:
256,192,36767,1,4,0:0:0:0:
256,192,36954,1,4,0:0:0:0:
256,192,37142,1,12,0:0:0:0:
256,192,37517,1,4,0:0:0:0:
256,192,37704,1,0,0:0:0:0:
256,192,37798,1,0,0:0:0:0:
256,192,37892,1,8,0:0:0:0:
256,192,38079,1,0,0:0:0:0:
256,192,38267,1,8,0:0:0:0:
256,192,38454,1,0,0:0:0:0:
256,192,38548,1,8,0:0:0:0:
256,192,38642,1,0,0:0:0:0:
256,192,38829,1,12,0:0:0:0:
256,192,39204,1,12,0:0:0:0:
256,192,39392,1,12,0:0:0:0:
256,192,39579,1,0,0:0:0:0:
256,192,39767,1,8,0:0:0:0:
256,192,39860,1,0,0:0:0:0:
256,192,39954,1,0,0:0:0:0:
256,192,40048,1,8,0:0:0:0:
256,192,40142,1,0,0:0:0:0:
256,192,40329,1,12,0:0:0:0:
256,192,40517,1,4,0:0:0:0:
256,192,40704,1,0,0:0:0:0:
256,192,40798,1,0,0:0:0:0:
256,192,40892,1,8,0:0:0:0:
256,192,41079,1,0,0:0:0:0:
256,192,41267,1,8,0:0:0:0:
256,192,41454,1,0,0:0:0:0:
256,192,41829,1,0,0:0:0:0:
256,192,42017,1,12,0:0:0:0:
256,192,42298,1,12,0:0:0:0:
256,192,42579,1,12,0:0:0:0:
256,192,42860,1,4,0:0:0:0:
256,192,43142,1,12,0:0:0:0:
256,192,43329,1,12,0:0:0:0:
256,192,43517,1,4,0:0:0:0:
256,192,43704,1,0,0:0:0:0:
256,192,43798,1,0,0:0:0:0:
256,192,43892,1,8,0:0:0:0:
256,192,44079,1,0,0:0:0:0:
256,192,44267,1,8,0:0:0:0:
256,192,44454,1,0,0:0:0:0:
256,192,44548,1,8,0:0:0:0:
256,192,44642,1,0,0:0:0:0:
256,192,44829,1,12,0:0:0:0:
256,192,45017,1,4,0:0:0:0:
256,192,45298,1,0,0:0:0:0:
256,192,45391,1,8,0:0:0:0:
256,192,45579,1,8,0:0:0:0:
256,192,45673,1,0,0:0:0:0:
256,192,45767,1,8,0:0:0:0:
256,192,45860,1,0,0:0:0:0:
256,192,45954,1,0,0:0:0:0:
256,192,46048,1,8,0:0:0:0:
256,192,46329,1,12,0:0:0:0:
256,192,46517,1,4,0:0:0:0:
256,192,47079,1,12,0:0:0:0:
256,192,47267,1,4,0:0:0:0:
256,192,47829,1,12,0:0:0:0:
256,192,48016,1,4,0:0:0:0:
256,192,48298,1,0,0:0:0:0:
256,192,48579,1,0,0:0:0:0:
256,192,48767,1,12,0:0:0:0:
256,192,49048,1,4,0:0:0:0:
256,192,49235,1,12,0:0:0:0:
256,192,49517,1,4,0:0:0:0:
256,192,49705,1,0,0:0:0:0:
256,192,49798,1,0,0:0:0:0:
256,192,49892,1,8,0:0:0:0:
256,192,50080,1,0,0:0:0:0:
256,192,50267,1,8,0:0:0:0:
256,192,50361,1,8,0:0:0:0:
256,192,50455,1,0,0:0:0:0:
256,192,50642,1,8,0:0:0:0:
256,192,50829,1,0,0:0:0:0:
256,192,51017,1,8,0:0:0:0:
256,192,51110,1,8,0:0:0:0:
256,192,51204,1,0,0:0:0:0:
256,192,51298,1,0,0:0:0:0:
256,192,51392,1,8,0:0:0:0:
224,192,51579,1,0,0:0:0:0:
256,192,51767,1,8,0:0:0:0:
256,192,51954,1,0,0:0:0:0:
256,192,52048,1,8,0:0:0:0:
256,192,52329,1,0,0:0:0:0:
256,192,52517,1,8,0:0:0:0:
256,192,52610,1,8,0:0:0:0:
256,192,52704,1,8,0:0:0:0:
256,192,52892,1,0,0:0:0:0:
256,192,52985,1,0,0:0:0:0:
256,192,53079,1,0,0:0:0:0:
256,192,53267,1,8,0:0:0:0:
256,192,53360,1,0,0:0:0:0:
256,192,53454,1,0,0:0:0:0:
256,192,53642,1,8,0:0:0:0:
256,192,53735,1,8,0:0:0:0:
256,192,53829,1,8,0:0:0:0:
256,192,54017,1,4,0:0:0:0:
256,192,54579,1,4,0:0:0:0:
256,192,54860,1,4,0:0:0:0:
256,192,55142,1,12,0:0:0:0:
256,192,55329,1,12,0:0:0:0:
256,192,55517,1,4,0:0:0:0:
256,192,55892,1,0,0:0:0:0:
256,192,55985,1,8,0:0:0:0:
256,192,56173,1,8,0:0:0:0:
256,192,56267,1,0,0:0:0:0:
256,192,56360,1,8,0:0:0:0:
256,192,56642,1,0,0:0:0:0:
256,192,56829,1,8,0:0:0:0:
256,192,57017,1,0,0:0:0:0:
256,192,57392,1,0,0:0:0:0:
256,192,57485,1,8,0:0:0:0:
256,192,57673,1,8,0:0:0:0:
256,192,57766,1,0,0:0:0:0:
256,192,57860,1,8,0:0:0:0:
256,192,58141,1,0,0:0:0:0:
256,192,58329,1,8,0:0:0:0:
256,192,58517,1,0,0:0:0:0:
256,192,58892,1,0,0:0:0:0:
256,192,58985,1,8,0:0:0:0:
256,192,59173,1,8,0:0:0:0:
256,192,59267,1,0,0:0:0:0:
256,192,59360,1,8,0:0:0:0:
256,192,59642,1,0,0:0:0:0:
256,192,59829,1,8,0:0:0:0:
256,192,60017,1,4,0:0:0:0:
256,192,60298,1,4,0:0:0:0:
256,192,60579,1,4,0:0:0:0:
256,192,60860,1,4,0:0:0:0:
256,192,61142,1,12,0:0:0:0:
256,192,61517,1,12,0:0:0:0:
256,192,61892,1,8,0:0:0:0:
256,192,62079,1,0,0:0:0:0:
256,192,62267,1,8,0:0:0:0:
256,192,62454,1,8,0:0:0:0:
256,192,62642,1,8,0:0:0:0:
256,192,63017,1,0,0:0:0:0:
256,192,63392,1,8,0:0:0:0:
256,192,63579,1,8,0:0:0:0:
256,192,63767,1,8,0:0:0:0:
256,192,63954,1,0,0:0:0:0:
256,192,64142,1,8,0:0:0:0:
256,192,64329,1,0,0:0:0:0:
256,192,64517,1,8,0:0:0:0:
256,192,64892,1,8,0:0:0:0:
256,192,65079,1,8,0:0:0:0:
256,192,65267,1,0,0:0:0:0:
256,192,65454,1,0,0:0:0:0:
256,192,65642,1,8,0:0:0:0:
256,192,65829,1,8,0:0:0:0:
256,192,66017,1,8,0:0:0:0:
256,192,66110,1,0,0:0:0:0:
256,192,66204,1,8,0:0:0:0:
256,192,66392,1,8,0:0:0:0:
256,192,66579,1,0,0:0:0:0:
256,192,66767,1,8,0:0:0:0:
256,192,66954,1,0,0:0:0:0:
256,192,67142,1,8,0:0:0:0:
256,192,67517,1,0,0:0:0:0:
256,192,67892,1,8,0:0:0:0:
256,192,68079,1,0,0:0:0:0:
256,192,68267,1,8,0:0:0:0:
256,192,68454,1,8,0:0:0:0:
256,192,68642,1,8,0:0:0:0:
256,192,69017,1,0,0:0:0:0:
256,192,69392,1,8,0:0:0:0:
256,192,69579,1,8,0:0:0:0:
256,192,69767,1,8,0:0:0:0:
256,192,69954,1,0,0:0:0:0:
256,192,70142,1,8,0:0:0:0:
256,192,70329,1,0,0:0:0:0:
256,192,70517,1,8,0:0:0:0:
256,192,70892,1,8,0:0:0:0:
256,192,71079,1,8,0:0:0:0:
256,192,71267,1,0,0:0:0:0:
256,192,71454,1,0,0:0:0:0:
256,192,71642,1,8,0:0:0:0:
256,192,71829,1,8,0:0:0:0:
256,192,72017,1,8,0:0:0:0:
256,192,72110,1,0,0:0:0:0:
256,192,72204,1,8,0:0:0:0:
256,192,72392,1,8,0:0:0:0:
256,192,72579,1,0,0:0:0:0:
256,192,72767,1,8,0:0:0:0:
256,192,72954,1,0,0:0:0:0:
256,192,73142,1,12,0:0:0:0:
256,192,73517,1,4,0:0:0:0:
256,192,73704,1,0,0:0:0:0:
256,192,73892,1,8,0:0:0:0:
256,192,73985,1,0,0:0:0:0:
256,192,74173,1,8,0:0:0:0:
256,192,74267,1,0,0:0:0:0:
256,192,74360,1,0,0:0:0:0:
256,192,74548,1,0,0:0:0:0:
256,192,74642,1,8,0:0:0:0:
256,192,74829,1,8,0:0:0:0:
256,192,75017,1,8,0:0:0:0:
256,192,75110,1,0,0:0:0:0:
256,192,75204,1,8,0:0:0:0:
256,192,75392,1,8,0:0:0:0:
256,192,75579,1,8,0:0:0:0:
256,192,75673,1,0,0:0:0:0:
256,192,75767,1,0,0:0:0:0:
256,192,75954,1,0,0:0:0:0:
256,192,76048,1,8,0:0:0:0:
256,192,76142,1,0,0:0:0:0:
256,192,76329,1,0,0:0:0:0:
256,192,76517,1,8,0:0:0:0:
256,192,76892,1,8,0:0:0:0:
256,192,76985,1,8,0:0:0:0:
256,192,77173,1,8,0:0:0:0:
256,192,77267,1,0,0:0:0:0:
256,192,77454,1,0,0:0:0:0:
256,192,77642,1,0,0:0:0:0:
256,192,77735,1,0,0:0:0:0:
256,192,77829,1,8,0:0:0:0:
256,192,78017,1,0,0:0:0:0:
256,192,78204,1,8,0:0:0:0:
256,192,78392,1,0,0:0:0:0:
256,192,78485,1,8,0:0:0:0:
256,192,78673,1,8,0:0:0:0:
256,192,78767,1,0,0:0:0:0:
256,192,78954,1,0,0:0:0:0:
256,192,79048,1,0,0:0:0:0:
256,192,79142,1,8,0:0:0:0:
256,192,79329,1,0,0:0:0:0:
256,192,79517,1,0,0:0:0:0:
256,192,79892,1,8,0:0:0:0:
256,192,79985,1,0,0:0:0:0:
256,192,80173,1,0,0:0:0:0:
256,192,80267,1,8,0:0:0:0:
256,192,80360,1,0,0:0:0:0:
256,192,80548,1,0,0:0:0:0:
256,192,80642,1,8,0:0:0:0:
256,192,80829,1,8,0:0:0:0:
256,192,81017,1,8,0:0:0:0:
256,192,81204,1,8,0:0:0:0:
256,192,81392,1,0,0:0:0:0:
256,192,81485,1,8,0:0:0:0:
256,192,81673,1,0,0:0:0:0:
256,192,81767,1,8,0:0:0:0:
256,192,81860,1,0,0:0:0:0:
256,192,82048,1,0,0:0:0:0:
256,192,82142,1,8,0:0:0:0:
256,192,82329,1,8,0:0:0:0:
256,192,82517,1,0,0:0:0:0:
256,192,82892,1,8,0:0:0:0:
256,192,82985,1,0,0:0:0:0:
256,192,83173,1,0,0:0:0:0:
256,192,83360,1,0,0:0:0:0:
256,192,83454,1,0,0:0:0:0:
256,192,83642,1,0,0:0:0:0:
256,192,83735,1,8,0:0:0:0:
256,192,83829,1,0,0:0:0:0:
256,192,84017,1,4,0:0:0:0:
256,192,84392,1,12,0:0:0:0:
256,192,84767,1,4,0:0:0:0:
256,192,85142,1,4,0:0:0:0:
256,192,85517,1,4,0:0:0:0:
256,192,85892,1,0,0:0:0:0:
256,192,85986,1,8,0:0:0:0:
256,192,86173,1,8,0:0:0:0:
256,192,86267,1,0,0:0:0:0:
256,192,86454,1,0,0:0:0:0:
256,192,86548,1,0,0:0:0:0:
256,192,86642,1,8,0:0:0:0:
256,192,86829,1,8,0:0:0:0:
256,192,87017,1,8,0:0:0:0:
256,192,87110,1,0,0:0:0:0:
256,192,87204,1,8,0:0:0:0:
256,192,87392,1,8,0:0:0:0:
256,192,87485,1,8,0:0:0:0:
256,192,87673,1,0,0:0:0:0:
256,192,87860,1,0,0:0:0:0:
256,192,87954,1,0,0:0:0:0:
256,192,88048,1,8,0:0:0:0:
256,192,88142,1,0,0:0:0:0:
256,192,88329,1,0,0:0:0:0:
256,192,88517,1,8,0:0:0:0:
256,192,88892,1,8,0:0:0:0:
256,192,88985,1,8,0:0:0:0:
256,192,89173,1,8,0:0:0:0:
256,192,89267,1,0,0:0:0:0:
256,192,89454,1,0,0:0:0:0:
256,192,89642,1,0,0:0:0:0:
256,192,89735,1,0,0:0:0:0:
256,192,89829,1,8,0:0:0:0:
256,192,90017,1,0,0:0:0:0:
256,192,90204,1,8,0:0:0:0:
256,192,90392,1,0,0:0:0:0:
256,192,90485,1,8,0:0:0:0:
256,192,90673,1,8,0:0:0:0:
256,192,90767,1,0,0:0:0:0:
256,192,90954,1,0,0:0:0:0:
256,192,91048,1,0,0:0:0:0:
256,192,91142,1,8,0:0:0:0:
256,192,91329,1,0,0:0:0:0:
256,192,91517,1,0,0:0:0:0:
256,192,91892,1,8,0:0:0:0:
256,192,91985,1,0,0:0:0:0:
256,192,92173,1,0,0:0:0:0:
256,192,92267,1,8,0:0:0:0:
256,192,92360,1,0,0:0:0:0:
256,192,92548,1,0,0:0:0:0:
256,192,92642,1,8,0:0:0:0:
256,192,92829,1,8,0:0:0:0:
256,192,93017,1,8,0:0:0:0:
256,192,93204,1,8,0:0:0:0:
256,192,93392,1,0,0:0:0:0:
256,192,93485,1,8,0:0:0:0:
256,192,93673,1,0,0:0:0:0:
256,192,93767,1,8,0:0:0:0:
256,192,93860,1,0,0:0:0:0:
256,192,94048,1,0,0:0:0:0:
256,192,94142,1,8,0:0:0:0:
256,192,94329,1,8,0:0:0:0:
256,192,94517,1,4,0:0:0:0:
256,192,94798,1,8,0:0:0:0:
256,192,94892,1,8,0:0:0:0:
256,192,95079,1,8,0:0:0:0:
256,192,95267,1,4,0:0:0:0:
256,192,95548,1,8,0:0:0:0:
256,192,95641,1,8,0:0:0:0:
256,192,95829,1,8,0:0:0:0:
256,192,96017,1,4,0:0:0:0:
256,192,96298,1,8,0:0:0:0:
256,192,96392,1,8,0:0:0:0:
256,192,96579,1,8,0:0:0:0:
256,192,96767,1,0,0:0:0:0:
256,192,96954,1,8,0:0:0:0:
256,192,97048,1,8,0:0:0:0:
256,192,97142,1,0,0:0:0:0:
256,192,97329,1,0,0:0:0:0:
256,192,97517,1,12,0:0:0:0:
256,192,97892,1,0,0:0:0:0:
256,192,97985,1,8,0:0:0:0:
256,192,98173,1,8,0:0:0:0:
256,192,98267,1,0,0:0:0:0:
256,192,98360,1,8,0:0:0:0:
256,192,98548,1,0,0:0:0:0:
256,192,98642,1,8,0:0:0:0:
256,192,98829,1,0,0:0:0:0:
256,192,99017,1,8,0:0:0:0:
256,192,99110,1,8,0:0:0:0:
256,192,99204,1,8,0:0:0:0:
256,192,99392,1,8,0:0:0:0:
256,192,99485,1,0,0:0:0:0:
256,192,99673,1,0,0:0:0:0:
256,192,99767,1,8,0:0:0:0:
256,192,99860,1,0,0:0:0:0:
256,192,100048,1,0,0:0:0:0:
256,192,100142,1,8,0:0:0:0:
256,192,100329,1,0,0:0:0:0:
256,192,100517,1,8,0:0:0:0:
256,192,100892,1,0,0:0:0:0:
256,192,100985,1,8,0:0:0:0:
256,192,101173,1,8,0:0:0:0:
256,192,101360,1,8,0:0:0:0:
256,192,101548,1,0,0:0:0:0:
256,192,101642,1,8,0:0:0:0:
256,192,101829,1,0,0:0:0:0:
256,192,102017,1,8,0:0:0:0:
256,192,102110,1,0,0:0:0:0:
256,192,102204,1,8,0:0:0:0:
256,192,102392,1,8,0:0:0:0:
256,192,102485,1,0,0:0:0:0:
256,192,102673,1,0,0:0:0:0:
256,192,102860,1,8,0:0:0:0:
256,192,102954,1,0,0:0:0:0:
256,192,103142,1,8,0:0:0:0:
256,192,103235,1,0,0:0:0:0:
256,192,103329,1,0,0:0:0:0:
256,192,103423,1,0,0:0:0:0:
256,192,103517,1,8,0:0:0:0:
256,192,103892,1,8,0:0:0:0:
256,192,103985,1,0,0:0:0:0:
256,192,104079,1,0,0:0:0:0:
256,192,104173,1,8,0:0:0:0:
256,192,104360,1,0,0:0:0:0:
256,192,104548,1,0,0:0:0:0:
256,192,104642,1,8,0:0:0:0:
288,192,104829,1,0,0:0:0:0:
288,192,105017,1,8,0:0:0:0:
288,192,105110,1,8,0:0:0:0:
288,192,105204,1,8,0:0:0:0:
288,192,105392,1,8,0:0:0:0:
288,192,105485,1,0,0:0:0:0:
288,192,105674,1,0,0:0:0:0:
288,192,105767,1,8,0:0:0:0:
288,192,105860,1,0,0:0:0:0:
288,192,106048,1,8,0:0:0:0:
288,192,106142,1,8,0:0:0:0:
288,192,106329,1,0,0:0:0:0:
288,192,106517,1,8,0:0:0:0:
288,192,106892,1,8,0:0:0:0:
288,192,107267,1,0,0:0:0:0:
288,192,107642,1,8,0:0:0:0:
288,192,108017,1,4,0:0:0:0:
288,192,108392,1,8,0:0:0:0:
288,192,108767,1,4,0:0:0:0:
288,192,108954,1,4,0:0:0:0:
288,192,109142,1,12,0:0:0:0:
288,192,109517,1,4,0:0:0:0:
256,192,109892,1,0,0:0:0:0:
256,192,109985,1,8,0:0:0:0:
256,192,110173,1,8,0:0:0:0:
256,192,110267,1,0,0:0:0:0:
256,192,110360,1,8,0:0:0:0:
256,192,110642,1,0,0:0:0:0:
256,192,110829,1,8,0:0:0:0:
256,192,111017,1,0,0:0:0:0:
256,192,111392,1,0,0:0:0:0:
256,192,111485,1,8,0:0:0:0:
256,192,111673,1,8,0:0:0:0:
256,192,111766,1,0,0:0:0:0:
256,192,111860,1,8,0:0:0:0:
256,192,112141,1,0,0:0:0:0:
256,192,112329,1,8,0:0:0:0:
256,192,112517,1,0,0:0:0:0:
256,192,112892,1,0,0:0:0:0:
256,192,112985,1,8,0:0:0:0:
256,192,113173,1,8,0:0:0:0:
256,192,113267,1,0,0:0:0:0:
256,192,113360,1,8,0:0:0:0:
256,192,113642,1,0,0:0:0:0:
256,192,113829,1,8,0:0:0:0:
256,192,114017,1,4,0:0:0:0:
256,192,114392,1,0,0:0:0:0:
256,192,114486,1,0,0:0:0:0:
256,192,114580,1,0,0:0:0:0:
256,192,114767,1,4,0:0:0:0:
256,192,115142,1,4,0:0:0:0:
256,192,115517,1,12,0:0:0:0:
256,192,115892,1,0,0:0:0:0:
256,192,115985,1,8,0:0:0:0:
256,192,116173,1,8,0:0:0:0:
256,192,116267,1,0,0:0:0:0:
256,192,116360,1,8,0:0:0:0:
256,192,116642,1,0,0:0:0:0:
256,192,116829,1,8,0:0:0:0:
256,192,117017,1,0,0:0:0:0:
256,192,117392,1,0,0:0:0:0:
256,192,117485,1,8,0:0:0:0:
256,192,117673,1,8,0:0:0:0:
256,192,117766,1,0,0:0:0:0:
256,192,117860,1,8,0:0:0:0:
256,192,118141,1,0,0:0:0:0:
256,192,118329,1,8,0:0:0:0:
256,192,118517,1,0,0:0:0:0:
256,192,118892,1,0,0:0:0:0:
256,192,118985,1,8,0:0:0:0:
256,192,119173,1,8,0:0:0:0:
256,192,119267,1,0,0:0:0:0:
256,192,119360,1,8,0:0:0:0:
256,192,119642,1,0,0:0:0:0:
256,192,119829,1,8,0:0:0:0:
256,192,120017,1,4,0:0:0:0:
256,192,120392,1,0,0:0:0:0:
256,192,120485,1,0,0:0:0:0:
256,192,120579,1,0,0:0:0:0:
256,192,120767,1,4,0:0:0:0:
256,192,120954,1,0,0:0:0:0:
256,192,121142,1,8,0:0:0:0:
256,192,121517,1,4,0:0:0:0:
256,192,122267,1,4,0:0:0:0:
256,192,122548,1,4,0:0:0:0:
256,192,122829,1,12,0:0:0:0:
