osu file format v14

[General]
AudioFilename: audio.ogg
AudioLeadIn: 0
PreviewTime: 158984
Countdown: 0
SampleSet: Soft
StackLeniency: 0.5
Mode: 0
LetterboxInBreaks: 0
WidescreenStoryboard: 1

[Editor]
Bookmarks: 13484,25484,37484,49484,64484,76484,88484,100484,112484,124484,136484,148484,160484,172484,184484,196484,208484,220484,235192
DistanceSpacing: 1
BeatDivisor: 8
GridSize: 8
TimelineZoom: 1.7

[Metadata]
Title:ENERGY SYNERGY MATRIX (Extended)
TitleUnicode:ENERGY SYNERGY MATRIX (Extended)
Artist:Tanchiky
ArtistUnicode:Tanchiky
Creator:Wispy
Version:INSANE
Source:BOFU2017 - LEGENDA EST A MYTH -
Tags:cytusine rlc captin1 winber1 firiiu featured artist fa mpg mg mappers' guild electronic instrumental groundbreaking compilation album hitech hi-tech esm THE BMS OF FIGHTERS ULTIMATE
BeatmapID:4539034
BeatmapSetID:2091981

[Difficulty]
HPDrainRate:4.8
CircleSize:4.4
OverallDifficulty:7.5
ApproachRate:8.7
SliderMultiplier:1.8
SliderTickRate:1

[Events]
//Background and Video events
0,0,"EMLy6DGUcAA-klV.jpg",0,0
//Break Periods
2,60174,60829
2,105174,105829
2,111174,111829
2,124674,135454
//Storyboard Layer 0 (Background)
//Storyboard Layer 1 (Fail)
//Storyboard Layer 2 (Pass)
//Storyboard Layer 3 (Foreground)
//Storyboard Layer 4 (Overlay)
//Storyboard Sound Samples

[TimingPoints]
-26,375,4,2,1,60,1,0
7474,-90.9090909090909,4,2,1,60,0,0
12724,-66.6666666666667,4,2,1,60,0,0
13474,-62.5,4,2,1,60,0,0
13849,-100,4,2,1,60,0,0
17974,-50,4,2,1,60,0,0
18536,-100,4,2,1,60,0,0
18724,-50,4,2,1,60,0,0
19286,-100,4,2,1,60,0,0
19474,-50,4,2,1,60,0,0
19849,-100,4,2,1,60,0,0
23599,-55.5555555555556,4,2,1,60,0,0
24724,-111.111111111111,4,2,1,60,0,0
25474,-55.5555555555556,4,2,1,60,0,0
26224,-83.3333333333333,4,2,1,60,0,0
26974,-66.6666666666667,4,2,1,60,0,0
27161,-83.3333333333333,4,2,1,60,0,0
29036,-66.6666666666667,4,2,1,60,0,0
29224,-83.3333333333333,4,2,1,60,0,0
29974,-50,4,2,1,60,0,0
30161,-83.3333333333333,4,2,1,60,0,0
30724,-50,4,2,1,60,0,0
31099,-66.6666666666667,4,2,1,60,0,0
31474,-50,4,2,1,60,0,0
31849,-83.3333333333333,4,2,1,60,0,0
32974,-66.6666666666667,4,2,1,60,0,0
33161,-83.3333333333333,4,2,1,60,0,0
35599,-66.6666666666667,4,2,1,60,0,0
37099,-100,4,2,1,45,0,0
37474,-100,4,2,1,60,0,0
42724,-66.6666666666667,4,2,1,60,0,0
47974,-100,4,2,1,60,0,0
49474,-76.9230769230769,4,2,1,60,0,0
64474,375,4,2,1,60,1,0
64474,-66.6666666666667,4,2,1,60,0,0
76474,-100,4,2,2,60,0,0
77599,-66.6666666666667,4,2,2,60,0,0
78349,-100,4,2,2,60,0,0
88099,-100,4,2,1,60,0,0
88474,-76.9230769230769,4,2,2,60,0,0
90349,-58.8235294117647,4,2,2,60,0,0
90724,-76.9230769230769,4,2,2,60,0,0
91474,-62.5,4,2,2,60,0,0
91849,-76.9230769230769,4,2,2,60,0,0
94567,-76.9230769230769,4,1,1,60,0,0
98974,-125,4,1,1,60,0,0
99724,-125,4,2,1,60,0,0
100474,-66.6666666666667,4,2,1,60,0,0
100849,-71.4285714285714,4,2,1,60,0,0
106099,-71.4285714285714,4,2,0,60,0,0
106474,-71.4285714285714,4,2,1,60,0,0
122224,-71.4285714285714,4,1,1,60,0,0
122974,-71.4285714285714,4,2,1,60,0,0
124567,-71.4285714285714,4,2,1,30,0,0
136099,-71.4285714285714,4,2,1,60,0,0
136474,-111.111111111111,4,2,1,40,0,0
148099,-111.111111111111,4,2,1,60,0,0
148474,-90.9090909090908,4,2,2,30,0,0
149974,-90.9090909090908,4,2,2,40,0,0
151474,-90.9090909090908,4,2,2,50,0,0
152786,-90.9090909090908,4,2,2,60,0,0
154474,-76.9230769230769,4,2,2,60,0,0
158224,-76.9230769230769,4,1,2,60,0,0
158974,-76.9230769230769,4,3,2,60,0,0
160380,-76.9230769230769,4,3,2,5,0,0
160474,-58.8235294117647,4,3,2,70,0,0
160567,-58.8235294117647,4,3,1,70,0,0
172474,-58.8235294117647,4,3,2,70,0,0
172567,-58.8235294117647,4,3,1,70,0,0
184474,-58.8235294117647,4,3,2,70,0,0
184567,-58.8235294117647,4,3,1,70,0,0
196474,-71.4285714285714,4,2,1,60,0,0
205474,-71.4285714285714,4,1,1,60,0,0
206974,-71.4285714285714,4,2,1,60,0,0
207724,-133.333333333333,4,2,1,60,0,0
208474,-74.0740740740741,4,2,1,60,0,0
220474,-66.6666666666667,4,2,1,60,0,0
220849,-76.9230769230769,4,2,1,60,0,0

[Colours]
Combo1 : 17,254,176
Combo2 : 173,255,95
Combo3 : 255,88,100
Combo4 : 255,94,55

[HitObjects]
64,101,1099,6,0,P|89:90|124:86,3,45
64,21,1474,5,4,1:1:0:0:
15,112,2786,6,0,P|26:137|30:172,1,45,4|0,1:1|0:0,0:0:0:0:
221,89,2974,2,0,P|210:64|206:29,1,45,4|0,1:1|0:0,0:0:0:0:
106,119,4099,5,4,1:1:0:0:
103,96,4192,1,0,1:1:0:0:
123,87,4286,1,4,1:1:0:0:
138,103,4380,1,0,1:1:0:0:
128,123,4474,1,4,1:1:0:0:
128,123,5036,2,0,L|54:104,1,45,4|0,1:1|0:0,0:0:0:0:
101,28,5224,5,4,1:1:0:0:
60,225,5505,1,4,1:1:0:0:
252,163,5786,2,0,P|268:113|293:67,1,90,4|0,1:1|3:0,0:0:0:0:
400,334,6349,6,0,B|409:347|409:347|403:390,1,45,2|0,0:2|0:0,0:0:0:0:
480,302,6536,2,0,B|489:315|489:315|483:358,1,45,2|0,3:2|0:0,0:0:0:0:
389,346,6724,6,0,B|329:335|329:335|321:317|321:317|225:301,1,135,0|0,3:0|3:0,0:0:0:0:
193,340,7099,6,0,L|204:407,1,45,0|0,3:0|3:0,0:0:0:0:
176,326,7286,2,0,L|187:393,1,45,0|0,3:0|3:0,0:0:0:0:
386,264,7474,6,0,P|405:192|483:211,2,148.50000453186,4|0|0,1:1|0:0|0:0,0:0:0:0:
280,176,8224,6,0,P|267:159|212:131,2,49.5000015106202,0|0|0,1:0|0:0|0:0,0:0:0:0:
325,103,8505,2,0,P|322:81|288:30,1,49.5000015106202,0|0,0:0|1:0,0:0:0:0:
404,141,8692,1,0,0:0:0:0:
404,141,8786,2,0,P|412:121|408:60,1,49.5000015106202
244,141,8974,6,0,P|263:213|341:194,2,148.50000453186,4|0|0,1:2|0:0|1:0,0:0:0:0:
102,263,9724,6,0,P|122:248|138:229,2,49.5000015106202,0|0|0,1:0|0:0|1:0,0:0:0:0:
182,302,10005,2,0,P|178:326|169:349,1,49.5000015106202,0|0,0:0|1:0,0:0:0:0:
273,311,10192,1,0,0:0:0:0:
273,311,10286,2,0,P|270:287|262:264,1,49.5000015106202,0|0,1:0|0:0,0:0:0:0:
216,170,10474,5,4,1:2:0:0:
198,151,10567,1,0,1:0:0:0:
177,137,10661,1,0,1:0:0:0:
154,127,10755,1,0,1:0:0:0:
131,122,10849,2,0,L|201:100,3,49.5000015106202,0|0|0|0,1:0|1:0|1:0|1:0,0:0:0:0:
90,197,11224,6,0,L|55:186,14,24.7500007553101,4|0|0|0|0|0|0|0|0|0|0|0|0|0|0,1:2|0:0|1:0|0:0|1:0|0:0|1:0|0:0|1:0|0:0|1:0|0:0|1:0|0:0|1:0,0:0:0:0:
1,317,11974,5,8,3:3:0:0:
43,290,12067,1,8,3:3:0:0:
76,327,12161,1,4,3:3:0:0:
118,300,12254,1,4,3:3:0:0:
151,337,12349,2,0,L|140:261,3,49.5000015106202,8|8|4|4,3:3|3:3|3:3|3:3,0:0:0:0:
243,267,12724,6,0,P|153:267|197:178,1,202.500007724762,4|0,1:2|0:0,0:0:0:0:
335,301,13099,2,0,P|247:297|265:384,1,202.500007724762,4|0,1:2|0:0,0:0:0:0:
173,183,13474,6,0,B|334:200|334:200|350:174|373:164,1,216,4|0,1:0|0:0,0:0:0:0:
418,248,13849,5,0,1:0:0:0:
418,248,13942,1,0,3:0:0:0:
418,248,14036,1,0,0:0:0:0:
418,248,14130,2,0,P|456:227|513:222,2,90,2|0|0,0:2|3:0|3:0,0:0:0:0:
342,337,14599,2,0,P|319:339|300:350,1,45,0|0,1:0|0:0,0:0:0:0:
418,380,14786,2,0,P|440:377|459:366,1,45,2|0,3:2|0:0,0:0:0:0:
399,242,14974,6,0,B|403:217|403:217|408:216|408:216|436:90,1,135,4|0,1:0|0:0,0:0:0:0:
364,67,15349,1,0,1:0:0:0:
364,67,15442,2,0,P|341:64|322:53,1,45
251,134,15630,2,0,P|213:113|156:108,2,90,2|0|0,0:2|3:0|3:0,0:0:0:0:
327,223,16099,2,0,P|349:225|368:236,1,45,0|0,1:0|0:0,0:0:0:0:
251,266,16286,2,0,P|228:263|209:252,1,45,2|0,3:2|0:0,0:0:0:0:
307,384,16474,6,0,B|279:350|279:350|240:375,1,90,4|2,1:0|0:2,0:0:0:0:
133,221,16849,6,0,L|123:284,2,45,0|0|0,1:0|3:0|0:0,0:0:0:0:
123,204,17130,2,0,P|161:183|218:178,2,90,2|0|0,0:2|3:0|3:0,0:0:0:0:
47,293,17599,2,0,P|24:295|5:306,1,45,0|0,1:0|0:0,0:0:0:0:
123,336,17786,2,0,P|145:333|164:322,1,45,2|0,3:2|0:0,0:0:0:0:
230,178,17974,6,0,P|233:166|218:185,1,90,4|0,1:2|0:0,0:0:0:0:
258,248,18161,5,8,0:3:0:0:
310,238,18255,1,8,0:3:0:0:
323,268,18349,1,4,0:3:0:0:
350,265,18442,1,4,0:3:0:0:
356,278,18536,2,0,L|369:325,1,45,0|0,3:0|3:0,0:0:0:0:
339,143,18724,6,0,P|342:131|327:150,1,90,4|0,1:2|0:0,0:0:0:0:
458,223,19099,5,0,3:0:0:0:
458,223,19192,1,0,3:0:0:0:
458,223,19286,2,0,L|441:286,1,45,0|0,3:0|3:0,0:0:0:0:
448,108,19474,6,0,P|451:96|436:115,1,90,4|0,1:0|0:0,0:0:0:0:
469,240,19849,6,0,L|452:303,2,45,0|0|0,1:0|3:0|0:0,0:0:0:0:
380,271,20130,1,2,0:2:0:0:
380,271,20224,1,0,1:0:0:0:
380,271,20317,2,0,L|262:300,1,90,0|0,3:0|3:0,0:0:0:0:
394,284,20599,5,0,1:0:0:0:
236,237,20786,1,2,3:2:0:0:
355,123,20974,1,4,1:0:0:0:
334,207,21161,6,0,L|345:163,2,45,2|0|0,0:2|0:0|1:0,0:0:0:0:
257,126,21536,1,0,0:0:0:0:
257,126,21630,2,0,L|226:13,2,90,2|0|0,0:2|3:0|3:0,0:0:0:0:
196,96,22099,6,0,L|139:111,1,45,0|0,1:0|0:0,0:0:0:0:
296,68,22286,2,0,L|352:52,1,45,2|0,3:2|0:0,0:0:0:0:
285,242,22474,5,4,1:0:0:0:
285,242,22849,6,0,L|269:286,2,45,0|0|0,1:0|3:0|0:0,0:0:0:0:
314,167,23130,1,2,0:2:0:0:
314,167,23224,1,0,1:0:0:0:
314,167,23317,2,0,L|422:154,1,90,0|0,3:0|3:0,0:0:0:0:
409,230,23599,6,0,B|493:194|493:194|441:154|441:154|490:112|490:112|481:64|481:64|511:-24,1,323.999990112305,0|4,1:0|1:2,0:0:0:0:
498,13,24349,5,2,0:2:0:0:
491,26,24442,1,2,0:2:0:0:
463,22,24536,1,2,0:2:0:0:
456,35,24629,1,2,0:2:0:0:
428,30,24724,6,0,B|392:25|392:25|374:52|374:52|425:31,2,121.499996292114,4|4|4,0:2|0:2|0:2,0:0:0:0:
312,118,25474,6,0,B|345:137|345:137|312:-21|312:-21|285:11,1,242.999992584229,4|0,1:0|0:0,0:0:0:0:
233,77,25849,5,0,1:0:0:0:
220,92,25942,1,0,3:0:0:0:
239,95,26036,1,2,0:1:0:0:
129,45,26224,5,0,1:0:0:0:
129,45,26317,2,0,B|100:41|100:41|73:59,1,53.9999983520508,2|0,3:1|0:0,0:0:0:0:
9,104,26505,1,2,3:1:0:0:
9,104,26599,2,0,P|22:72|32:-22,1,107.999996704102,0|2,1:0|3:2,0:0:0:0:
117,127,26974,6,0,B|125:125|125:125|110:168|110:168|126:193,1,67.5000025749208,4|0,1:0|0:0,0:0:0:0:
80,258,27161,5,2,0:2:0:0:
80,258,27255,1,2,0:1:0:0:
80,258,27349,2,0,B|51:254|51:254|24:272,1,53.9999983520508,0|0,1:0|3:0,0:0:0:0:
6,234,27536,2,0,P|22:248|0:260,1,53.9999983520508,2|2,0:1|0:2,0:0:0:0:
181,373,27724,5,0,1:0:0:0:
181,373,27817,2,0,B|201:359|201:359|230:363,1,53.9999983520508,2|0,3:1|0:0,0:0:0:0:
101,342,28005,2,0,B|72:338|72:338|52:352,2,53.9999983520508,2|0|0,3:1|1:0|0:0,0:0:0:0:
212,291,28286,1,2,3:1:0:0:
212,291,28380,1,0,0:0:0:0:
212,291,28474,6,0,P|337:266|349:214,1,161.999995056153,4|0,1:0|0:0,0:0:0:0:
328,315,28849,2,0,L|351:391,1,53.9999983520508,0|0,1:0|3:0,0:0:0:0:
287,161,29036,6,0,B|284:180|284:180|296:188|296:188|300:174|300:174|287:161,1,67.5000025749208,2|0,0:1|0:0,0:0:0:0:
209,178,29224,5,0,1:0:0:0:
209,178,29317,2,0,B|180:174|180:174|160:188,1,53.9999983520508,2|0,3:1|0:0,0:0:0:0:
367,132,29505,1,2,3:1:0:0:
367,132,29598,2,0,B|387:118|387:118|416:122,1,53.9999983520508,0|0,1:0|0:0,0:0:0:0:
257,8,29786,1,2,3:2:0:0:
106,90,29974,6,0,B|82:89|82:89|90:124|90:124|103:98,1,90,4|0,1:2|0:0,0:0:0:0:
57,229,30161,6,0,B|35:221|35:221|28:224|28:224|3:216,1,53.9999983520508,8|8,0:3|0:3,0:0:0:0:
155,190,30349,1,4,0:3:0:0:
155,190,30442,1,4,0:3:0:0:
155,190,30536,2,0,B|176:182|176:182|183:185|183:185|208:177,1,53.9999983520508,0|0,3:0|3:0,0:0:0:0:
85,309,30724,6,0,P|155:230|162:335,1,270,4|0,1:2|3:0,0:0:0:0:
36,362,31099,2,0,P|89:302|93:382,1,202.500007724762,4|0,1:2|3:0,0:0:0:0:
266,341,31474,6,0,B|287:382|287:382|257:155,1,270,4|0,1:0|0:0,0:0:0:0:
222,88,31849,5,0,1:0:0:0:
276,65,31942,1,0,3:0:0:0:
318,107,32036,1,2,0:1:0:0:
440,202,32224,6,0,B|428:226|428:226|420:187,2,53.9999983520508,0|2|0,1:0|3:1|0:0,0:0:0:0:
471,306,32505,1,2,3:1:0:0:
471,306,32599,2,0,B|442:302|442:302|422:316,1,53.9999983520508,0|0,1:0|0:0,0:0:0:0:
462,384,32786,1,2,3:2:0:0:
346,241,32974,6,0,B|354:239|354:239|339:282|339:282|355:307,1,67.5000025749208,4|0,1:0|0:0,0:0:0:0:
306,363,33161,5,2,0:2:0:0:
306,363,33255,1,2,0:1:0:0:
306,363,33349,2,0,B|277:359|277:359|257:373,1,53.9999983520508,0|0,1:0|3:0,0:0:0:0:
234,383,33536,2,0,P|250:369|228:357,1,53.9999983520508,2|2,0:1|0:2,0:0:0:0:
433,235,33724,5,0,1:0:0:0:
433,235,33817,2,0,B|453:221|453:221|482:225,1,53.9999983520508,2|0,3:1|0:0,0:0:0:0:
415,148,34005,2,0,B|435:134|435:134|464:138,2,53.9999983520508,2|0|0,3:1|1:0|0:0,0:0:0:0:
486,52,34286,1,2,3:1:0:0:
499,57,34380,1,0,0:0:0:0:
508,67,34474,6,0,P|420:87|383:28,1,161.999995056153,4|0,1:0|0:0,0:0:0:0:
320,84,34849,2,0,P|261:70|234:75,2,53.9999983520508,0|0|2,1:0|3:0|0:1,0:0:0:0:
282,166,35224,1,0,1:0:0:0:
282,166,35317,2,0,P|203:182|195:236,1,107.999996704102,2|2,3:1|3:1,0:0:0:0:
160,112,35599,6,0,B|141:84|141:84|164:257|164:257|227:285,1,270.000010299683,0|4,1:0|1:0,0:0:0:0:
234,361,37099,6,0,B|258:361|255:370|279:372,3,45,2|2|2|2,0:2|0:2|0:2|0:2,0:0:0:0:
256,256,37474,5,4,1:0:0:0:
256,256,37849,5,0,1:0:0:0:
291,250,37942,1,0,3:0:0:0:
327,244,38036,1,8,0:2:0:0:
363,238,38130,1,2,0:2:0:0:
497,102,38317,6,0,B|476:95|476:95|498:194,1,90,4|0,3:2|3:0,0:0:0:0:
421,179,38599,2,0,L|482:197,1,45,8|0,1:2|0:0,0:0:0:0:
411,166,38786,2,0,L|472:184,1,45,6|0,3:2|0:0,0:0:0:0:
429,304,38974,6,0,B|419:329|419:329|466:312,2,45,4|0|2,1:0|0:0|3:2,0:0:0:0:
249,267,39349,5,0,1:0:0:0:
284,261,39442,1,0,3:0:0:0:
320,255,39536,1,8,0:2:0:0:
356,249,39630,1,2,0:2:0:0:
194,153,39817,6,0,B|173:146|173:146|195:245,1,90,4|0,3:2|3:0,0:0:0:0:
108,217,40099,2,0,P|138:221|169:235,3,45,8|0|6|0,1:2|0:0|3:2|0:0,0:0:0:0:
198,376,40474,1,4,1:0:0:0:
242,278,40849,5,0,1:0:0:0:
277,272,40942,1,0,3:0:0:0:
313,266,41036,1,8,0:2:0:0:
349,260,41130,1,2,0:2:0:0:
275,136,41317,6,0,B|261:70|261:70|282:77,1,90,4|0,3:2|3:0,0:0:0:0:
261,149,41599,2,0,L|148:134,1,90,8|6,1:2|3:2,0:0:0:0:
0,120,41974,5,4,1:2:0:0:
93,65,42161,5,8,0:3:0:0:
93,65,42254,1,8,0:3:0:0:
93,65,42348,2,0,L|77:134,1,45,4|4,0:3|0:3,0:0:0:0:
98,127,42536,2,0,L|82:196,1,45,0|0,3:0|3:0,0:0:0:0:
173,201,42724,6,0,P|83:201|127:290,1,202.500007724762,4|0,1:2|3:0,0:0:0:0:
71,384,43099,2,0,P|87:297|0:302,1,202.500007724762,4|0,1:2|3:0,0:0:0:0:
186,282,43474,6,0,L|406:250,1,202.500007724762,4|0,1:0|0:0,0:0:0:0:
458,226,43849,6,0,P|477:221|455:222,2,67.5000025749208,0|0|8,1:0|3:0|0:2,0:0:0:0:
502,309,44130,6,0,P|500:274|533:223,1,67.5000025749208,2|0,0:3|1:0,0:0:0:0:
417,384,44317,2,0,P|415:349|448:298,1,67.5000025749208,4|0,3:2|0:0,0:0:0:0:
340,336,44505,1,0,3:0:0:0:
340,336,44599,2,0,P|338:301|371:250,1,67.5000025749208,2|0,1:3|0:0,0:0:0:0:
252,384,44786,2,0,P|250:349|283:298,1,67.5000025749208,6|0,3:2|0:0,0:0:0:0:
328,186,44974,6,0,L|424:202,2,67.5000025749208,4|0|2,1:0|0:0|3:2,0:0:0:0:
476,187,45349,6,0,P|495:182|473:183,2,67.5000025749208,0|0|8,1:0|3:0|0:2,0:0:0:0:
447,103,45630,6,0,P|445:68|478:17,1,67.5000025749208,2|0,0:3|1:0,0:0:0:0:
363,64,45817,2,0,P|361:29|394:-22,1,67.5000025749208,4|0,3:2|0:0,0:0:0:0:
270,104,46005,1,0,3:0:0:0:
270,104,46099,2,0,P|268:69|301:18,1,67.5000025749208,2|0,1:3|0:0,0:0:0:0:
178,175,46286,2,0,P|176:140|209:89,1,67.5000025749208,6|0,3:2|0:0,0:0:0:0:
84,10,46474,5,4,1:0:0:0:
77,17,46849,2,0,P|96:12|74:13,2,67.5000025749208,0|0|8,1:0|3:0|0:2,0:0:0:0:
162,114,47130,6,0,P|160:79|193:28,1,67.5000025749208,2|0,0:3|1:0,0:0:0:0:
134,203,47317,2,0,P|108:179|95:120,1,67.5000025749208,4|0,3:2|0:0,0:0:0:0:
180,311,47505,1,0,3:0:0:0:
180,311,47599,2,0,P|199:281|196:221,1,67.5000025749208,2|0,1:3|0:0,0:0:0:0:
144,364,47786,2,0,P|178:356|219:311,1,67.5000025749208,6|0,3:2|0:0,0:0:0:0:
274,304,47974,6,0,L|386:325,1,90,4|0,1:2|3:0,0:0:0:0:
362,320,48255,1,0,3:0:0:0:
362,320,48349,1,8,1:1:0:0:
453,340,48536,1,8,1:1:0:0:
498,271,48724,1,8,1:1:0:0:
495,260,48817,1,8,1:1:0:0:
493,249,48911,1,8,1:1:0:0:
490,238,49005,1,8,1:1:0:0:
488,227,49099,2,0,L|450:220,6,22.5,8|0|0|0|0|0|0,1:1|1:1|1:1|1:1|1:1|1:1|1:1,0:0:0:0:
512,136,49474,6,0,L|363:121,1,116.999994644165,4|8,1:0|0:2,0:0:0:0:
327,181,49755,1,0,0:0:0:0:
327,181,49849,2,0,B|367:159|367:159|393:62|393:62|447:20,1,175.499991966248,8|4,1:0|1:0,0:0:0:0:
299,44,50224,6,0,B|293:18|293:18|285:23|285:23|298:44,1,58.4999973220826
211,84,50411,1,4,1:0:0:0:
211,84,50505,1,0,0:0:0:0:
211,84,50599,2,0,B|199:33|199:33|183:42|183:42|210:85,1,116.999994644165,8|0,1:0|0:0,0:0:0:0:
24,115,50974,5,4,1:0:0:0:
15,204,51161,1,8,0:2:0:0:
15,204,51255,1,0,0:0:0:0:
15,204,51349,1,8,1:0:0:0:
6,285,51536,1,8,0:2:0:0:
107,308,51724,6,0,L|181:292,1,58.4999973220826
83,294,51911,2,0,L|9:310,1,58.4999973220826,4|0,1:0|0:0,0:0:0:0:
155,205,52099,6,0,L|81:221,1,58.4999973220826,8|0,1:0|0:0,0:0:0:0:
179,219,52286,2,0,L|253:203,1,58.4999973220826,4|0,1:0|0:0,0:0:0:0:
192,131,52474,5,4,1:0:0:0:
311,166,52661,1,8,0:2:0:0:
311,166,52755,1,0,0:0:0:0:
311,166,52849,2,0,B|330:147|330:147|304:345,1,175.499991966248,8|4,1:0|1:0,0:0:0:0:
244,350,53224,2,0,L|179:301,2,58.4999973220826,0|0|4,0:0|0:0|1:0,0:0:0:0:
359,365,53505,1,0,0:0:0:0:
359,365,53599,2,0,L|434:334,1,58.4999973220826,8|0,1:0|0:0,0:0:0:0:
311,294,53786,1,0,0:0:0:0:
434,345,53974,6,0,B|447:255|447:255|407:280,1,116.999994644165,4|0,1:2|1:0,0:0:0:0:
463,183,54255,1,0,1:0:0:0:
463,183,54349,1,0,1:0:0:0:
473,106,54536,1,0,0:0:0:0:
311,294,54724,6,0,B|324:204|324:204|284:229,1,116.999994644165,4|0,1:2|3:0,0:0:0:0:
188,243,55099,2,0,B|201:153|201:153|161:178,1,116.999994644165,4|0,1:2|3:0,0:0:0:0:
0,146,55474,6,0,B|67:202|67:202|83:116,1,175.499991966248,4|0,1:0|0:0,0:0:0:0:
21,69,55849,1,8,1:0:0:0:
225,46,56036,5,8,0:2:0:0:
225,46,56130,2,0,P|249:17|267:-25,1,58.4999973220826,6|0,1:0|0:0,0:0:0:0:
145,60,56317,2,0,P|112:41|80:7,1,58.4999973220826,2|4,0:3|1:0,0:0:0:0:
247,57,56505,1,0,0:0:0:0:
247,57,56599,2,0,P|279:38|311:4,1,58.4999973220826,10|0,1:0|0:0,0:0:0:0:
131,77,56786,2,0,P|93:70|52:49,1,58.4999973220826,2|0,1:3|0:0,0:0:0:0:
201,143,56974,6,0,B|195:169|195:169|187:164|187:164|200:143,2,58.4999973220826,4|0|8,1:0|0:0|0:2,0:0:0:0:
395,113,57349,2,0,L|408:205,1,58.4999973220826,8|0,1:0|0:0,0:0:0:0:
351,241,57536,5,8,0:2:0:0:
351,241,57630,2,0,P|327:212|309:170,1,58.4999973220826,6|0,1:0|0:0,0:0:0:0:
431,255,57817,2,0,P|464:236|496:202,1,58.4999973220826,2|4,0:3|1:0,0:0:0:0:
329,252,58005,1,0,0:0:0:0:
329,252,58099,2,0,P|297:233|265:199,1,58.4999973220826,4|0,1:2|0:0,0:0:0:0:
445,272,58286,2,0,P|483:265|524:244,1,58.4999973220826
407,347,58474,6,0,B|352:332|352:332|160:383|160:383|111:371|111:371|41:157|41:157|225:43|225:43|202:221,1,877.49995983124,4|0,1:0|3:0,0:0:0:0:
208,171,59974,5,4,1:2:0:0:
208,171,61474,5,4,1:2:0:0:
307,69,61661,1,8,0:3:0:0:
307,69,61755,1,8,0:3:0:0:
307,69,61849,1,4,0:3:0:0:
374,116,62036,1,0,3:0:0:0:
244,0,62224,5,4,1:2:0:0:
205,182,62411,1,4,1:2:0:0:
387,121,62599,1,4,1:2:0:0:
387,121,62974,5,4,1:2:0:0:
386,252,63161,5,8,1:0:0:0:
401,228,63255,1,8,1:0:0:0:
403,201,63349,1,4,1:2:0:0:
311,226,63536,5,0,1:0:0:0:
313,198,63630,1,0,1:0:0:0:
328,175,63724,1,4,1:2:0:0:
417,383,64099,5,0,3:0:0:0:
417,383,64474,6,0,B|436:373|436:373|472:174,1,202.500007724762,6|2,1:0|0:2,0:0:0:0:
483,114,64849,5,6,1:0:0:0:
483,114,64942,2,0,P|466:83|457:27,1,67.5000025749208,0|2,0:0|0:2,0:0:0:0:
375,199,65130,2,0,P|384:165|418:119,1,67.5000025749208,0|6,0:0|1:0,0:0:0:0:
344,79,65317,2,0,P|338:44|349:-11,1,67.5000025749208,2|0,0:2|0:0,0:0:0:0:
213,121,65505,1,2,0:2:0:0:
213,121,65598,2,0,P|233:92|280:60,1,67.5000025749208,6|0,1:0|0:0,0:0:0:0:
127,141,65786,2,0,P|94:126|38:122,1,67.5000025749208,2|0,0:2|0:0,0:0:0:0:
69,7,65974,6,0,L|37:187,1,135.000005149842,6|2,1:0|0:2,0:0:0:0:
83,276,66349,5,4,1:0:0:0:
83,276,66442,2,0,P|100:245|109:189,1,67.5000025749208,2|2,0:2|0:2,0:0:0:0:
191,361,66630,2,0,P|182:327|148:281,1,67.5000025749208,2|6,0:2|1:0,0:0:0:0:
222,241,66817,2,0,P|228:206|217:151,1,67.5000025749208,2|2,0:2|0:2,0:0:0:0:
353,283,67005,1,2,0:2:0:0:
353,283,67098,2,0,P|333:254|286:222,1,67.5000025749208,4|0,1:0|0:0,0:0:0:0:
364,124,67286,2,0,P|378:154|384:187,1,67.5000025749208,2|0,1:0|0:0,0:0:0:0:
464,223,67474,6,0,P|354:313|376:395,1,202.500007724762,6|0,1:0|0:0,0:0:0:0:
400,187,67849,5,4,1:0:0:0:
400,187,67942,2,0,P|383:218|374:274,1,67.5000025749208,0|2,0:0|0:2,0:0:0:0:
317,163,68130,2,0,P|300:134|292:102,1,67.5000025749208,0|6,0:0|1:0,0:0:0:0:
261,222,68317,2,0,P|255:257|266:312,1,67.5000025749208,2|0,0:2|0:0,0:0:0:0:
174,229,68505,1,2,0:2:0:0:
174,229,68598,2,0,P|148:207|130:180,1,67.5000025749208,6|0,1:0|0:0,0:0:0:0:
119,339,68786,2,0,P|104:308|98:275,1,67.5000025749208,2|0,0:2|0:0,0:0:0:0:
16,254,68974,6,0,P|105:152|56:66,1,202.500007724762,6|2,1:0|0:2,0:0:0:0:
8,76,69349,1,4,1:0:0:0:
8,76,69442,2,0,P|32:51|42:2,2,67.5000025749208,2|0|2,0:2|0:0|0:2,0:0:0:0:
91,101,69724,6,0,L|181:123,1,67.5000025749208,6|2,1:0|0:2,0:0:0:0:
210,171,69911,2,0,L|184:82,1,67.5000025749208,2|2,0:2|0:2,0:0:0:0:
212,33,70099,2,0,L|118:132,1,135.000005149842,4|2,1:0|1:0,0:0:0:0:
0,324,70474,6,0,B|36:308|36:308|49:322|49:322|195:363,1,202.500007724762,6|2,1:0|0:2,0:0:0:0:
200,284,70849,5,6,1:0:0:0:
199,284,70942,2,0,P|215:254|223:222,1,67.5000025749208,0|2,0:0|0:2,0:0:0:0:
282,307,71130,2,0,P|299:336|307:368,1,67.5000025749208,0|6,0:0|1:0,0:0:0:0:
338,249,71317,2,0,P|343:215|340:182,1,67.5000025749208,2|0,0:2|0:0,0:0:0:0:
426,242,71505,1,2,0:2:0:0:
426,242,71598,2,0,P|451:263|470:291,1,67.5000025749208,6|0,1:0|0:0,0:0:0:0:
481,132,71786,2,0,P|495:162|501:195,1,67.5000025749208,2|0,0:2|0:0,0:0:0:0:
505,111,71974,5,6,1:0:0:0:
365,172,72161,1,2,0:2:0:0:
316,72,72349,5,4,1:0:0:0:
316,72,72442,2,0,P|330:41|336:8,1,67.5000025749208,0|2,0:0|0:2,0:0:0:0:
237,77,72630,2,0,P|226:45|207:17,1,67.5000025749208,2|6,0:2|1:0,0:0:0:0:
184,136,72817,1,2,0:2:0:0:
184,136,72911,1,2,0:2:0:0:
184,136,73005,1,2,0:2:0:0:
184,136,73099,2,0,P|153:121|120:115,1,67.5000025749208,4|0,1:0|0:0,0:0:0:0:
267,153,73286,1,2,1:0:0:0:
406,56,73474,6,0,B|447:41|447:41|431:59,3,67.5000025749208,6|0|0|0,1:0|0:0|1:0|0:0,0:0:0:0:
468,131,73849,6,0,B|522:111|522:111|502:135,2,90.0000034332277,0|0|0,1:0|1:0|1:0,0:0:0:0:
424,225,74224,6,0,B|465:210|465:210|449:228,1,67.5000025749208,0|0,1:0|1:0,0:0:0:0:
478,250,74411,6,0,B|519:235|519:235|503:253,1,67.5000025749208,0|0,1:0|1:0,0:0:0:0:
423,319,74599,6,0,B|505:289|505:289|473:325,1,135.000005149842,0|0,1:0|3:0,0:0:0:0:
291,324,74974,6,0,L|216:45,2,270.000010299683,4|4|4,1:2|1:2|1:2,0:0:0:0:
266,158,75911,6,0,L|249:224,1,67.5000025749208,0|0,3:0|0:0,0:0:0:0:
162,216,76099,6,0,L|358:163,1,202.500007724762,4|0,1:2|0:0,0:0:0:0:
362,256,76474,6,0,L|479:275,1,90,4|0,1:1|0:0,0:0:0:0:
470,290,76849,2,0,L|382:276,1,90,8|0,1:2|0:0,0:0:0:0:
285,329,77130,1,0,0:0:0:0:
285,329,77224,2,0,L|329:336,1,45,0|0,1:0|0:0,0:0:0:0:
415,373,77411,1,8,0:2:0:0:
415,373,77505,1,0,0:0:0:0:
415,373,77599,6,0,P|393:241|253:269,1,270,2|0,1:1|1:0,0:0:0:0:
350,149,78161,2,0,P|323:170|292:222,1,67.5000025749208
124,279,78349,6,0,L|241:298,1,90,8|0,1:2|0:0,0:0:0:0:
205,309,78630,1,0,0:0:0:0:
205,309,78724,2,0,L|249:316,1,45,0|0,1:0|0:0,0:0:0:0:
155,373,78911,2,0,L|110:365,1,45,8|0,0:2|0:0,0:0:0:0:
32,305,79099,6,0,B|53:307|53:307|21:214|21:214|1:221,1,135,2|0,1:1|0:0,0:0:0:0:
50,101,79474,6,0,L|167:120,1,90,4|0,1:0|0:0,0:0:0:0:
158,135,79849,2,0,L|70:121,1,90,8|0,1:2|0:0,0:0:0:0:
222,65,80130,1,0,0:0:0:0:
222,65,80224,2,0,L|177:57,1,45,0|0,1:0|0:0,0:0:0:0:
306,111,80411,2,0,L|350:118,1,45,8|0,0:2|0:0,0:0:0:0:
241,212,80599,2,0,L|197:204,2,45,0|0|0,1:0|0:0|0:0,0:0:0:0:
231,293,80974,5,0,1:0:0:0:
231,293,81067,1,0,0:0:0:0:
231,293,81161,2,0,L|187:285,1,45
266,206,81349,2,0,L|354:220,1,90,8|0,1:2|0:0,0:0:0:0:
412,157,81630,1,0,0:0:0:0:
412,157,81724,2,0,L|457:165,1,45,0|0,1:0|0:0,0:0:0:0:
363,89,81911,2,0,L|318:81,1,45,8|0,0:2|0:0,0:0:0:0:
503,12,82099,5,2,1:1:0:0:
503,12,82474,6,0,L|476:113,1,90,4|0,1:0|0:0,0:0:0:0:
400,111,82755,1,0,0:0:0:0:
400,111,82849,2,0,L|427:212,1,90,8|0,1:2|0:0,0:0:0:0:
331,46,83130,1,0,0:0:0:0:
331,46,83224,2,0,L|313:109,1,45,0|0,1:0|0:0,0:0:0:0:
259,143,83411,2,0,L|276:206,1,45,8|0,0:2|0:0,0:0:0:0:
113,73,83599,5,2,1:1:0:0:
113,73,83974,6,0,L|140:174,1,90,0|0,1:0|0:0,0:0:0:0:
216,172,84255,1,0,0:0:0:0:
216,172,84349,2,0,L|189:273,1,90,8|0,1:2|0:0,0:0:0:0:
285,107,84630,1,0,0:0:0:0:
285,107,84724,2,0,L|303:170,1,45,0|0,1:0|0:0,0:0:0:0:
357,204,84911,2,0,L|340:267,1,45,8|0,0:2|0:0,0:0:0:0:
440,174,85099,6,0,P|401:189|390:116,1,135,2|0,1:0|0:0,0:0:0:0:
314,53,85474,6,0,P|358:35|403:-11,1,90,4|0,1:0|0:0,0:0:0:0:
357,71,85849,2,0,P|392:39|418:-19,1,90,8|0,1:2|0:0,0:0:0:0:
207,184,86224,6,0,P|163:166|118:120,1,90,0|0,1:0|0:0,0:0:0:0:
69,186,86505,1,8,0:2:0:0:
69,186,86599,2,0,P|33:154|7:95,1,90,0|0,1:0|0:0,0:0:0:0:
292,252,86974,6,0,P|318:230|335:197,1,45,0|0,1:0|0:0,0:0:0:0:
399,211,87161,2,0,P|365:213|329:202,1,45,0|8,0:0|0:2,0:0:0:0:
223,304,87349,6,0,P|197:282|180:249,1,45,8|0,1:2|0:0,0:0:0:0:
116,263,87536,2,0,P|149:265|185:254,1,45,0|8,0:0|0:2,0:0:0:0:
289,383,87724,6,0,P|293:335|217:381,1,180,0|8,1:0|1:0,0:0:0:0:
210,367,88474,6,0,B|229:370|229:370|334:283|334:283|369:294,2,175.499991966248,4|2|2,1:0|0:2|3:2,0:0:0:0:
122,348,89224,6,0,P|90:345|53:313,2,58.4999973220826,2|0|8,3:2|0:0|0:0,0:0:0:0:
80,362,89505,2,0,P|54:344|36:297,1,58.4999973220826,2|0,3:2|0:0,0:0:0:0:
35,353,89692,1,0,0:0:0:0:
35,353,89786,6,0,P|22:323|40:239,1,116.999994644165,6|2,1:2|3:2,0:0:0:0:
81,118,90161,6,0,P|109:113|81:107,1,58.4999973220826,4|0,1:2|0:0,0:0:0:0:
9,167,90349,2,0,B|142:136|97:110|218:75,1,229.500004377365,12|0,0:2|0:0,0:0:0:0:
312,71,90724,6,0,P|298:44|249:2,2,58.4999973220826,2|0|8,3:2|0:0|0:0,0:0:0:0:
392,113,91005,2,0,P|393:83|371:21,2,58.4999973220826,2|0|0,3:2|0:0|0:0,0:0:0:0:
456,15,91286,1,6,1:2:0:0:
446,180,91474,6,0,P|380:151|328:261,1,216,4|2,1:0|0:2,0:0:0:0:
315,269,91849,6,0,L|399:287,1,58.4999973220826,8|0,0:0|0:0,0:0:0:0:
245,310,92036,2,0,L|161:292,1,58.4999973220826,2|0,3:2|0:0,0:0:0:0:
260,210,92224,6,0,L|242:126,2,58.4999973220826,2|0|0,3:2|0:0|0:0,0:0:0:0:
173,129,92505,2,0,L|254:155,1,58.4999973220826,2|0,3:2|0:0,0:0:0:0:
286,94,92692,1,0,0:0:0:0:
286,94,92786,2,0,L|222:151,1,58.4999973220826,6|0,1:2|0:0,0:0:0:0:
183,273,92974,6,0,L|-36:229,3,175.499991966248,6|6|6|4,1:2|1:2|1:2|1:2,0:0:0:0:
11,239,94099,6,0,B|5:257|5:257|31:324,1,58.4999973220826,4|0,1:2|0:0,0:0:0:0:
37,375,94286,2,0,B|31:356|31:356|57:290,1,58.4999973220826,6|0,1:2|0:0,0:0:0:0:
225,255,94474,6,0,L|-16:323,1,233.999989288331,4|0,1:0|0:0,0:0:0:0:
128,204,95036,6,0,L|67:187,1,58.4999973220826,2|0,3:2|3:0,0:0:0:0:
19,129,95224,5,8,1:0:0:0:
37,106,95317,1,0,0:0:0:0:
65,110,95411,1,0,3:0:0:0:
71,117,95505,2,0,P|50:178|46:242,1,116.999994644165,2|0,3:2|0:0,0:0:0:0:
95,287,95786,2,0,B|112:311|112:311|108:281,1,58.4999973220826,6|0,3:2|0:0,0:0:0:0:
164,129,95974,6,0,B|214:57|214:57|204:144,2,175.499991966248,4|2|2,1:2|3:2|3:2,0:0:0:0:
313,62,96724,5,8,1:0:0:0:
290,44,96817,1,0,0:0:0:0:
294,16,96911,1,0,3:0:0:0:
301,10,97005,2,0,P|362:31|426:35,1,116.999994644165,2|0,3:2|0:0,0:0:0:0:
480,0,97286,2,0,P|458:27|442:83,1,58.4999973220826,6|0,3:2|0:0,0:0:0:0:
395,119,97474,5,4,1:2:0:0:
395,119,97568,1,0,0:0:0:0:
395,119,97662,2,0,P|416:146|433:202,1,58.4999973220826,0|2,0:0|0:2,0:0:0:0:
512,197,97849,1,0,0:0:0:0:
512,197,97943,1,0,0:0:0:0:
512,197,98037,2,0,P|498:229|459:271,1,58.4999973220826,6|0,0:2|0:0,0:0:0:0:
433,304,98224,6,0,L|396:298,14,29.2499986610413,4|0|0|0|0|0|2|0|0|0|0|0|2|0|0,0:2|0:0|0:0|0:0|0:0|0:0|0:2|0:0|0:0|0:0|0:0|0:0|0:2|0:0|0:0,0:0:0:0:
449,326,98974,6,0,L|467:216,2,108,0|0|0,3:2|3:2|3:2,0:0:0:0:
349,274,99724,5,8,1:0:0:0:
257,232,99974,5,4,1:2:0:0:
333,348,100224,5,4,1:2:0:0:
273,158,100474,6,0,L|102:181,1,135.000005149842,4|0,1:0|0:0,0:0:0:0:
140,176,100849,6,0,B|170:111|170:111|187:104|187:104|172:26,1,125.999996154785,8|8,1:0|0:2,0:0:0:0:
163,48,101130,2,0,B|194:62|194:62|220:54|220:54|312:86,1,125.999996154785,4|8,1:0|0:2,0:0:0:0:
379,113,101411,2,0,B|359:100|359:100|378:165,1,62.9999980773926,4|8,1:0|0:2,0:0:0:0:
403,29,101599,1,8,1:0:0:0:
422,25,101692,1,0,3:0:0:0:
441,21,101786,1,0,3:0:0:0:
445,40,101880,1,0,3:0:0:0:
449,59,101974,6,0,B|470:52|470:52|480:43|480:43|525:33,2,62.9999980773926,4|2|4,1:0|3:2|1:0,0:0:0:0:
486,137,102349,6,0,L|455:268,1,125.999996154785,8|8,1:0|0:2,0:0:0:0:
382,200,102630,2,0,L|505:230,1,125.999996154785,4|8,1:0|0:2,0:0:0:0:
512,341,102911,2,0,B|492:354|492:354|511:289,1,62.9999980773926,4|8,1:0|0:2,0:0:0:0:
401,315,103099,1,8,1:0:0:0:
382,311,103192,1,0,3:0:0:0:
363,307,103286,1,0,3:0:0:0:
359,326,103380,1,0,3:0:0:0:
355,345,103474,6,0,B|313:331|313:331|293:313|293:313|239:301,1,125.999996154785,4|4,1:0|1:0,0:0:0:0:
131,247,103849,6,0,B|144:222|144:222|173:348,1,125.999996154785,8|8,1:0|0:2,0:0:0:0:
88,342,104130,2,0,B|75:367|75:367|53:271,1,125.999996154785,4|8,1:0|0:2,0:0:0:0:
55,187,104411,2,0,B|82:167|82:167|66:218,1,62.9999980773926,4|8,1:0|0:2,0:0:0:0:
227,150,104599,1,8,1:0:0:0:
251,166,104692,1,0,3:0:0:0:
256,193,104786,1,0,3:0:0:0:
272,169,104880,1,0,3:0:0:0:
299,163,104974,5,4,1:2:0:0:
299,163,106474,6,0,L|128:139,2,125.999996154785,4|0|8,1:0|0:0|1:0,0:0:0:0:
416,18,107036,1,8,0:2:0:0:
416,18,107130,2,0,B|405:54|405:54|505:86,1,125.999996154785,4|8,1:0|0:2,0:0:0:0:
489,80,107411,2,0,B|492:92|492:92|485:112|485:112|491:140,1,62.9999980773926,4|8,1:0|0:2,0:0:0:0:
433,195,107599,1,8,1:0:0:0:
433,195,107692,1,0,3:0:0:0:
433,195,107786,1,0,3:0:0:0:
433,195,107880,1,0,3:0:0:0:
433,195,107974,6,0,B|408:185|408:185|338:183,2,62.9999980773926,4|2|4,1:0|3:2|1:0,0:0:0:0:
504,297,108349,2,0,B|446:280|446:280|403:338,1,125.999996154785,8|8,1:0|0:2,0:0:0:0:
315,375,108630,6,0,B|331:358|331:358|322:339|322:339|338:234,1,125.999996154785,4|8,1:0|0:2,0:0:0:0:
334,258,108911,2,0,B|322:255|322:255|302:262|302:262|274:256,1,62.9999980773926,4|8,1:0|0:2,0:0:0:0:
209,365,109099,1,8,1:0:0:0:
194,345,109192,1,0,3:0:0:0:
209,324,109286,1,0,3:0:0:0:
233,332,109380,1,0,3:0:0:0:
233,357,109474,5,4,1:0:0:0:
204,213,109661,1,4,1:0:0:0:
94,311,109849,1,8,1:0:0:0:
24,255,110036,5,8,0:2:0:0:
21,231,110130,1,4,1:0:0:0:
36,212,110224,1,0,0:0:0:0:
28,129,110411,6,0,P|62:132|107:162,1,62.9999980773926,4|8,1:0|0:2,0:0:0:0:
94,126,110599,2,0,P|65:113|34:110,1,62.9999980773926,8|0,1:0|3:0,0:0:0:0:
85,33,110786,1,0,3:0:0:0:
36,212,110974,5,4,1:2:0:0:
476,212,112474,6,0,P|452:219|473:204,1,62.9999980773926,4|0,1:0|0:0,0:0:0:0:
395,114,112661,1,2,0:2:0:0:
447,40,112849,5,8,1:0:0:0:
447,40,112942,1,0,0:0:0:0:
447,40,113036,2,0,L|512:54,1,62.9999980773926,2|4,0:2|1:0,0:0:0:0:
337,183,113224,2,0,L|189:151,1,125.999996154785,0|0,0:0|1:0,0:0:0:0:
243,246,113505,2,0,L|269:122,1,125.999996154785,4|0,1:0|0:0,0:0:0:0:
218,251,113786,2,0,L|231:312,1,62.9999980773926,2|0,0:0|0:0,0:0:0:0:
314,322,113974,5,4,1:0:0:0:
314,322,114067,1,0,0:0:0:0:
314,322,114161,2,0,L|375:308,1,62.9999980773926,4|0,1:0|0:0,0:0:0:0:
173,363,114349,5,8,1:0:0:0:
173,363,114442,1,0,0:0:0:0:
173,363,114536,2,0,L|111:376,1,62.9999980773926,2|4,0:2|1:0,0:0:0:0:
218,251,114724,6,0,B|234:263|234:263|332:174,1,125.999996154785,0|0,0:0|1:0,0:0:0:0:
282,90,115005,2,0,B|263:97|263:97|291:227,1,125.999996154785,4|0,1:0|0:0,0:0:0:0:
203,176,115286,2,0,L|106:138,1,62.9999980773926,2|0,0:2|0:0,0:0:0:0:
181,16,115474,6,0,P|151:48|44:37,1,125.999996154785,4|4,1:0|1:0,0:0:0:0:
0,156,115849,1,8,1:0:0:0:
30,157,115942,1,0,0:0:0:0:
51,136,116036,1,2,0:2:0:0:
109,220,116224,2,0,P|84:251|71:317,1,62.9999980773926
0,251,116411,2,0,P|37:265|81:316,1,62.9999980773926,4|4,1:0|1:0,0:0:0:0:
100,368,116599,5,8,1:0:0:0:
100,368,116692,1,2,0:2:0:0:
100,368,116786,1,2,0:2:0:0:
100,368,116880,1,2,0:2:0:0:
100,368,116974,1,4,1:2:0:0:
224,345,117161,6,0,L|304:361,2,62.9999980773926,8|8|4,3:3|3:3|3:3,0:0:0:0:
251,250,117599,6,0,L|274:116,1,83.9999974365235,4|0,1:2|0:0,0:0:0:0:
243,232,117849,6,0,L|266:98,1,83.9999974365235,4|0,1:2|0:0,0:0:0:0:
288,39,118099,6,0,L|208:23,1,62.9999980773926,4|0,1:2|0:0,0:0:0:0:
220,12,118286,2,0,L|282:25,1,62.9999980773926,4|0,1:2|0:0,0:0:0:0:
341,112,118474,5,4,1:0:0:0:
402,22,118661,1,2,0:2:0:0:
490,80,118849,1,0,1:0:0:0:
488,163,119036,1,8,0:2:0:0:
458,164,119129,1,2,0:2:0:0:
437,143,119224,2,0,L|390:188,1,62.9999980773926,0|4,1:0|3:2,0:0:0:0:
465,289,119411,2,0,L|381:256,1,62.9999980773926,0|0,0:0|3:0,0:0:0:0:
321,242,119599,2,0,B|329:280|329:280|322:293|322:293|343:391,1,125.999996154785,8|6,1:2|3:2,0:0:0:0:
266,384,119974,6,0,L|182:351,1,62.9999980773926,4|0,1:0|0:0,0:0:0:0:
406,312,120161,2,0,L|490:279,1,62.9999980773926,2|0,3:2|0:0,0:0:0:0:
297,209,120349,1,0,1:0:0:0:
282,229,120442,1,0,3:0:0:0:
297,250,120536,1,8,0:2:0:0:
321,242,120630,1,2,0:2:0:0:
321,217,120724,5,0,1:0:0:0:
227,285,120911,1,0,3:0:0:0:
227,285,121005,1,0,3:0:0:0:
227,285,121099,2,0,P|196:287|153:270,1,62.9999980773926,8|0,1:2|3:0,0:0:0:0:
399,233,121286,2,0,P|426:218|454:182,1,62.9999980773926,6|0,3:2|3:0,0:0:0:0:
288,176,121474,5,4,1:0:0:0:
242,93,121661,5,2,1:2:0:0:
209,85,121755,1,8,1:2:0:0:
180,102,121849,1,0,1:0:0:0:
180,111,121942,1,0,1:0:0:0:
151,128,122036,1,8,1:2:0:0:
118,120,122130,1,2,1:2:0:0:
97,151,122224,6,0,L|131:21,1,125.999996154785,0|0,1:0|1:0,0:0:0:0:
202,268,122599,2,0,L|174:374,2,62.9999980773926,8|0|6,1:2|1:0|1:2,0:0:0:0:
16,230,122974,5,4,1:2:0:0:
144,207,123255,1,4,1:2:0:0:
268,366,123536,5,4,1:2:0:0:
396,343,123817,1,4,1:2:0:0:
204,285,124099,5,4,1:2:0:0:
204,285,124474,5,0,3:0:0:0:
0,192,136099,5,8,1:0:0:0:
46,124,136474,6,0,L|96:133,1,40.4999987640381,0|0,3:0|3:0,0:0:0:0:
89,142,136849,2,0,L|180:128,1,80.9999975280763
178,145,137224,2,0,L|228:154,2,40.4999987640381,2|0|0,0:3|0:0|0:0,0:0:0:0:
126,29,137599,1,2,0:3:0:0:
230,133,137974,6,0,L|280:124,1,40.4999987640381,0|0,3:0|3:0,0:0:0:0:
280,143,138349,2,0,L|371:157,1,80.9999975280763
370,143,138724,2,0,L|461:157,1,80.9999975280763,2|0,0:3|0:0,0:0:0:0:
358,124,139099,1,2,0:3:0:0:
465,168,139286,1,0,0:0:0:0:
422,238,139474,5,0,3:0:0:0:
422,238,139567,1,0,3:0:0:0:
484,283,139849,6,0,L|498:374,1,80.9999975280763
402,327,140224,2,0,L|316:293,1,80.9999975280763,2|0,0:3|0:0,0:0:0:0:
412,340,140599,1,2,0:3:0:0:
318,283,140786,1,0,0:0:0:0:
249,319,140974,6,0,L|191:330,3,40.4999987640381,0|0|0|0,3:0|3:0|3:0|3:0,0:0:0:0:
185,313,141349,2,0,L|136:279,1,40.4999987640381,0|0,3:0|0:0,0:0:0:0:
189,351,141536,2,0,L|155:399,1,40.4999987640381,0|0,3:0|0:0,0:0:0:0:
95,343,141724,2,0,L|14:330,2,80.9999975280763,2|0|2,0:3|0:0|0:3,0:0:0:0:
18,251,142474,5,0,3:0:0:0:
272,208,142849,6,2,P|298:163|208:168,2,161.999995056153,0|2|2,0:0|0:3|0:3,0:1:0:0:
364,216,143786,1,0,0:0:0:0:
381,141,143974,2,0,P|397:129|409:112,1,40.4999987640381,0|0,3:0|3:0,0:0:0:0:
410,113,144349,6,0,L|331:133,1,80.9999975280763
431,130,144724,1,2,0:3:0:0:
313,116,144911,1,0,0:0:0:0:
384,20,145099,2,0,P|437:17|469:-5,1,80.9999975280763,2|0,0:3|0:0,0:0:0:0:
512,71,145474,5,0,3:0:0:0:
512,71,145567,1,0,3:0:0:0:
377,212,145849,6,0,P|394:176|393:135,1,80.9999975280763
282,214,146224,2,0,P|304:248|307:288,1,80.9999975280763,2|0,0:3|0:0,0:0:0:0:
218,266,146599,2,0,P|195:232|160:214,1,80.9999975280763,2|0,0:3|0:0,0:0:0:0:
64,277,146974,6,0,P|87:275|128:254,3,40.4999987640381,0|0|0|0,3:0|3:0|3:0|3:0,0:0:0:0:
121,290,147349,1,0,3:0:0:0:
186,339,147536,1,0,0:0:0:0:
233,253,147724,2,0,P|273:255|312:267,1,80.9999975280763,2|0,0:3|0:0,0:0:0:0:
512,384,148099,5,8,1:0:0:0:
512,384,148474,5,0,3:0:0:0:
483,196,148661,1,2,3:2:0:0:
476,282,148849,1,8,0:2:0:0:
476,282,148942,2,0,P|449:271|428:240,1,49.5000015106202,2|0,0:2|3:0,0:0:0:0:
409,344,149130,2,0,P|380:349|317:308,2,99.0000030212403,2|2|0,0:2|0:2|3:0,0:0:0:0:
427,356,149599,5,2,0:2:0:0:
304,324,149786,1,8,3:2:0:0:
393,233,149974,1,0,0:2:0:0:
393,233,150161,1,2,3:2:0:0:
294,333,150349,6,0,B|189:350|189:350|209:341|223:326,1,148.50000453186,8|2,0:2|0:2,0:0:0:0:
166,276,150724,1,8,0:2:0:0:
166,276,150817,2,0,L|85:262,2,49.5000015106202,2|0|0,0:2|0:0|3:0,0:0:0:0:
239,238,151099,1,2,0:2:0:0:
239,238,151192,1,0,0:0:0:0:
239,238,151286,2,0,L|253:157,1,49.5000015106202,8|0,3:2|0:0,0:0:0:0:
307,280,151474,5,0,3:0:0:0:
189,148,151661,1,2,3:2:0:0:
271,76,151849,1,8,0:2:0:0:
271,76,151942,2,0,P|298:65|319:34,1,49.5000015106202,2|0,0:2|3:0,0:0:0:0:
338,138,152130,2,0,P|367:143|430:102,2,99.0000030212403,2|2|0,0:2|0:2|3:0,0:0:0:0:
320,150,152599,5,2,0:2:0:0:
443,118,152786,1,8,3:2:0:0:
354,27,152974,6,0,L|176:5,3,148.50000453186,8|8|8|10,3:2|3:2|3:2|3:2,0:0:0:0:
299,117,154005,1,0,0:0:0:0:
299,117,154099,1,10,3:2:0:0:
384,209,154286,1,8,3:2:0:0:
422,90,154474,6,0,B|460:83|460:83|482:63|482:63|506:135,1,116.999994644165,0|2,1:0|3:2,0:0:0:0:
374,219,154849,5,0,1:0:0:0:
374,219,154942,1,2,1:2:0:0:
323,290,155130,1,2,3:2:0:0:
249,237,155317,1,2,1:2:0:0:
331,308,155505,1,0,3:0:0:0:
331,308,155599,2,0,P|406:327|437:348,1,116.999994644165,2|0,1:2|3:0,0:0:0:0:
506,122,155974,6,0,P|454:149|397:160,1,116.999994644165,0|2,1:0|3:2,0:0:0:0:
233,33,156349,1,0,1:0:0:0:
233,33,156442,1,2,1:2:0:0:
284,104,156630,1,2,3:2:0:0:
358,51,156817,1,2,1:2:0:0:
276,122,157005,1,0,3:0:0:0:
276,122,157099,2,0,P|198:142|165:163,1,116.999994644165,2|0,1:2|3:0,0:0:0:0:
60,101,157474,5,0,1:0:0:0:
60,101,157567,1,0,1:0:0:0:
60,101,157661,1,0,3:0:0:0:
60,101,157755,1,0,3:0:0:0:
60,101,157849,1,0,1:0:0:0:
60,101,157942,1,0,1:0:0:0:
60,101,158036,1,0,3:0:0:0:
60,101,158130,1,0,3:0:0:0:
60,101,158224,6,0,L|94:97,14,29.2499986610413,0|0|0|0|0|0|0|0|0|0|0|0|0|0|0,0:0|2:0|0:0|2:0|0:0|2:0|0:0|2:0|0:0|2:0|0:0|2:0|0:0|2:0|0:0,0:0:0:0:
94,22,158974,5,0,1:0:0:0:
94,22,160099,6,0,P|77:40|118:19,1,175.499991966248,0|0,0:0|2:0,0:0:0:0:
183,206,160474,6,0,L|401:167,1,153.000002918243,4|0,1:0|0:0,0:0:0:0:
336,177,160848,5,10,1:1:0:0:
336,177,160942,2,0,L|320:267,1,76.5000014591217,0|0,1:0|0:0,0:0:0:0:
305,102,161130,2,0,L|235:43,1,76.5000014591217,2|4,1:1|0:2,0:0:0:0:
385,112,161317,2,0,L|470:80,1,76.5000014591217,0|0,1:0|0:0,0:0:0:0:
298,148,161505,1,0,1:0:0:0:
298,148,161599,2,0,L|212:179,1,76.5000014591217,8|0,1:1|0:0,0:0:0:0:
348,84,161786,2,0,L|364:-5,1,76.5000014591217,0|0,1:0|1:0,0:0:0:0:
379,158,161974,6,0,L|501:260,1,153.000002918243,4|0,1:0|1:0,0:0:0:0:
376,372,162349,1,10,1:1:0:0:
376,372,162442,2,0,P|392:362|362:359,1,76.5000014591217,0|0,1:0|0:0,0:0:0:0:
303,299,162630,2,0,P|289:317|231:333,1,76.5000014591217,2|4,1:1|1:2,0:0:0:0:
402,265,162817,2,0,P|416:247|474:231,1,76.5000014591217,0|0,1:0|0:0,0:0:0:0:
296,276,163005,1,0,1:0:0:0:
296,276,163099,2,0,P|282:294|224:310,1,76.5000014591217,2|0,1:3|0:0,0:0:0:0:
395,242,163286,2,0,P|409:224|467:208,1,76.5000014591217,0|0,1:0|1:0,0:0:0:0:
270,265,163474,6,0,L|231:47,1,153.000002918243,2|0,1:3|0:0,0:0:0:0:
243,114,163849,5,10,1:1:0:0:
243,114,163943,2,0,L|259:24,1,76.5000014591217,0|0,1:0|0:0,0:0:0:0:
274,189,164131,2,0,L|344:248,1,76.5000014591217,2|4,1:1|0:2,0:0:0:0:
194,179,164318,2,0,L|109:211,1,76.5000014591217,0|0,1:0|0:0,0:0:0:0:
281,143,164506,1,0,1:0:0:0:
281,143,164600,2,0,L|367:112,1,76.5000014591217,8|0,1:1|0:0,0:0:0:0:
231,207,164787,2,0,L|215:296,1,76.5000014591217,0|0,1:0|1:0,0:0:0:0:
200,133,164975,6,0,L|78:31,1,153.000002918243,4|0,1:0|0:0,0:0:0:0:
223,29,165349,1,10,1:1:0:0:
223,29,165442,2,0,P|239:19|209:16,1,76.5000014591217,0|0,1:0|0:0,0:0:0:0:
304,63,165630,1,2,0:1:0:0:
304,63,165724,5,4,1:2:0:0:
491,19,165911,1,0,1:0:0:0:
435,202,166099,2,0,P|459:272|464:377,1,153.000002918243,2|0,1:3|1:0,0:0:0:0:
201,195,166474,6,0,P|260:248|253:143,1,229.500004377365,2|0,1:3|0:0,0:0:0:0:
199,125,166849,5,10,1:1:0:0:
199,125,166943,2,0,L|289:109,1,76.5000014591217,0|0,1:0|0:0,0:0:0:0:
124,94,167131,2,0,L|65:24,1,76.5000014591217,2|4,1:1|0:2,0:0:0:0:
134,174,167318,2,0,L|102:259,1,76.5000014591217,0|0,1:0|0:0,0:0:0:0:
170,87,167506,1,0,1:0:0:0:
170,87,167600,2,0,L|201:1,1,76.5000014591217,8|0,1:1|0:0,0:0:0:0:
106,137,167787,2,0,L|17:153,1,76.5000014591217,0|0,1:0|1:0,0:0:0:0:
180,168,167975,6,0,L|282:290,1,153.000002918243,4|0,1:0|0:0,0:0:0:0:
407,90,168349,1,10,1:1:0:0:
407,90,168442,2,0,P|423:100|393:103,1,76.5000014591217,0|0,1:0|0:0,0:0:0:0:
334,163,168630,2,0,P|320:145|262:129,1,76.5000014591217,2|4,1:1|0:2,0:0:0:0:
433,197,168817,2,0,P|447:215|505:231,1,76.5000014591217,0|0,1:0|0:0,0:0:0:0:
327,186,169005,1,0,1:0:0:0:
327,186,169099,2,0,P|313:168|255:152,1,76.5000014591217,2|0,1:3|0:0,0:0:0:0:
426,220,169286,2,0,P|440:238|498:254,1,76.5000014591217,0|0,1:0|1:0,0:0:0:0:
448,337,169474,6,0,P|352:305|358:262,1,153.000002918243,2|0,1:3|0:0,0:0:0:0:
353,273,169755,2,0,P|321:368|278:362,1,153.000002918243,2|0,1:1|1:0,0:0:0:0:
298,213,170036,2,0,B|327:187|327:187|407:200,1,76.5000014591217,2|0,1:1|0:0,0:0:0:0:
304,110,170224,6,0,P|208:142|214:185,1,153.000002918243,2|0,1:3|0:0,0:0:0:0:
209,173,170505,2,0,P|177:78|134:84,1,153.000002918243,2|0,1:1|1:0,0:0:0:0:
154,234,170786,2,0,B|183:260|183:260|263:247,1,76.5000014591217,2|0,1:1|0:0,0:0:0:0:
104,327,170974,6,0,B|0:295|0:295|71:268,1,153.000002918243,2|8,1:3|1:3,0:0:0:0:
119,310,171255,2,0,B|222:341|222:341|152:369,1,153.000002918243,8|4,1:3|0:3,0:0:0:0:
77,210,171536,2,0,B|67:176|67:176|69:165|69:165|61:135,1,76.5000014591217,0|0,1:0|1:0,0:0:0:0:
86,0,171724,5,4,1:2:0:0:
291,101,171911,1,4,1:2:0:0:
267,25,172099,5,4,1:2:0:0:
110,76,172286,1,4,1:2:0:0:
301,113,172474,6,0,L|515:83,1,153.000002918243,4|2,1:0|0:2,0:0:0:0:
452,91,172848,5,10,1:1:0:0:
452,91,172942,2,0,P|433:61|420:-4,1,76.5000014591217,0|2,1:0|0:2,0:0:0:0:
411,184,173130,2,0,P|446:182|509:203,1,76.5000014591217,2|4,1:1|0:2,0:0:0:0:
350,101,173317,2,0,P|333:132|283:176,1,76.5000014591217,0|2,1:0|0:2,0:0:0:0:
457,149,173505,1,0,1:0:0:0:
457,149,173599,2,0,P|474:117|524:74,1,76.5000014591217,8|0,1:1|0:0,0:0:0:0:
356,160,173787,2,0,P|375:190|388:255,1,76.5000014591217,2|0,1:2|1:0,0:0:0:0:
398,66,173974,6,0,P|362:67|247:28,1,153.000002918243,4|2,1:0|0:2,0:0:0:0:
113,123,174349,1,10,1:1:0:0:
113,123,174442,2,0,P|97:133|127:136,1,76.5000014591217,0|2,1:0|0:2,0:0:0:0:
42,80,174630,2,0,P|27:97|23:157,1,76.5000014591217,2|4,1:1|0:2,0:0:0:0:
180,196,174817,2,0,P|194:178|198:118,1,76.5000014591217,0|2,1:0|0:2,0:0:0:0:
28,68,175005,1,0,1:0:0:0:
28,68,175099,2,0,P|13:85|9:145,1,76.5000014591217,2|0,1:3|0:0,0:0:0:0:
194,208,175286,2,0,P|208:190|212:130,1,76.5000014591217,2|0,1:2|0:0,0:0:0:0:
116,116,175474,6,0,L|146:330,1,153.000002918243,2|2,1:3|0:2,0:0:0:0:
138,267,175848,5,10,1:1:0:0:
138,267,175942,2,0,P|168:248|233:235,1,76.5000014591217,0|2,1:0|0:2,0:0:0:0:
45,226,176130,2,0,P|47:261|26:324,1,76.5000014591217,2|4,1:1|0:2,0:0:0:0:
128,165,176317,2,0,P|97:148|53:98,1,76.5000014591217,0|2,1:0|0:2,0:0:0:0:
80,272,176505,1,0,1:0:0:0:
80,272,176599,2,0,P|112:289|155:339,1,76.5000014591217,8|0,1:1|0:0,0:0:0:0:
69,171,176787,2,0,P|39:190|-26:203,1,76.5000014591217,2|0,1:2|1:0,0:0:0:0:
163,213,176974,6,0,P|162:177|201:62,1,153.000002918243,4|2,1:0|0:2,0:0:0:0:
108,41,177349,1,10,1:1:0:0:
108,41,177442,2,0,P|124:31|94:28,1,76.5000014591217,0|2,1:0|0:2,0:0:0:0:
197,67,177630,1,2,1:1:0:0:
197,67,177724,5,4,0:2:0:0:
21,35,177911,1,2,0:2:0:0:
216,71,178099,2,0,P|209:147|184:219,1,153.000002918243,2|2,1:3|1:2,0:0:0:0:
464,268,178474,6,0,L|250:238,1,153.000002918243,2|2,1:3|0:2,0:0:0:0:
313,246,178848,5,10,1:1:0:0:
313,246,178942,2,0,P|332:216|345:151,1,76.5000014591217,0|2,1:0|0:2,0:0:0:0:
354,339,179130,2,0,P|319:337|256:358,1,76.5000014591217,2|4,1:1|0:2,0:0:0:0:
415,256,179317,2,0,P|432:287|482:331,1,76.5000014591217,0|2,1:0|0:2,0:0:0:0:
308,304,179505,1,0,1:0:0:0:
308,304,179599,2,0,P|291:272|241:229,1,76.5000014591217,8|0,1:1|1:0,0:0:0:0:
409,315,179787,2,0,P|390:345|377:410,1,76.5000014591217,2|0,1:2|0:0,0:0:0:0:
367,221,179974,6,0,P|403:222|518:183,1,153.000002918243,4|2,1:0|1:2,0:0:0:0:
382,78,180349,1,10,1:1:0:0:
382,78,180442,2,0,P|398:88|368:91,1,76.5000014591217,0|2,1:0|0:2,0:0:0:0:
453,35,180630,2,0,P|468:52|472:112,1,76.5000014591217,2|4,1:1|0:2,0:0:0:0:
315,151,180817,2,0,P|301:133|297:73,1,76.5000014591217,0|2,1:0|0:2,0:0:0:0:
467,23,181005,1,0,1:0:0:0:
467,23,181099,2,0,P|482:40|486:100,1,76.5000014591217,2|0,1:3|0:0,0:0:0:0:
301,163,181286,2,0,P|287:145|283:85,1,76.5000014591217,2|0,1:2|1:0,0:0:0:0:
177,50,181474,6,0,P|161:149|118:150,1,153.000002918243,2|2,1:3|0:2,0:0:0:0:
209,233,181755,2,2,P|160:145|119:158,1,153.000002918243,0|0,1:1|0:1,0:1:0:0:
53,170,182036,1,2,1:1:0:0:
85,353,182224,6,0,P|101:254|144:253,1,153.000002918243,2|2,1:3|0:2,0:0:0:0:
53,170,182505,2,2,P|102:258|143:245,1,153.000002918243,0|0,1:1|0:1,0:1:0:0:
209,233,182786,1,2,1:1:0:0:
273,90,182974,6,0,P|258:136|255:203,1,76.5000014591217,2|0,1:3|0:0,0:0:0:0:
337,305,183161,5,8,0:3:0:0:
299,296,183255,1,8,1:3:0:0:
283,261,183349,1,4,1:3:0:0:
300,227,183442,1,4,0:3:0:0:
337,219,183536,1,0,1:0:0:0:
367,243,183630,1,0,3:0:0:0:
367,281,183724,6,0,B|288:275|288:275|258:322|258:322|145:314,1,229.500004377365,4|0,1:2|0:0,0:0:0:0:
209,233,184099,5,4,1:2:0:0:
209,233,184192,1,0,1:0:0:0:
209,233,184286,1,4,1:2:0:0:
209,233,184380,1,0,1:0:0:0:
209,233,184474,6,0,B|189:131|189:131|194:123|194:123|180:125|180:125|184:114|184:114|174:55,1,153.000002918243,4|2,1:0|1:2,0:0:0:0:
181,100,184849,5,10,0:1:0:0:
181,100,184942,2,0,P|216:91|278:105,1,76.5000014591217,0|10,1:0|1:2,0:0:0:0:
364,205,185130,2,0,P|337:179|277:160,1,76.5000014591217,2|4,1:1|0:2,0:0:0:0:
176,182,185317,2,0,P|211:192|257:234,1,76.5000014591217,8|2,1:2|0:2,0:0:0:0:
282,360,185505,1,0,1:0:0:0:
282,360,185599,2,0,P|271:324|229:278,1,76.5000014591217,8|0,1:1|0:0,0:0:0:0:
133,266,185786,2,0,P|158:292|177:352,1,76.5000014591217,10|0,1:2|1:0,0:0:0:0:
337,275,185974,6,0,L|504:297,1,153.000002918243,4|2,1:0|1:2,0:0:0:0:
488,294,186349,1,10,0:1:0:0:
488,294,186442,2,0,L|464:192,1,76.5000014591217,0|10,1:0|1:2,0:0:0:0:
333,175,186630,2,0,L|230:150,1,76.5000014591217,2|4,1:1|0:2,0:0:0:0:
404,120,186817,2,0,L|506:144,1,76.5000014591217,8|2,1:2|1:2,0:0:0:0:
299,189,187005,1,0,1:0:0:0:
299,189,187099,2,0,L|196:213,1,76.5000014591217,2|0,1:3|0:0,0:0:0:0:
438,106,187286,2,0,L|540:81,1,76.5000014591217,10|0,1:2|0:0,0:0:0:0:
328,71,187474,6,0,P|274:107|326:44,1,229.500004377365,2|8,1:3|0:2,0:0:0:0:
300,17,187849,5,10,1:1:0:0:
300,17,187942,2,0,P|265:8|203:22,1,76.5000014591217,0|10,1:0|1:2,0:0:0:0:
117,122,188130,2,0,P|144:96|204:77,1,76.5000014591217,2|4,1:1|0:2,0:0:0:0:
305,99,188317,2,0,P|270:109|224:151,1,76.5000014591217,8|2,1:2|0:2,0:0:0:0:
199,277,188505,1,0,1:0:0:0:
199,277,188599,2,0,P|210:241|252:195,1,76.5000014591217,8|0,1:1|0:0,0:0:0:0:
348,183,188786,2,0,P|323:209|304:269,1,76.5000014591217,10|0,1:2|1:0,0:0:0:0:
151,193,188974,6,0,L|-19:235,1,153.000002918243,4|2,1:0|1:2,0:0:0:0:
96,108,189349,1,10,1:1:0:0:
96,108,189442,2,0,L|10:129,1,76.5000014591217,0|0,1:0|0:0,0:0:0:0:
150,29,189630,1,2,0:1:0:0:
150,29,189723,6,0,L|236:8,1,76.5000014591217,4|8,1:2|0:2,0:0:0:0:
303,44,189911,2,0,L|247:96,1,76.5000014591217,2|0,1:2|0:0,0:0:0:0:
296,168,190099,2,0,B|371:121|371:121|301:302,1,229.500004377365,2|0,1:3|0:0,0:0:0:0:
442,234,190474,6,0,B|423:254|423:254|317:249|227:301,1,229.500004377365,2|0,1:3|0:0,0:0:0:0:
229,299,190849,5,10,0:1:0:0:
229,299,190942,2,0,P|194:308|132:294,1,76.5000014591217,0|10,1:0|1:2,0:0:0:0:
46,194,191130,2,0,P|73:220|133:239,1,76.5000014591217,2|4,1:1|0:2,0:0:0:0:
234,217,191317,2,0,P|199:207|153:165,1,76.5000014591217,8|2,1:2|0:2,0:0:0:0:
128,39,191505,1,0,1:0:0:0:
128,39,191599,2,0,P|139:75|181:121,1,76.5000014591217,8|0,1:1|0:0,0:0:0:0:
277,133,191786,2,0,P|252:107|233:47,1,76.5000014591217,10|0,1:2|1:0,0:0:0:0:
175,275,191974,6,0,L|8:297,1,153.000002918243,4|2,1:0|1:2,0:0:0:0:
24,294,192349,1,10,0:1:0:0:
24,294,192442,2,0,L|48:192,1,76.5000014591217,0|10,1:0|1:2,0:0:0:0:
179,175,192630,2,0,L|282:150,1,76.5000014591217,2|4,1:1|0:2,0:0:0:0:
108,120,192817,2,0,L|6:144,1,76.5000014591217,8|2,1:2|1:2,0:0:0:0:
213,189,193005,1,0,1:0:0:0:
213,189,193099,2,0,L|316:213,1,76.5000014591217,2|0,1:3|0:0,0:0:0:0:
74,106,193286,2,0,L|-28:81,1,76.5000014591217,10|0,1:2|0:0,0:0:0:0:
169,67,193474,6,0,L|417:24,1,229.500004377365,2|0,1:3|0:0,0:0:0:0:
398,0,193849,2,0,L|440:248,1,229.500004377365,4|0,1:2|0:0,0:0:0:0:
465,228,194224,2,0,L|216:270,1,229.500004377365,4|0,1:2|1:0,0:0:0:0:
236,296,194599,2,0,L|193:47,1,229.500004377365,4|0,1:2|0:0,0:0:0:0:
274,0,194974,6,0,P|278:32|296:79,1,76.5000014591217,4|0,1:2|0:0,0:0:0:0:
86,284,195349,6,0,P|90:316|108:363,1,76.5000014591217,4|0,1:2|0:0,0:0:0:0:
415,176,195724,6,0,P|419:208|437:255,1,76.5000014591217,4|0,1:2|0:0,0:0:0:0:
434,249,195911,1,0,3:0:0:0:
506,111,196099,6,0,B|416:91|380:196|294:177,1,229.500004377365,2|0,1:0|0:0,0:0:0:0:
237,114,196474,6,0,B|240:52|240:52|211:110,1,125.999996154785,4|2,1:0|0:2,0:0:0:0:
133,89,196849,1,0,1:0:0:0:
133,89,196942,1,0,3:0:0:0:
133,89,197036,1,8,0:2:0:0:
133,89,197130,2,0,P|90:67|-7:51,1,125.999996154785,2|4,0:2|3:2,0:0:0:0:
66,199,197505,1,0,3:0:0:0:
66,199,197599,2,0,P|101:189|146:147,1,62.9999980773926,8|0,1:2|0:0,0:0:0:0:
15,258,197786,2,0,P|46:275|108:277,1,62.9999980773926,6|0,3:2|0:0,0:0:0:0:
194,140,197974,6,0,L|298:165,2,62.9999980773926,4|0|2,1:0|3:0|3:2,0:0:0:0:
204,152,198349,6,0,L|308:177,1,62.9999980773926,0|0,1:0|3:0,0:0:0:0:
312,72,198536,1,8,0:2:0:0:
312,72,198630,2,0,P|384:70|418:-18,2,125.999996154785,2|4|0,0:2|3:2|3:0,0:0:0:0:
486,0,199099,1,8,1:2:0:0:
486,0,199192,1,2,0:2:0:0:
486,0,199286,2,0,P|503:30|509:76,1,62.9999980773926,6|2,3:2|0:2,0:0:0:0:
389,196,199474,6,0,L|419:43,1,125.999996154785,4|2,1:0|0:2,0:0:0:0:
225,285,199849,6,0,P|200:301|139:325,2,62.9999980773926,0|0|8,1:0|3:0|0:2,0:0:0:0:
300,268,200130,2,0,P|328:273|394:270,1,62.9999980773926,2|0,0:2|1:0,0:0:0:0:
295,363,200317,2,0,P|284:344|295:358,1,62.9999980773926,4|0,3:2|0:0,0:0:0:0:
253,214,200505,1,0,3:0:0:0:
253,214,200599,1,8,1:2:0:0:
253,214,200692,2,0,L|232:118,2,62.9999980773926,0|6|0,0:0|3:2|0:0,0:0:0:0:
323,169,200974,5,4,1:2:0:0:
168,200,201161,1,8,0:3:0:0:
152,196,201254,1,8,0:3:0:0:
137,193,201348,1,4,0:3:0:0:
121,189,201442,1,4,0:3:0:0:
106,186,201536,2,0,L|125:265,1,62.9999980773926,0|0,3:0|3:0,0:0:0:0:
142,104,201724,6,0,L|-16:66,1,125.999996154785,4|0,1:2|0:0,0:0:0:0:
51,271,202099,2,0,L|173:300,1,125.999996154785,4|0,1:2|3:0,0:0:0:0:
264,151,202474,2,0,B|251:97|251:97|258:80|258:80|244:23,1,125.999996154785,4|2,1:0|0:2,0:0:0:0:
361,99,202849,5,8,1:0:0:0:
388,79,202942,1,0,3:0:0:0:
419,92,203036,1,8,0:2:0:0:
446,72,203130,2,0,B|385:6|385:6|379:15|379:15|334:10,2,125.999996154785,2|4|0,0:2|3:2|3:0,0:0:0:0:
501,16,203599,2,0,L|478:156,1,125.999996154785,8|6,1:1|3:2,0:0:0:0:
441,251,203974,6,0,L|522:236,2,62.9999980773926,4|0|2,1:0|3:0|3:2,0:0:0:0:
365,319,204349,5,8,1:0:0:0:
338,299,204442,1,0,3:0:0:0:
307,312,204536,1,8,0:2:0:0:
280,292,204630,2,0,B|341:226|341:226|347:235|347:235|392:230,2,125.999996154785,2|4|0,0:2|3:2|3:0,0:0:0:0:
225,236,205099,2,0,L|248:376,1,125.999996154785,8|6,1:1|3:2,0:0:0:0:
413,374,205474,5,4,1:0:0:0:
431,371,205567,1,0,0:0:0:0:
449,368,205661,1,2,0:2:0:0:
467,365,205755,1,8,0:2:0:0:
485,362,205849,2,0,L|496:284,3,62.9999980773926,8|0|8|2,1:0|3:0|0:0|0:2,0:0:0:0:
418,289,206224,6,0,L|412:250,14,31.4999990386963,8|0|4|0|8|0|0|0|8|0|0|0|6|0|0,1:0|0:0|3:2|0:0|1:0|0:0|3:0|0:0|1:1|0:0|0:0|0:0|3:2|0:0|0:0,0:0:0:0:
403,181,206974,5,4,1:2:0:0:
403,181,207724,6,0,B|326:161|387:167|302:147,2,101.250003862381,4|4|4,0:2|0:2|0:2,0:0:0:0:
353,80,208474,6,0,L|387:331,1,243.000000926971,4|0,1:0|1:0,0:0:0:0:
401,196,209036,6,0,B|389:188|389:188|389:198|389:198|340:187,1,60.7500002317429,2|0,0:1|0:0,0:0:0:0:
301,251,209224,1,0,1:0:0:0:
301,251,209317,2,0,B|275:269|275:269|280:297,1,60.7500002317429,2|0,3:1|0:0,0:0:0:0:
204,221,209505,2,0,B|198:192|198:192|224:174,2,60.7500002317429,2|0|0,3:1|1:0|0:0,0:0:0:0:
190,233,209786,1,2,3:2:0:0:
297,139,209974,5,4,1:0:0:0:
248,68,210161,1,2,0:2:0:0:
226,73,210255,1,2,0:1:0:0:
213,56,210348,1,0,1:0:0:0:
127,74,210536,1,2,0:1:0:0:
34,97,210724,5,0,1:0:0:0:
34,97,210817,2,0,B|29:69|29:69|55:51,1,60.7500002317429,2|0,3:1|0:0,0:0:0:0:
20,167,211005,2,0,B|-6:185|-6:185|-1:213,2,60.7500002317429,2|0|0,3:1|1:0|0:0,0:0:0:0:
47,272,211286,1,2,3:1:0:0:
47,272,211380,1,0,0:0:0:0:
47,272,211474,6,0,P|139:259|147:374,1,182.250000695229,4|0,1:0|0:0,0:0:0:0:
220,384,211849,1,0,1:0:0:0:
228,254,212036,6,0,B|263:261|263:261|263:251|263:251|275:259,1,60.7500002317429,2|0,0:1|0:0,0:0:0:0:
329,324,212224,1,0,1:0:0:0:
329,324,212317,2,0,B|303:342|303:342|308:370,1,60.7500002317429,2|0,3:1|0:0,0:0:0:0:
356,242,212505,2,0,B|351:214|351:214|377:196,2,60.7500002317429,2|0|0,3:1|1:0|0:0,0:0:0:0:
444,314,212786,1,2,3:2:0:0:
504,200,212974,5,4,1:2:0:0:
453,116,213161,1,8,0:3:0:0:
440,119,213255,1,8,0:3:0:0:
427,122,213349,1,4,0:3:0:0:
414,125,213442,1,4,0:3:0:0:
401,128,213536,1,0,3:0:0:0:
436,1,213724,6,0,L|405:253,2,243.000000926971,4|4|4,1:2|1:2|1:0,0:0:0:0:
436,1,214849,6,0,B|431:29|431:29|457:47,1,60.7500002317429,0|0,1:0|3:0,0:0:0:0:
477,58,215036,1,2,0:1:0:0:
336,177,215224,1,0,1:0:0:0:
336,177,215317,2,0,B|310:159|310:159|315:131,1,60.7500002317429,2|0,3:1|0:0,0:0:0:0:
265,17,215505,2,0,B|260:45|260:45|286:63,2,60.7500002317429,2|0|0,3:1|1:0|0:0,0:0:0:0:
247,126,215786,1,2,3:2:0:0:
368,68,215974,6,0,B|386:11|386:11|426:58,1,121.500000463486,4|2,1:0|0:2,0:0:0:0:
426,58,216255,1,2,0:1:0:0:
426,58,216349,1,0,1:0:0:0:
238,128,216536,2,0,L|140:105,1,60.7500002317429,2|2,0:1|0:2,0:0:0:0:
115,155,216724,5,0,1:0:0:0:
115,155,216817,2,0,B|89:137|89:137|94:109,1,60.7500002317429,2|0,3:1|0:0,0:0:0:0:
144,224,217005,2,0,B|139:252|139:252|165:270,2,60.7500002317429,2|0|0,3:1|1:0|0:0,0:0:0:0:
9,180,217286,1,2,3:1:0:0:
9,180,217380,1,0,0:0:0:0:
9,180,217474,6,0,L|260:208,1,243.000000926971,4|0,1:0|1:0,0:0:0:0:
334,221,218036,1,2,0:1:0:0:
326,300,218224,5,0,1:0:0:0:
326,300,218317,2,0,B|308:326|308:326|280:321,1,60.7500002317429,2|0,3:1|0:0,0:0:0:0:
395,271,218505,2,0,B|423:276|423:276|441:250,2,60.7500002317429,2|0|0,3:1|1:0|0:0,0:0:0:0:
330,210,218786,2,0,L|294:119,1,60.7500002317429
398,384,218974,5,4,1:0:0:0:
398,384,220099,5,2,0:2:0:0:
420,363,220192,1,2,0:2:0:0:
447,349,220286,1,2,0:2:0:0:
476,340,220380,1,2,0:2:0:0:
506,338,220474,6,0,L|303:385,1,202.500007724762,4|0,1:0|0:0,0:0:0:0:
251,332,220849,5,0,1:0:0:0:
294,250,221036,1,0,0:0:0:0:
294,250,221130,1,2,0:3:0:0:
219,199,221317,1,4,3:2:0:0:
262,117,221505,1,0,3:0:0:0:
262,117,221599,1,2,1:3:0:0:
187,66,221786,1,6,3:2:0:0:
277,120,221974,6,0,P|308:120|304:108,2,58.4999973220826,4|0|2,1:0|0:0|3:2,0:0:0:0:
224,192,222349,5,0,1:0:0:0:
306,235,222536,1,0,0:0:0:0:
306,235,222630,1,2,0:3:0:0:
357,160,222817,1,4,3:2:0:0:
439,203,223005,1,0,3:0:0:0:
439,203,223099,1,2,1:3:0:0:
490,128,223286,1,6,3:2:0:0:
436,218,223474,6,0,B|417:234|417:234|373:241|373:241|336:354,1,175.499991966248,4|0,1:0|0:0,0:0:0:0:
339,341,223849,5,0,1:0:0:0:
257,384,224036,1,0,0:0:0:0:
257,384,224130,1,2,0:3:0:0:
206,309,224317,1,4,3:2:0:0:
124,352,224505,1,0,3:0:0:0:
124,352,224599,1,2,1:3:0:0:
73,277,224786,1,6,3:2:0:0:
218,311,224974,5,4,1:2:0:0:
201,196,225161,1,8,0:3:0:0:
208,237,225255,1,8,0:3:0:0:
249,242,225348,1,4,0:3:0:0:
266,204,225442,1,4,0:3:0:0:
236,177,225536,1,0,3:0:0:0:
338,239,225724,6,0,L|74:166,1,233.999989288331,4|0,1:2|3:0,0:0:0:0:
78,163,226192,1,0,3:0:0:0:
63,176,226286,1,0,3:0:0:0:
62,161,226380,1,0,3:0:0:0:
24,174,226474,6,0,B|72:6|72:6|69:38|81:64,1,233.999989288331,4|0,1:0|1:0,0:0:0:0:
151,34,227036,1,0,0:0:0:0:
151,34,227130,2,0,P|176:55|196:85,1,58.4999973220826,2|0,0:3|1:0,0:0:0:0:
262,58,227317,2,0,P|264:90|257:125,1,58.4999973220826,4|0,3:2|0:0,0:0:0:0:
323,153,227505,1,0,3:0:0:0:
323,153,227599,2,0,P|302:178|272:197,1,58.4999973220826,2|0,1:3|0:0,0:0:0:0:
298,263,227786,2,0,P|265:265|230:258,1,58.4999973220826,6|0,3:2|0:0,0:0:0:0:
189,196,227974,6,0,P|102:177|177:156,1,233.999989288331,4|0,1:0|1:0,0:0:0:0:
239,261,228536,5,0,0:0:0:0:
239,261,228630,2,0,P|268:265|298:263,1,58.4999973220826,2|0,0:3|1:0,0:0:0:0:
280,192,228817,2,0,P|304:175|323:153,1,58.4999973220826,4|0,3:2|0:0,0:0:0:0:
259,115,229005,1,0,3:0:0:0:
259,115,229099,2,0,P|264:87|262:58,1,58.4999973220826,2|0,1:3|0:0,0:0:0:0:
191,75,229286,2,0,P|173:52|151:34,1,58.4999973220826,6|0,3:2|0:0,0:0:0:0:
0,152,229474,6,0,B|30:160|107:175|107:175|89:154|89:154|189:177,1,233.999989288331,4|0,1:0|1:0,0:0:0:0:
239,261,230036,5,0,0:0:0:0:
239,261,230130,2,0,P|268:265|298:263,1,58.4999973220826,2|0,0:3|1:0,0:0:0:0:
259,115,230317,2,0,P|264:87|262:58,1,58.4999973220826,4|0,3:2|0:0,0:0:0:0:
280,192,230505,1,0,3:0:0:0:
280,192,230599,2,0,P|304:175|323:153,1,58.4999973220826,2|0,1:3|0:0,0:0:0:0:
191,75,230786,2,0,P|173:52|151:34,1,58.4999973220826,6|0,3:2|0:0,0:0:0:0:
339,81,230974,5,4,1:2:0:0:
422,119,231161,5,8,0:3:0:0:
438,124,231255,1,8,0:3:0:0:
458,153,231349,5,4,0:3:0:0:
474,148,231443,1,4,0:3:0:0:
481,135,231536,5,0,3:0:0:0:
497,140,231630,1,0,3:0:0:0:
512,174,231724,6,0,L|499:339,2,116.999994644165,4|4|4,1:2|1:2|1:2,0:0:0:0:
256,192,232474,5,4,1:2:0:0:
246,203,233224,6,0,L|272:329,1,116.999994644165,4|0,1:2|0:0,0:0:0:0:
257,177,233505,6,0,L|162:90,1,116.999994644165,4|0,1:2|0:0,0:0:0:0:
263,204,233786,6,0,L|391:219,1,116.999994644165,4|0,1:2|0:0,0:0:0:0:
242,185,234067,6,0,L|130:249,1,116.999994644165,4|0,1:2|0:0,0:0:0:0:
270,188,234349,6,0,L|323:71,1,116.999994644165,4|0,1:2|0:0,0:0:0:0:
246,203,234630,6,0,L|272:329,1,116.999994644165,4|0,1:2|0:0,0:0:0:0:
257,177,234911,6,0,L|162:90,1,116.999994644165,4|0,1:2|0:0,0:0:0:0:
263,204,235192,6,0,L|391:219,1,116.999994644165,4|0,1:2|0:0,0:0:0:0:
