osu file format v14

[General]
AudioFilename: audio.ogg
AudioLeadIn: 0
PreviewTime: 158984
Countdown: 0
SampleSet: Soft
StackLeniency: 0.5
Mode: 0
LetterboxInBreaks: 0
WidescreenStoryboard: 1

[Editor]
Bookmarks: 13484,25484,37484,49484,64484,76484,88484,100484,112484,124484,136484,148484,160484,172484,184484,196484,208484,220484,235192
DistanceSpacing: 1
BeatDivisor: 4
GridSize: 16
TimelineZoom: 2.599999

[Metadata]
Title:ENERGY SYNERGY MATRIX (Extended)
TitleUnicode:ENERGY SYNERGY MATRIX (Extended)
Artist:Tanchiky
ArtistUnicode:Tanchiky
Creator:Wispy
Version:EXPERT
Source:BOFU2017 - LEGENDA EST A MYTH -
Tags:cytusine rlc captin1 winber1 firiiu featured artist fa mpg mg mappers' guild electronic instrumental groundbreaking compilation album hitech hi-tech esm THE BMS OF FIGHTERS ULTIMATE
BeatmapID:4385158
BeatmapSetID:2091981

[Difficulty]
HPDrainRate:5
CircleSize:4
OverallDifficulty:8.8
ApproachRate:9.4
SliderMultiplier:2
SliderTickRate:1

[Events]
//Background and Video events
0,0,"EMLy6DGUcAA-klV.jpg",0,0
//Break Periods
2,60174,60934
2,127474,133474
//Storyboard Layer 0 (Background)
//Storyboard Layer 1 (Fail)
//Storyboard Layer 2 (Pass)
//Storyboard Layer 3 (Foreground)
//Storyboard Layer 4 (Overlay)
//Storyboard Sound Samples

[TimingPoints]
-26,375,4,2,1,60,1,0
1474,-66.6666666666667,4,2,1,60,0,0
4474,-55.5555555555556,4,2,1,60,0,0
6724,-100,4,2,1,60,0,0
7474,-50,4,2,1,60,0,0
8786,-83.3333333333333,4,2,1,60,0,0
8974,-62.5,4,2,1,60,0,0
10286,-83.3333333333333,4,2,1,60,0,0
10849,-111.111111111111,4,2,1,60,0,0
11224,-166.666666666667,4,2,1,60,0,0
12349,-83.3333333333334,4,2,1,60,0,0
12724,-51.2820512820513,4,2,1,60,0,0
13474,-40.8163265306122,4,2,1,60,0,0
14130,-100,4,2,1,60,0,0
14974,-50,4,2,1,60,0,0
15349,-100,4,2,1,60,0,0
16474,-50,4,2,1,60,0,0
16849,-100,4,2,1,60,0,0
17974,-41.6666666666667,4,2,1,60,0,0
19849,-100,4,2,1,60,0,0
20974,-50,4,2,1,60,0,0
21349,-100,4,2,1,60,0,0
22474,-50,4,2,1,60,0,0
22849,-100,4,2,1,60,0,0
23599,-43.4782608695652,4,2,1,60,0,0
23974,-33.3333333333333,4,2,1,60,0,0
24349,-66.6666666666667,4,2,1,60,0,0
25474,-43.4782608695652,4,2,1,60,0,0
25849,-83.3333333333333,4,2,1,60,0,0
26974,-50,4,2,1,60,0,0
27536,-83.3333333333333,4,2,1,60,0,0
28474,-50,4,2,1,60,0,0
29786,-250,4,2,1,60,0,0
29974,-40,4,2,1,60,0,0
30724,-45.4545454545455,4,2,1,60,0,0
31474,-41.6666666666667,4,2,1,60,0,0
32036,-71.4285714285714,4,2,1,60,0,0
32974,-50,4,2,1,60,0,0
33536,-71.4285714285714,4,2,1,60,0,0
34474,-50,4,2,1,60,0,0
35599,-71.4285714285714,4,2,1,60,0,0
37099,-71.4285714285714,4,2,1,45,0,0
37474,-41.6666666666667,4,2,1,60,0,0
38130,-66.6666666666667,4,2,1,60,0,0
40474,-50,4,2,1,60,0,0
40849,-66.6666666666667,4,2,1,60,0,0
41974,-41.6666666666667,4,2,1,60,0,0
44130,-55.5555555555556,4,2,1,60,0,0
47317,-71.4285714285714,4,2,1,60,0,0
47786,-100,4,2,1,60,0,0
47974,-41.6666666666667,4,2,1,60,0,0
48349,-100,4,2,1,60,0,0
49474,-43.4782608695652,4,2,1,60,0,0
49849,-55.5555555555556,4,2,1,60,0,0
52474,-45.4545454545455,4,2,1,60,0,0
52849,-55.5555555555556,4,2,1,60,0,0
53974,-41.6666666666667,4,2,1,60,0,0
54349,-100,4,2,1,60,0,0
54724,-41.6666666666667,4,2,1,60,0,0
56130,-55.5555555555556,4,2,1,60,0,0
56974,-47.6190476190476,4,2,1,60,0,0
57349,-55.5555555555556,4,2,1,60,0,0
58099,-41.6666666666667,4,2,1,60,0,0
58474,-100,4,2,1,60,0,0
62224,-41.6666666666667,4,2,1,60,0,0
62599,-83.3333333333333,4,2,1,60,0,0
62974,-41.6666666666667,4,2,1,60,0,0
64474,375,4,2,1,60,1,0
64474,-33.3333333333333,4,2,1,60,0,0
64849,-45.045045045045,4,2,1,60,0,0
67474,-37.037037037037,4,2,1,60,0,0
67849,-45.045045045045,4,2,1,60,0,0
70474,-37.037037037037,4,2,1,60,0,0
70942,-45.045045045045,4,2,1,60,0,0
76099,-37.037037037037,4,2,1,60,0,0
76474,-66.6666666666667,4,2,2,60,0,0
77599,-33.3333333333333,4,2,2,60,0,0
77974,-66.6666666666667,4,2,2,60,0,0
82086,-37.037037037037,4,2,2,60,0,0
82474,-66.6666666666667,4,2,2,60,0,0
83599,-37.037037037037,4,2,2,60,0,0
83974,-66.6666666666667,4,2,2,60,0,0
85474,-58.8235294117647,4,2,2,60,0,0
87724,-47.6190476190476,4,2,2,60,0,0
88099,-41.6666666666667,4,2,1,60,0,0
88474,-50,4,2,2,60,0,0
89786,-45.4545454545455,4,2,2,60,0,0
90161,-41.6666666666667,4,2,2,60,0,0
92036,-50,4,2,2,60,0,0
92974,-35.7142857142857,4,2,2,60,0,0
94567,-41.6666666666667,4,1,1,60,0,0
94755,-50,4,1,1,60,0,0
98974,-133.333333333333,4,1,1,60,0,0
99724,-41.6666666666667,4,2,1,60,0,0
100474,-37.037037037037,4,2,1,60,0,0
100849,-50,4,2,1,60,0,0
103474,-41.6666666666667,4,2,1,60,0,0
103849,-50,4,2,1,60,0,0
104974,-41.6666666666667,4,2,1,60,0,0
105349,-333.333333333333,4,2,1,60,0,0
106099,-200,4,2,0,60,0,0
106474,-41.6666666666667,4,2,1,60,0,0
107130,-50,4,2,1,60,0,0
109474,-41.6666666666667,4,2,1,60,0,0
109849,-50,4,2,1,60,0,0
112099,-33.3333333333333,4,2,1,60,0,0
112849,-50,4,2,1,60,0,0
115474,-41.6666666666667,4,2,1,60,0,0
115849,-50,4,2,1,60,0,0
116974,-37.037037037037,4,2,1,60,0,0
117349,-200,4,2,1,60,0,0
117599,-37.037037037037,4,2,1,60,0,0
118849,-50,4,2,1,60,0,0
121474,-41.6666666666667,4,2,1,60,0,0
121849,-50,4,2,1,60,0,0
122224,-50,4,1,1,60,0,0
122974,-37.037037037037,4,2,1,60,0,0
124567,-41.6666666666667,4,2,1,30,0,0
136099,-41.6666666666667,4,2,1,60,0,0
136474,-142.857142857143,4,2,1,40,0,0
142849,-66.6666666666667,4,2,1,40,0,0
143224,-142.857142857143,4,2,1,40,0,0
145286,-66.6666666666667,4,2,1,40,0,0
145849,-111.111111111111,4,2,1,40,0,0
146224,-100,4,2,1,40,0,0
146599,-90.9090909090909,4,2,1,40,0,0
148099,-41.6666666666667,4,2,1,60,0,0
148474,-66.6666666666667,4,2,2,30,0,0
149974,-66.6666666666667,4,2,2,40,0,0
150349,-45.4545454545455,4,2,2,40,0,0
150724,-83.3333333333333,4,2,2,40,0,0
151474,-45.4545454545455,4,2,2,50,0,0
151849,-58.8235294117647,4,2,2,50,0,0
152786,-58.8235294117647,4,2,2,60,0,0
154474,-45.4545454545455,4,2,2,60,0,0
154849,-58.8235294117647,4,2,2,60,0,0
158224,-58.8235294117647,4,1,2,60,0,0
158974,-41.6666666666667,4,3,2,60,0,0
160099,-33.3333333333333,4,3,2,60,0,0
160380,-41.6666666666667,4,3,2,5,0,0
160474,-35.7142857142857,4,3,2,70,0,1
160567,-41.6666666666667,4,3,1,70,0,1
161974,-66.6666666666667,4,3,1,70,0,1
163474,-41.6666666666667,4,3,1,70,0,1
164974,-66.6666666666667,4,3,1,70,0,1
166474,-41.6666666666667,4,3,1,70,0,1
167974,-66.6666666666667,4,3,1,70,0,1
169474,-41.6666666666667,4,3,1,70,0,1
172474,-41.6666666666667,4,3,2,70,0,1
172567,-41.6666666666667,4,3,1,70,0,1
175474,-35.7142857142857,4,3,1,70,0,1
175849,-41.6666666666667,4,3,1,70,0,1
178474,-35.7142857142857,4,3,1,70,0,1
178849,-41.6666666666667,4,3,1,70,0,1
183536,-100,4,3,1,70,0,1
183724,-41.6666666666667,4,3,1,70,0,1
184474,-34.4827586206897,4,3,2,70,0,1
184567,-40,4,3,1,70,0,1
187474,-34.4827586206897,4,3,1,70,0,1
187849,-40,4,3,1,70,0,1
190474,-34.4827586206897,4,3,1,70,0,1
190849,-40,4,3,1,70,0,1
196474,-50,4,2,1,60,0,0
199474,-40,4,2,1,60,0,0
199942,-50,4,2,1,60,0,0
200974,-40,4,2,1,60,0,0
202474,-34.4827586206897,4,2,1,60,0,0
202849,-50,4,2,1,60,0,0
205474,-41.6666666666667,4,1,1,60,0,0
206974,-41.6666666666667,4,2,1,60,0,0
207724,-66.6666666666667,4,2,1,60,0,0
208474,-41.6666666666667,4,2,1,60,0,0
208849,-50,4,2,1,60,0,0
209974,-41.6666666666667,4,2,1,60,0,0
210349,-50,4,2,1,60,0,0
211474,-41.6666666666667,4,2,1,60,0,0
211849,-50,4,2,1,60,0,0
212974,-40,4,2,1,60,0,0
214474,-34.4827586206897,4,2,1,60,0,0
215036,-50,4,2,1,60,0,0
215974,-40,4,2,1,60,0,0
216349,-50,4,2,1,60,0,0
217474,-40,4,2,1,60,0,0
218317,-50,4,2,1,60,0,0
220474,-34.4827586206897,4,2,1,60,0,0
220849,-50,4,2,1,60,0,0
221974,-40,4,2,1,60,0,0
222442,-50,4,2,1,60,0,0
223474,-40,4,2,1,60,0,0
223849,-50,4,2,1,60,0,0
224974,-40,4,2,1,60,0,0
227130,-50,4,2,1,60,0,0
227974,-40,4,2,1,60,0,0
228630,-50,4,2,1,60,0,0
229474,-40,4,2,1,60,0,0
230130,-50,4,2,1,60,0,0
230974,-34.4827586206897,4,2,1,60,0,0
232474,-333.333333333333,4,2,1,60,0,0
233224,-37.037037037037,4,2,1,60,0,0

[Colours]
Combo1 : 17,254,176
Combo2 : 173,255,95
Combo3 : 255,88,100
Combo4 : 255,94,55

[HitObjects]
503,17,1474,6,0,B|452:30|452:30|441:61|441:61|430:54|430:54|216:100,1,300.000011444092,4|0,1:1|0:0,0:0:0:0:
233,96,2786,6,0,B|217:63|217:63|210:155,1,75.0000028610231,4|0,1:1|0:0,0:0:0:0:
259,294,2974,2,0,B|275:327|275:327|282:235,1,75.0000028610231,4|0,1:1|0:0,0:0:0:0:
259,294,4099,5,4,1:1:0:0:
171,277,4192,1,0,1:1:0:0:
252,287,4286,5,4,1:1:0:0:
181,273,4380,1,0,1:1:0:0:
222,204,4474,6,0,L|254:422,1,179.999994506836,4|0,1:1|0:0,0:0:0:0:
248,382,5036,1,4,1:1:0:0:
34,274,5224,6,0,B|111:172|111:172|25:215,1,179.999994506836,4|0,1:1|0:0,0:0:0:0:
71,63,5505,2,0,B|120:179|120:179|125:83,1,179.999994506836,4|0,1:1|0:0,0:0:0:0:
133,194,5786,2,0,B|221:204,1,89.9999972534181,4|0,1:1|0:0,0:0:0:0:
297,217,5974,5,0,3:0:0:0:
297,217,6349,6,0,B|349:253|277:274|313:211,3,89.9999972534181,2|0|2|0,0:2|0:0|3:2|0:0,0:0:0:0:
351,144,6724,6,0,B|380:159|380:159|384:178|384:178|395:189|395:189|396:206|396:206|403:227|403:227|408:239|408:239|375:292,1,150,0|0,3:0|3:0,0:0:0:0:
324,350,7099,5,0,3:0:0:0:
341,323,7192,1,0,3:0:0:0:
319,328,7286,1,0,3:0:0:0:
346,345,7380,1,0,3:0:0:0:
392,264,7474,6,0,B|344:269|344:269|297:331|297:331|137:319,1,200,4|0,1:1|0:0,0:0:0:0:
163,272,7755,1,0,0:0:0:0:
163,272,7849,1,0,1:0:0:0:
276,130,8036,2,0,L|256:231,1,100
123,358,8224,5,0,1:0:0:0:
85,364,8317,1,0,0:0:0:0:
61,335,8411,1,0,0:0:0:0:
9,269,8505,1,0,0:0:0:0:
46,261,8599,1,0,1:0:0:0:
59,226,8692,1,0,0:0:0:0:
15,165,8786,2,0,L|7:105,1,59.9999981689454
163,272,8974,6,0,L|459:296,1,240,4|0,1:2|0:0,0:0:0:0:
488,326,9349,2,0,L|474:247,1,80,0|0,1:0|0:0,0:0:0:0:
393,384,9536,1,0,1:0:0:0:
466,159,9724,5,0,1:0:0:0:
428,153,9817,1,0,0:0:0:0:
404,182,9911,1,0,1:0:0:0:
352,248,10005,1,0,0:0:0:0:
389,256,10099,1,0,1:0:0:0:
402,291,10192,1,0,0:0:0:0:
330,330,10286,2,0,L|257:343,1,59.9999981689454,0|0,1:0|0:0,0:0:0:0:
148,202,10474,6,0,P|141:172|144:143,3,59.9999981689454,4|0|0|0,1:2|1:0|1:0|1:0,0:0:0:0:
96,85,10849,2,0,P|111:68|130:57,3,44.999998626709,0|0|0|0,1:0|1:0|1:0|1:0,0:0:0:0:
188,9,11224,6,0,P|198:11|208:18,6,14.9999995422363,4|0|0|0|0|0|0,1:2|0:0|1:0|0:0|1:0|0:0|1:0,0:0:0:0:
203,1,11599,6,0,P|213:3|223:10,6,14.9999995422363,0|0|0|0|0|0|0,1:0|0:0|1:0|0:0|1:0|0:0|1:0,0:0:0:0:
110,144,11974,5,8,3:3:0:0:
42,36,12067,1,8,3:3:0:0:
130,56,12161,1,4,3:3:0:0:
22,124,12255,1,4,3:3:0:0:
120,153,12349,6,0,L|220:143,1,59.9999981689454,8|8,3:3|3:3,0:0:0:0:
274,141,12536,1,4,3:3:0:0:
274,141,12630,1,4,3:3:0:0:
195,123,12724,6,0,B|186:229|186:229|176:236|176:236|160:358|160:358|186:326|232:322,1,292.500001115799,4|0,1:2|0:0,0:0:0:0:
506,275,13099,2,0,B|271:240|271:240|307:312,1,292.500001115799,4|0,1:2|0:0,0:0:0:0:
366,218,13474,6,0,P|346:63|193:133,1,367.500003504753,4|0,1:0|0:0,0:0:0:0:
274,141,13849,5,0,1:0:0:0:
293,145,13942,1,0,3:0:0:0:
311,149,14036,1,0,0:0:0:0:
401,107,14130,2,0,L|410:162,1,50,2|0,0:2|1:0,0:0:0:0:
484,144,14317,2,0,L|475:94,1,50,0|0,3:0|0:0,0:0:0:0:
256,33,14505,1,0,3:0:0:0:
241,50,14599,2,0,P|213:53|191:63,1,50,0|0,1:0|0:0,0:0:0:0:
235,127,14786,1,2,3:2:0:0:
56,67,14974,6,0,B|91:2|91:2|22:42|22:42|68:226,1,300,4|0,1:0|0:0,0:0:0:0:
270,147,15349,5,0,1:0:0:0:
289,151,15442,1,0,0:0:0:0:
307,155,15536,1,0,0:0:0:0:
397,113,15630,2,0,L|406:168,1,50,2|0,0:2|1:0,0:0:0:0:
480,150,15817,2,0,L|471:100,1,50,0|0,3:0|0:0,0:0:0:0:
252,39,16005,1,0,3:0:0:0:
237,56,16099,2,0,P|209:59|187:69,1,50,0|0,1:0|0:0,0:0:0:0:
231,133,16286,1,2,3:2:0:0:
64,25,16474,6,0,B|46:15|46:15|34:72|34:72|109:53,1,100,4|0,1:0|0:0,0:0:0:0:
147,168,16661,2,0,B|129:178|129:178|117:121|117:121|192:140,1,100,2|0,0:2|0:0,0:0:0:0:
266,153,16849,5,0,1:0:0:0:
285,157,16942,1,0,3:0:0:0:
303,161,17036,1,0,0:0:0:0:
393,119,17130,2,0,L|402:174,1,50,2|0,0:2|1:0,0:0:0:0:
476,156,17317,2,0,L|467:106,1,50,0|0,3:0|0:0,0:0:0:0:
248,45,17505,1,0,3:0:0:0:
233,62,17599,2,0,P|205:65|183:75,1,50,0|0,1:0|0:0,0:0:0:0:
227,139,17786,1,2,3:2:0:0:
397,114,17974,6,0,B|114:56|114:56|103:41|103:41|95:72|95:72|114:100,1,359.999989013672,4|8,1:2|0:3,0:0:0:0:
23,28,18349,5,4,0:3:0:0:
19,47,18442,1,4,0:3:0:0:
0,125,18536,5,0,3:0:0:0:
4,144,18630,1,0,3:0:0:0:
77,110,18724,6,0,B|360:52|360:52|371:37|371:37|379:68|379:68|360:96,1,359.999989013672,4|0,1:2|3:0,0:0:0:0:
479,65,19099,5,0,3:0:0:0:
512,79,19192,1,0,3:0:0:0:
453,90,19286,1,0,3:0:0:0:
473,33,19380,1,0,3:0:0:0:
463,169,19474,6,0,B|409:157|409:157|377:124|377:124|175:81,1,239.999992675781,4|2,1:0|0:2,0:0:0:0:
242,96,19849,5,0,1:0:0:0:
256,131,19942,1,0,3:0:0:0:
232,160,20036,1,0,0:0:0:0:
168,116,20130,2,0,L|96:131,1,50,2|0,0:2|1:0,0:0:0:0:
154,106,20317,2,0,L|82:121,1,50,0|0,3:0|0:0,0:0:0:0:
2,9,20505,1,0,3:0:0:0:
82,4,20599,2,0,P|79:32|69:54,1,50,0|0,1:0|0:0,0:0:0:0:
0,0,20786,1,2,3:2:0:0:
300,44,20974,6,0,B|451:11|451:11|487:22|487:22|474:82|474:82|366:108,1,300,4|0,1:0|0:0,0:0:0:0:
251,118,21349,5,0,1:0:0:0:
265,153,21442,1,0,0:0:0:0:
241,182,21536,1,0,0:0:0:0:
177,138,21630,2,0,L|105:153,1,50,2|0,0:2|1:0,0:0:0:0:
163,128,21817,2,0,L|91:143,1,50,0|0,3:0|0:0,0:0:0:0:
11,31,22005,1,0,3:0:0:0:
91,26,22099,2,0,P|88:54|78:76,1,50,0|0,1:0|0:0,0:0:0:0:
9,22,22286,1,2,3:2:0:0:
225,37,22474,6,0,B|276:51|276:51|346:4,1,100,4|0,1:0|0:0,0:0:0:0:
445,121,22661,2,0,B|394:135|394:135|324:88,1,100,2|0,0:2|0:0,0:0:0:0:
260,140,22849,5,0,1:0:0:0:
274,175,22942,1,0,3:0:0:0:
250,204,23036,1,0,0:0:0:0:
186,160,23130,2,0,L|114:175,1,50,2|0,0:2|1:0,0:0:0:0:
172,150,23317,2,0,L|100:165,1,50,0|0,3:0|0:0,0:0:0:0:
20,53,23505,1,0,3:0:0:0:
100,48,23599,6,0,B|100:77|88:101|88:101|208:7|374:51,1,345.000006580353,0|0,1:0|0:0,0:0:0:0:
452,92,23974,6,0,P|487:56|446:86,1,150.000005722046,4|0,1:2|0:0,0:0:0:0:
385,167,24349,6,0,P|380:190|360:217,1,37.5000014305115,2|0,0:2|0:0,0:0:0:0:
366,158,24442,6,0,P|350:175|319:188,1,37.5000014305115,2|0,0:2|0:0,0:0:0:0:
354,140,24536,6,0,P|331:147|298:143,1,37.5000014305115,2|0,0:2|0:0,0:0:0:0:
352,119,24630,6,0,P|328:114|301:94,1,37.5000014305115,2|0,0:2|0:0,0:0:0:0:
452,92,24724,6,0,L|482:195,1,75.0000028610231,4|0,0:2|0:0,0:0:0:0:
473,163,25005,6,0,L|443:266,1,75.0000028610231,4|0,0:2|0:0,0:0:0:0:
452,234,25286,6,0,L|482:337,1,75.0000028610231,4|0,0:2|0:0,0:0:0:0:
412,373,25474,6,0,B|361:340|297:355|297:355|228:253|98:291,1,345.000006580353,4|0,1:0|0:0,0:0:0:0:
38,145,25849,5,0,1:0:0:0:
39,188,25942,1,0,3:0:0:0:
75,209,26036,2,0,L|88:124,1,59.9999981689454,2|0,0:1|0:0,0:0:0:0:
141,61,26224,1,0,1:0:0:0:
141,61,26317,2,0,L|154:-24,1,59.9999981689454,2|0,3:1|0:0,0:0:0:0:
292,26,26505,1,2,3:1:0:0:
274,41,26599,2,0,L|287:126,1,59.9999981689454,0|0,1:0|0:0,0:0:0:0:
300,110,26786,1,2,3:2:0:0:
477,4,26974,6,0,B|449:80|449:80|461:123|461:123|431:228,1,200,4|2,1:0|0:2,0:0:0:0:
440,194,27255,1,2,0:1:0:0:
406,204,27349,1,0,1:0:0:0:
300,110,27536,5,2,0:1:0:0:
327,90,27630,1,2,0:2:0:0:
292,102,27724,2,0,L|282:161,1,59.9999981689454,0|2,1:0|3:1,0:0:0:0:
209,229,27911,1,0,0:0:0:0:
226,250,28005,2,0,L|216:309,2,59.9999981689454,2|0|0,3:1|1:0|0:0,0:0:0:0:
296,336,28286,1,2,3:1:0:0:
298,356,28380,1,0,0:0:0:0:
369,308,28474,6,0,B|233:332|233:332|213:352|213:352|65:376,1,300,4|0,1:0|0:0,0:0:0:0:
2,336,28849,1,0,1:0:0:0:
171,185,29036,6,0,B|141:110|141:110|236:127,1,100,2|0,0:1|0:0,0:0:0:0:
269,50,29224,1,0,1:0:0:0:
263,34,29317,2,0,L|238:172,1,100,2|0,3:1|0:0,0:0:0:0:
83,270,29505,1,2,3:1:0:0:
95,285,29599,2,0,B|106:234|106:234|77:186,1,100,0|0,1:0|0:0,0:0:0:0:
9,48,29786,6,0,L|12:28,1,20,2|0,3:2|0:0,0:0:0:0:
16,18,29974,6,0,B|32:21|32:21|38:15|38:15|36:28|36:28|43:24|43:24|140:38,1,125,4|0,1:2|0:0,0:0:0:0:
246,132,30161,5,8,0:3:0:0:
271,121,30255,1,8,0:3:0:0:
284,70,30349,5,4,0:3:0:0:
261,53,30442,1,4,0:3:0:0:
204,67,30536,5,0,3:0:0:0:
201,95,30630,1,0,3:0:0:0:
243,91,30724,6,0,B|319:121|319:121|430:368,1,330.000010070801,4|0,1:2|3:0,0:0:0:0:
474,125,31099,2,0,B|429:115|398:155|398:155|365:339|365:339|346:379|287:402,1,330.000010070801,4|0,1:2|3:0,0:0:0:0:
495,377,31474,6,0,P|472:240|274:343,1,359.999989013672,4|0,1:0|0:0,0:0:0:0:
263,336,31849,1,0,1:0:0:0:
400,198,32036,6,0,L|304:178,1,69.9999978637696,2|2,0:1|0:2,0:0:0:0:
138,150,32224,1,0,1:0:0:0:
220,131,32317,2,0,L|268:259,1,69.9999978637696,2|0,3:1|0:0,0:0:0:0:
166,307,32505,1,2,3:1:0:0:
150,318,32599,2,0,L|168:217,1,69.9999978637696,0|0,1:0|0:0,0:0:0:0:
189,60,32786,5,2,3:2:0:0:
65,54,32974,6,0,L|295:23,1,200,4|2,1:0|0:2,0:0:0:0:
345,20,33255,1,2,0:1:0:0:
345,20,33349,1,0,1:0:0:0:
401,179,33536,2,0,L|413:110,1,69.9999978637696,2|2,0:1|0:2,0:0:0:0:
484,63,33724,1,0,1:0:0:0:
489,42,33817,1,2,3:1:0:0:
506,270,34005,1,2,3:1:0:0:
512,257,34099,2,0,P|477:259|444:270,1,69.9999978637696,0|0,1:0|0:0,0:0:0:0:
328,325,34286,1,2,3:1:0:0:
332,345,34380,1,0,0:0:0:0:
410,370,34474,6,0,L|360:52,1,300,4|0,1:0|0:0,0:0:0:0:
423,0,34849,1,0,1:0:0:0:
364,74,35036,6,0,B|357:115|357:115|345:129|345:129|339:168,1,100,2|2,0:1|0:2,0:0:0:0:
261,41,35224,1,0,1:0:0:0:
190,65,35317,2,0,B|138:66|138:66|207:38,1,100,2|0,3:1|0:0,0:0:0:0:
437,130,35505,1,2,3:1:0:0:
437,130,35599,2,0,L|506:140,1,69.9999978637696,0|0,1:0|0:0,0:0:0:0:
481,59,35786,1,2,3:2:0:0:
256,384,35974,5,4,1:0:0:0:
256,384,37099,5,2,0:2:0:0:
236,365,37192,1,2,0:2:0:0:
256,345,37286,1,2,0:2:0:0:
275,365,37380,1,2,0:2:0:0:
160,384,37474,6,0,P|143:242|113:129,1,239.999992675781,4|2,1:0|0:2,0:0:0:0:
119,148,37849,5,0,1:0:0:0:
81,144,37942,1,0,3:0:0:0:
59,174,38036,1,8,0:2:0:0:
114,228,38130,2,0,B|149:235|149:235|165:245|165:245|188:238,1,75.0000028610231,2|0,0:2|1:0,0:0:0:0:
87,67,38317,2,0,B|51:74|51:74|36:84|36:84|13:77,1,75.0000028610231,4|0,3:2|0:0,0:0:0:0:
212,149,38505,1,0,3:0:0:0:
212,149,38599,2,0,B|313:129|313:129|338:223,1,150.000005722046,8|6,1:2|3:2,0:0:0:0:
340,250,38974,5,4,1:0:0:0:
340,250,39067,1,0,0:0:0:0:
352,190,39161,1,2,3:2:0:0:
412,202,39255,1,8,0:2:0:0:
400,262,39349,1,0,1:0:0:0:
290,128,39536,1,8,0:2:0:0:
290,128,39630,2,0,B|325:120|325:120|341:111|341:111|364:118,1,75.0000028610231,2|0,0:2|1:0,0:0:0:0:
275,304,39817,2,0,B|239:296|239:296|224:287|224:287|201:294,1,75.0000028610231,4|0,3:2|0:0,0:0:0:0:
45,364,40005,1,0,3:0:0:0:
112,272,40099,6,0,B|77:317|142:367|129:259,2,75.0000028610231,8|0|6,1:2|0:0|3:2,0:0:0:0:
26,292,40380,1,0,0:0:0:0:
26,292,40474,6,0,B|48:295|48:295|142:366|142:366|217:373,1,200,4|2,1:0|0:2,0:0:0:0:
293,306,40849,5,0,1:0:0:0:
297,268,40942,1,0,3:0:0:0:
267,246,41036,1,8,0:2:0:0:
213,301,41130,2,0,B|206:336|206:336|196:352|196:352|203:375,1,75.0000028610231,2|0,0:2|1:0,0:0:0:0:
374,274,41317,6,0,B|376:248|376:248|367:238|367:238|367:233|367:233|357:223|357:223|364:200,1,75.0000028610231,4|0,3:2|0:0,0:0:0:0:
481,120,41505,1,0,3:0:0:0:
512,144,41599,1,8,1:2:0:0:
508,158,41692,1,0,0:0:0:0:
504,172,41786,2,0,L|406:157,1,75.0000028610231,6|0,3:2|0:0,0:0:0:0:
373,105,41974,6,0,B|346:130|346:130|357:184|357:184|321:226,1,119.999996337891,4|0,1:2|0:0,0:0:0:0:
215,184,42161,5,8,0:3:0:0:
213,124,42255,1,8,0:3:0:0:
266,151,42349,1,4,0:3:0:0:
213,169,42442,5,4,0:3:0:0:
223,130,42536,1,0,3:0:0:0:
253,157,42630,1,0,3:0:0:0:
219,263,42724,6,0,B|157:177|157:177|122:176|122:176|91:112|91:112|144:128,1,239.999992675781,4|0,1:2|0:0,0:0:0:0:
370,374,43099,2,0,B|455:311|455:311|489:321|489:321|537:270|537:270|483:268,1,239.999992675781,4|0,1:2|3:0,0:0:0:0:
276,17,43474,6,0,L|240:397,1,359.999989013672,4|0,1:0|0:0,0:0:0:0:
167,326,43849,5,0,1:0:0:0:
114,296,43942,1,0,3:0:0:0:
83,338,44036,1,8,0:2:0:0:
102,366,44130,2,0,P|101:338|123:277,1,89.9999972534181,2|0,0:3|1:0,0:0:0:0:
211,141,44317,2,0,P|193:182|192:226,1,89.9999972534181,4|0,3:2|0:0,0:0:0:0:
35,127,44505,1,0,3:0:0:0:
35,127,44599,2,0,P|17:85|16:41,1,89.9999972534181,2|0,1:3|0:0,0:0:0:0:
114,21,44786,2,0,P|131:62|132:106,1,89.9999972534181,6|0,3:2|0:0,0:0:0:0:
315,175,44974,6,0,B|292:195|292:195|297:221|297:221|262:408,1,179.999994506836,4|2,1:0|3:2,0:0:0:0:
275,342,45349,5,0,1:0:0:0:
350,322,45442,1,0,3:0:0:0:
390,334,45536,1,8,0:2:0:0:
410,366,45630,2,0,P|411:338|389:277,1,89.9999972534181,2|0,0:3|1:0,0:0:0:0:
301,141,45817,2,0,P|319:182|320:226,1,89.9999972534181,4|0,3:2|0:0,0:0:0:0:
477,127,46005,1,0,3:0:0:0:
477,127,46099,2,0,P|495:85|496:41,1,89.9999972534181,2|0,1:3|0:0,0:0:0:0:
398,21,46286,2,0,P|381:62|380:106,1,89.9999972534181,6|0,3:2|0:0,0:0:0:0:
248,199,46474,6,0,L|271:420,1,179.999994506836,4|2,1:0|0:2,0:0:0:0:
266,378,46849,6,0,L|154:353,1,89.9999972534181,0|0,1:0|3:0,0:0:0:0:
133,198,47036,1,8,0:2:0:0:
133,198,47130,2,0,P|117:161|105:86,1,89.9999972534181,2|0,0:3|1:0,0:0:0:0:
107,286,47317,2,0,P|84:324|75:372,1,69.9999978637696,4|0,3:2|0:0,0:0:0:0:
243,227,47505,1,0,3:0:0:0:
227,135,47599,5,2,1:3:0:0:
217,148,47692,1,0,0:0:0:0:
233,150,47786,2,0,P|246:126|259:87,1,50,6|0,3:2|0:0,0:0:0:0:
172,37,47974,6,0,L|215:365,1,239.999992675781,4|0,1:2|3:0,0:0:0:0:
203,274,48255,1,0,3:0:0:0:
126,252,48349,6,0,L|76:259,1,50,8|0,1:1|0:0,0:0:0:0:
272,228,48536,2,0,L|321:220,1,50,8|0,1:1|0:0,0:0:0:0:
411,253,48724,6,0,P|424:248|434:240,1,25,8|0,1:1|0:0,0:0:0:0:
439,256,48817,6,0,P|447:245|452:233,1,25,8|0,1:1|0:0,0:0:0:0:
464,244,48911,6,0,P|466:230|464:217,1,25,8|0,1:1|0:0,0:0:0:0:
479,221,49005,6,0,P|473:208|466:198,1,25,8|0,1:1|0:0,0:0:0:0:
480,193,49099,6,0,P|469:184|457:179,6,25,8|0|0|0|0|0|0,1:1|1:1|1:1|1:1|1:1|1:1|1:1,0:0:0:0:
442,106,49474,6,0,B|431:204|431:204|438:222|438:222|417:424,1,230.000004386902,4|8,1:0|0:2,0:0:0:0:
339,326,49755,1,0,0:0:0:0:
351,311,49849,2,0,B|316:318|316:318|307:334|307:334|271:342,2,89.9999972534181,8|0|8,1:0|0:0|0:2,0:0:0:0:
190,374,50130,2,0,B|94:353|94:353|108:344|108:344|188:363,1,179.999994506836,4|0,1:0|0:0,0:0:0:0:
207,289,50411,1,4,1:0:0:0:
82,205,50599,5,8,1:0:0:0:
75,249,50692,1,0,0:0:0:0:
115,269,50786,1,0,0:0:0:0:
147,238,50880,1,0,0:0:0:0:
126,197,50974,1,4,1:0:0:0:
90,115,51161,5,8,0:2:0:0:
90,115,51255,1,0,0:0:0:0:
90,115,51349,2,0,L|-17:101,1,89.9999972534181,8|0,1:0|0:0,0:0:0:0:
52,93,51536,2,0,L|159:79,1,89.9999972534181,8|4,0:2|1:0,0:0:0:0:
217,13,51724,6,0,B|235:41|235:41|228:102,1,89.9999972534181
318,96,51911,2,0,B|313:129|313:129|273:168,1,89.9999972534181,4|0,1:0|0:0,0:0:0:0:
260,250,52099,2,0,B|317:246|317:246|342:224,1,89.9999972534181,8|0,1:0|0:0,0:0:0:0:
472,52,52286,1,4,1:0:0:0:
454,38,52380,1,0,0:0:0:0:
433,35,52474,6,0,B|455:69|455:69|456:92|456:92|449:96|449:96|424:169|424:169|437:189|437:189|417:271,1,220.000006713867,4|8,1:0|0:2,0:0:0:0:
357,66,52755,1,0,0:0:0:0:
369,81,52849,2,0,B|334:74|334:74|325:58|325:58|289:50,2,89.9999972534181,8|0|8,1:0|0:0|0:2,0:0:0:0:
208,18,53130,2,0,B|112:39|112:39|126:48|126:48|206:29,1,179.999994506836,4|0,1:0|0:0,0:0:0:0:
225,103,53411,1,4,1:0:0:0:
96,198,53599,5,8,1:0:0:0:
86,144,53692,1,0,0:0:0:0:
139,135,53786,1,0,0:0:0:0:
149,188,53880,1,0,0:0:0:0:
114,166,53974,6,0,B|140:344|140:344|124:314|92:309,1,239.999992675781,4|0,1:2|1:0,0:0:0:0:
94,310,54255,1,0,1:0:0:0:
208,285,54349,6,0,L|266:296,1,50,0|0,1:0|0:0,0:0:0:0:
49,239,54536,2,0,L|-9:250,1,50,0|0,0:0|1:0,0:0:0:0:
225,103,54724,6,0,B|252:86|252:86|423:130|423:130|442:178,1,239.999992675781,4|0,1:2|3:0,0:0:0:0:
387,37,55005,1,0,3:0:0:0:
387,37,55099,2,0,B|388:68|388:68|264:194|264:194|213:187,1,239.999992675781,4|0,1:2|3:0,0:0:0:0:
363,210,55380,1,0,0:0:0:0:
363,210,55474,2,0,B|334:195|334:195|287:25|287:25|319:-15,1,239.999992675781,4|8,1:0|0:2,0:0:0:0:
473,60,55755,1,0,0:0:0:0:
473,60,55849,1,8,1:0:0:0:
497,178,56036,5,8,0:2:0:0:
512,168,56130,2,0,L|423:152,1,89.9999972534181,6|0,1:0|0:0,0:0:0:0:
287,321,56317,1,2,0:3:0:0:
272,311,56411,2,0,L|360:295,1,89.9999972534181,4|0,1:0|0:0,0:0:0:0:
420,245,56599,1,10,1:0:0:0:
445,269,56692,1,0,0:0:0:0:
436,303,56786,1,2,1:3:0:0:
196,360,56974,6,0,B|169:331|169:331|259:148|259:148|147:257,1,314.999990386963,4|0,1:0|0:0,0:0:0:0:
207,197,57349,1,8,1:0:0:0:
85,19,57536,5,8,0:2:0:0:
75,4,57630,2,0,L|59:93,1,89.9999972534181,6|0,1:0|0:0,0:0:0:0:
39,193,57817,1,2,0:3:0:0:
24,183,57911,2,0,L|112:167,1,89.9999972534181,4|0,1:0|0:0,0:0:0:0:
144,244,58099,6,0,P|213:70|354:144,1,359.999989013672,4|0,1:2|0:0,0:0:0:0:
262,148,58474,6,0,P|216:162|214:209,1,100,4|0,1:0|0:0,0:0:0:0:
298,304,58849,2,0,P|300:291|292:254,1,50,0|0,3:0|0:0,0:0:0:0:
399,173,59036,1,0,0:0:0:0:
432,200,59130,1,2,3:1:0:0:
422,243,59224,2,0,P|414:253|382:274,1,50,4|0,1:0|3:0,0:0:0:0:
289,138,59411,2,0,P|299:146|320:178,1,50,0|0,0:0|3:0,0:0:0:0:
428,53,59599,1,2,3:1:0:0:
409,35,59692,1,0,3:0:0:0:
387,25,59786,1,0,3:0:0:0:
362,22,59880,1,0,3:0:0:0:
365,97,59974,5,4,1:2:0:0:
365,97,61474,5,4,1:2:0:0:
248,58,61661,2,0,L|177:76,1,50,8|8,0:3|0:3,0:0:0:0:
243,70,61849,2,0,L|194:82,1,50,4|4,0:3|0:3,0:0:0:0:
121,145,62036,1,0,3:0:0:0:
121,145,62130,1,0,3:0:0:0:
99,65,62224,6,0,B|75:28|75:28|106:21|106:21|97:88,1,119.999996337891,4|0,1:2|0:0,0:0:0:0:
198,174,62411,6,0,B|242:171|242:171|232:202|232:202|179:160,1,119.999996337891,4|0,1:2|0:0,0:0:0:0:
53,206,62599,6,0,B|32:245|32:245|11:221|11:221|73:196,1,119.999996337891,4|0,1:2|0:0,0:0:0:0:
51,204,62974,6,0,L|33:334,1,119.999996337891,4|0,1:2|0:0,0:0:0:0:
201,372,63161,5,8,1:0:0:0:
225,291,63255,1,8,1:0:0:0:
143,311,63349,1,4,1:2:0:0:
296,190,63536,5,0,1:0:0:0:
378,170,63630,1,0,1:0:0:0:
354,251,63724,1,4,1:2:0:0:
354,251,64099,6,0,P|347:280|350:310,1,59.9999981689454,0|0,3:0|0:0,0:0:0:0:
349,309,64474,6,0,L|47:258,1,300.000011444092,6|2,1:0|0:2,0:0:0:0:
34,275,64849,5,6,1:0:0:0:
34,275,64942,2,0,P|8:226|8:171,1,111.000002709961,0|2,0:0|0:2,0:0:0:0:
91,175,65130,2,0,P|92:119|120:71,1,111.000002709961,0|6,0:0|1:0,0:0:0:0:
190,116,65317,2,0,P|219:68|267:41,1,111.000002709961,2|0,0:2|0:0,0:0:0:0:
305,114,65505,1,2,0:2:0:0:
305,114,65599,2,0,P|354:87|409:88,1,111.000002709961,6|0,1:0|0:0,0:0:0:0:
405,169,65786,2,0,P|460:170|508:198,1,111.000002709961,2|0,0:2|0:0,0:0:0:0:
386,253,65974,6,0,P|259:326|336:401,1,222.000005419922,6|2,1:0|0:2,0:0:0:0:
271,363,66349,5,4,1:0:0:0:
247,306,66442,1,2,0:2:0:0:
194,298,66536,1,2,0:2:0:0:
163,319,66630,2,0,P|121:279|45:304,1,111.000002709961,2|6,0:2|1:0,0:0:0:0:
235,213,66817,2,0,P|251:157|330:141,1,111.000002709961,2|2,0:2|0:2,0:0:0:0:
434,68,67005,1,2,0:2:0:0:
434,68,67099,2,0,P|376:72|334:4,1,111.000002709961,4|0,1:0|0:0,0:0:0:0:
267,0,67286,1,2,1:0:0:0:
507,7,67474,6,0,L|63:103,1,405.000001544952,6|0,1:0|0:0,0:0:0:0:
31,80,67849,5,4,1:0:0:0:
31,80,67942,2,0,P|5:129|5:184,1,111.000002709961,0|2,0:0|0:2,0:0:0:0:
88,180,68130,2,0,P|89:236|117:284,1,111.000002709961,0|6,0:0|1:0,0:0:0:0:
187,239,68317,2,0,P|216:287|264:314,1,111.000002709961,2|0,0:2|0:0,0:0:0:0:
302,241,68505,1,2,0:2:0:0:
302,241,68599,2,0,P|351:268|406:267,1,111.000002709961,6|0,1:0|0:0,0:0:0:0:
402,186,68786,2,0,P|457:185|505:157,1,111.000002709961,2|0,0:2|0:0,0:0:0:0:
232,15,68974,6,0,P|359:88|282:163,1,222.000005419922,6|2,1:0|0:2,0:0:0:0:
346,125,69349,5,4,1:0:0:0:
346,125,69442,2,0,P|306:83|331:7,1,111.000002709961,2|0,0:2|0:0,0:0:0:0:
403,0,69630,1,2,0:2:0:0:
448,71,69724,6,0,B|434:118|434:118|441:131|441:131|430:180,1,111.000002709961,6|2,1:0|0:2,0:0:0:0:
340,353,69911,2,0,B|354:306|354:306|346:292|346:292|357:243,1,111.000002709961,2|2,0:2|0:2,0:0:0:0:
346,125,70099,6,0,B|269:113|269:113|322:164,1,111.000002709961,4|0,1:0|0:0,0:0:0:0:
441,298,70286,2,0,B|518:309|518:309|465:259,1,111.000002709961,2|0,1:0|0:0,0:0:0:0:
326,16,70474,6,0,B|273:61|273:61|235:326|235:326|184:371,1,405.000001544952,6|2,1:0|0:2,0:0:0:0:
33,144,70849,5,6,1:0:0:0:
33,144,70942,2,0,P|39:88|71:43,1,111.000002709961,0|2,0:0|0:2,0:0:0:0:
137,94,71130,2,0,P|169:48|220:25,1,111.000002709961,0|6,0:0|1:0,0:0:0:0:
251,103,71317,2,0,P|302:80|357:85,1,111.000002709961,2|0,0:2|0:0,0:0:0:0:
347,167,71505,1,2,0:2:0:0:
347,167,71599,2,0,P|402:172|447:205,1,111.000002709961,6|0,1:0|0:0,0:0:0:0:
397,269,71786,2,0,P|441:301|464:351,1,111.000002709961,2|0,0:2|0:0,0:0:0:0:
294,230,71974,6,0,P|160:260|239:377,1,222.000005419922,6|2,1:0|0:2,0:0:0:0:
158,320,72349,1,4,1:0:0:0:
158,320,72442,2,0,P|169:267|124:182,1,111.000002709961,0|2,0:0|0:2,0:0:0:0:
123,106,72630,2,0,P|111:158|156:243,1,111.000002709961,2|6,0:2|1:0,0:0:0:0:
241,251,72817,2,0,P|200:215|105:211,1,111.000002709961,2|2,0:2|0:2,0:0:0:0:
39,175,73005,1,2,0:2:0:0:
39,175,73099,2,0,P|79:210|174:214,1,111.000002709961,4|0,1:0|0:0,0:0:0:0:
224,145,73286,2,0,P|172:161|121:242,1,111.000002709961,2|0,1:0|0:0,0:0:0:0:
23,365,73474,6,0,P|55:342|16:351,1,111.000002709961,6|0,1:0|0:0,0:0:0:0:
8,340,73661,6,0,P|47:346|13:325,1,111.000002709961,0|0,1:0|0:0,0:0:0:0:
130,372,73849,5,0,1:0:0:0:
142,374,73974,5,0,1:0:0:0:
152,377,74099,5,0,1:0:0:0:
220,340,74224,5,0,1:0:0:0:
253,319,74317,1,0,1:0:0:0:
261,280,74411,1,0,1:0:0:0:
282,313,74505,1,0,1:0:0:0:
321,321,74599,1,0,1:0:0:0:
100,259,74786,2,0,B|140:255|166:262|166:262|151:242|84:222,1,111.000002709961,0|0,3:0|0:0,0:0:0:0:
29,304,74974,6,0,B|9:253|31:204|31:204|86:116|84:18|38:1|-1:17|-14:86|46:124,1,333.000008129883,4|0,1:2|0:0,0:0:0:0:
371,35,75349,6,0,B|121:3|121:3|163:8|188:46,1,333.000008129883,4|0,1:2|0:0,0:0:0:0:
266,116,75724,6,0,B|244:107|244:107|264:191,1,111.000002709961,4|0,1:2|0:0,0:0:0:0:
465,366,75911,2,0,B|442:375|442:375|462:291,1,111.000002709961,0|0,3:0|0:0,0:0:0:0:
500,147,76099,6,0,B|440:136|440:136|426:126|426:126|361:116|361:116|348:108|348:108|358:118|358:118|393:240|393:240|385:270|385:270|393:238|393:238|461:167,1,405.000001544952,4|0,1:2|0:0,0:0:0:0:
445,3,76474,5,4,1:1:0:0:
243,57,76661,5,0,0:0:0:0:
243,57,76755,1,0,0:0:0:0:
166,39,76849,2,0,P|148:14|185:24,1,75.0000028610231,8|0,1:2|0:0,0:0:0:0:
190,112,77036,1,0,0:0:0:0:
25,123,77224,6,0,P|7:147|44:137,1,75.0000028610231,0|0,1:0|0:0,0:0:0:0:
102,105,77411,1,8,0:2:0:0:
102,105,77505,1,0,0:0:0:0:
36,40,77599,6,0,B|70:65|70:65|83:217|83:217|141:227|141:227|206:89|206:89|248:77,1,450.000017166138,2|0,1:1|0:0,0:0:0:0:
157,20,77974,6,0,B|172:-6|172:-6|122:32,2,75.0000028610231,0|0|0,1:0|0:0|0:0,0:0:0:0:
228,306,78349,6,0,P|210:282|247:292,1,75.0000028610231,8|0,1:2|0:0,0:0:0:0:
305,324,78536,1,0,0:0:0:0:
305,324,78630,1,0,0:0:0:0:
345,255,78724,6,0,P|327:231|364:241,1,75.0000028610231,0|0,1:0|0:0,0:0:0:0:
422,273,78911,1,8,0:2:0:0:
422,273,79005,1,0,0:0:0:0:
442,186,79099,6,0,B|416:250|497:293|563:207|490:102,1,225.000008583069,2|0,1:1|0:0,0:0:0:0:
354,7,79474,6,0,P|379:-11|369:26,1,75.0000028610231,4|0,1:0|0:0,0:0:0:0:
336,84,79661,1,0,0:0:0:0:
394,139,79849,6,0,P|397:170|370:142,1,75.0000028610231,8|0,1:2|0:0,0:0:0:0:
336,84,80036,1,0,0:0:0:0:
336,84,80130,1,0,0:0:0:0:
260,107,80224,6,0,P|232:94|269:85,1,75.0000028610231,0|0,1:0|0:0,0:0:0:0:
336,84,80411,1,8,0:2:0:0:
336,84,80505,1,0,0:0:0:0:
394,139,80599,2,0,B|408:172|408:172|415:96,2,75.0000028610231,0|0|0,1:0|0:0|0:0,0:0:0:0:
165,351,80974,6,0,P|190:369|180:332,1,75.0000028610231,0|0,1:0|0:0,0:0:0:0:
147,274,81161,1,0,0:0:0:0:
205,219,81349,6,0,P|208:188|181:216,1,75.0000028610231,8|0,1:2|0:0,0:0:0:0:
147,274,81536,1,0,0:0:0:0:
147,274,81630,1,0,0:0:0:0:
71,251,81724,6,0,P|43:264|80:273,1,75.0000028610231,0|0,1:0|0:0,0:0:0:0:
147,274,81911,1,8,0:2:0:0:
147,274,82005,1,0,0:0:0:0:
92,357,82099,6,0,P|159:153|280:254,1,405.000001544952,2|0,1:1|0:0,0:0:0:0:
318,138,82474,5,4,1:0:0:0:
292,308,82661,1,0,0:0:0:0:
426,209,82849,6,0,P|444:185|407:195,1,75.0000028610231,8|0,1:2|0:0,0:0:0:0:
349,227,83036,1,0,0:0:0:0:
349,227,83130,1,0,0:0:0:0:
313,146,83224,6,0,P|331:122|294:132,1,75.0000028610231,0|0,1:0|0:0,0:0:0:0:
236,164,83411,1,8,0:2:0:0:
236,164,83505,1,0,0:0:0:0:
203,83,83599,6,0,B|184:312|184:312|162:310|120:347,1,270.000001029968,2|0,1:1|0:0,0:0:0:0:
148,326,83974,6,0,B|146:288|146:288|171:380,1,75.0000028610231,0|0,1:0|0:0,0:0:0:0:
247,363,84161,1,0,0:0:0:0:
16,210,84349,6,0,P|-2:186|35:196,1,75.0000028610231,8|0,1:2|0:0,0:0:0:0:
93,228,84536,1,0,0:0:0:0:
93,228,84630,1,0,0:0:0:0:
129,147,84724,6,0,P|111:123|148:133,1,75.0000028610231,0|0,1:0|0:0,0:0:0:0:
206,165,84911,1,8,0:2:0:0:
206,165,85005,1,0,0:0:0:0:
243,90,85099,6,0,B|225:42|260:7|260:7|336:40|328:152,1,225.000008583069,2|0,1:0|0:0,0:0:0:0:
309,210,85474,6,0,P|352:189|413:198,1,85.0000016212464,4|0,1:0|0:0,0:0:0:0:
367,271,85661,1,0,0:0:0:0:
367,271,85755,1,8,0:2:0:0:
449,252,85849,6,0,P|446:300|407:348,1,85.0000016212464,8|0,1:2|0:0,0:0:0:0:
367,271,86036,1,0,0:0:0:0:
367,271,86130,1,8,0:2:0:0:
292,315,86224,6,0,P|249:336|188:327,1,85.0000016212464,0|8,1:0|0:2,0:0:0:0:
234,254,86411,1,0,0:0:0:0:
234,254,86505,1,8,0:2:0:0:
152,273,86599,6,0,P|155:225|194:177,1,85.0000016212464,0|8,1:0|0:2,0:0:0:0:
234,254,86786,1,0,0:0:0:0:
234,254,86880,1,8,0:2:0:0:
292,315,86974,6,0,P|404:222|547:167,1,255.000004863739,0|8,1:0|0:2,0:0:0:0:
220,69,87349,2,0,P|108:162|-35:217,1,255.000004863739,8|8,1:2|0:2,0:0:0:0:
256,384,87724,6,0,B|243:336|243:336|281:297|281:297|244:90,1,314.999990386963,0|8,1:0|0:2,0:0:0:0:
256,0,88099,5,8,1:0:0:0:
256,0,88474,6,0,L|372:12,1,100,4|0,1:0|0:0,0:0:0:0:
460,9,88661,1,0,3:3:0:0:
442,0,88755,2,0,L|490:254,1,200,2|0,0:2|0:0,0:0:0:0:
496,279,89036,1,2,3:2:0:0:
359,315,89224,5,2,3:2:0:0:
326,303,89317,1,0,0:0:0:0:
313,271,89411,1,8,0:0:0:0:
382,255,89505,1,2,3:2:0:0:
383,290,89599,1,0,0:0:0:0:
359,315,89692,1,0,0:0:0:0:
332,196,89786,6,0,B|153:181|153:181|98:251,1,220.000006713867,6|2,1:2|3:2,0:0:0:0:
108,288,90161,6,0,B|153:328|153:328|179:268,1,119.999996337891,4|0,1:2|0:0,0:0:0:0:
180,101,90349,2,0,B|90:21|90:21|38:141,1,239.999992675781,12|2,0:2|3:2,0:0:0:0:
110,172,90724,5,2,3:2:0:0:
126,156,90817,1,0,0:0:0:0:
132,178,90911,1,8,0:0:0:0:
214,198,91005,5,2,3:2:0:0:
211,187,91099,1,0,0:0:0:0:
222,189,91192,1,0,0:0:0:0:
277,128,91286,6,0,B|310:142|310:142|331:293,1,119.999996337891,6|0,1:2|0:0,0:0:0:0:
291,297,91474,2,0,B|280:269|280:269|317:87|317:87|339:76,1,239.999992675781,4|0,1:0|3:3,0:0:0:0:
386,13,91755,1,2,0:2:0:0:
386,13,91849,1,8,0:0:0:0:
277,128,92036,2,0,B|320:138|320:138|332:152|332:152|395:169,1,100,2|0,3:2|0:0,0:0:0:0:
490,190,92224,5,2,3:2:0:0:
478,157,92317,1,0,0:0:0:0:
446,144,92411,1,0,0:0:0:0:
430,213,92505,1,2,3:2:0:0:
465,214,92599,1,0,0:0:0:0:
490,190,92692,1,0,0:0:0:0:
368,161,92786,6,0,B|338:200|338:200|361:281,1,100,6|0,1:2|0:0,0:0:0:0:
352,384,92974,6,0,B|303:376|303:376|519:285,1,279.999991455078,6|0,1:2|3:3,0:0:0:0:
130,172,93255,2,0,B|81:180|81:180|292:294,1,279.999991455078,6|0,1:2|0:0,0:0:0:0:
138,89,93536,6,0,P|184:199|241:479,1,279.999991455078,6|2,1:2|0:2,0:0:0:0:
493,9,93817,2,0,P|453:67|323:376,1,279.999991455078,4|2,1:2|0:2,0:0:0:0:
319,127,94099,6,0,B|296:162|256:142|256:142|267:96|339:123,1,139.999995727539,4|0,1:2|0:0,0:0:0:0:
448,242,94286,2,0,B|470:277|510:257|510:257|499:211|427:238,1,139.999995727539,6|0,1:2|0:0,0:0:0:0:
283,26,94474,6,0,B|217:51|217:51|202:78|202:78|129:139|129:139|-37:104,1,279.999991455078,4|0,1:0|3:0,0:0:0:0:
95,54,94755,2,0,B|81:7|81:7|114:72,2,100,2|0|0,3:2|0:0|0:0,0:0:0:0:
274,127,95036,2,0,L|238:299,1,100,2|0,3:2|3:0,0:0:0:0:
252,302,95224,5,8,1:0:0:0:
219,296,95317,1,0,0:0:0:0:
186,290,95411,1,0,3:0:0:0:
122,344,95505,5,2,3:2:0:0:
106,341,95599,1,8,1:0:0:0:
89,338,95692,1,0,0:0:0:0:
15,299,95786,5,6,3:2:0:0:
12,310,95880,1,0,0:0:0:0:
23,308,95974,1,4,1:2:0:0:
179,135,96161,5,0,3:0:0:0:
195,147,96255,2,0,B|126:164|126:164|98:124,1,100,2|0,3:2|0:0,0:0:0:0:
219,296,96442,5,0,0:0:0:0:
216,316,96536,2,0,B|167:264|167:264|187:219,1,100,2|0,3:2|3:0,0:0:0:0:
264,79,96724,5,8,1:0:0:0:
274,127,96817,1,0,0:0:0:0:
322,117,96911,1,0,3:0:0:0:
388,154,97005,5,2,3:2:0:0:
411,161,97099,1,8,1:0:0:0:
418,139,97192,1,0,0:0:0:0:
456,61,97286,5,6,3:2:0:0:
459,72,97380,1,0,0:0:0:0:
448,70,97474,5,4,1:2:0:0:
413,55,97567,1,0,0:0:0:0:
378,42,97661,1,0,0:0:0:0:
342,31,97755,1,2,0:2:0:0:
306,21,97849,1,0,0:0:0:0:
269,13,97942,1,0,0:0:0:0:
232,5,98036,1,6,0:2:0:0:
195,0,98130,1,0,0:0:0:0:
200,77,98224,6,0,P|196:91|204:76,6,50,4|0|0|0|0|0|2,0:2|0:0|0:0|0:0|0:0|0:0|0:2,0:0:0:0:
187,92,98599,2,0,P|194:105|189:88,6,50,0|0|0|0|2|0|0,0:0|0:0|0:0|0:0|0:2|0:0|0:0,0:0:0:0:
257,160,98974,6,0,L|382:143,2,112.500004291535,0|0|0,3:2|0:0|0:0,0:0:0:0:
257,160,99724,6,0,L|245:82,1,59.9999981689454,8|0,1:0|0:0,0:0:0:0:
363,234,99974,6,0,B|412:194|412:194|417:123|417:123|366:231,1,239.999992675781,4|0,1:2|0:0,0:0:0:0:
165,255,100224,6,0,B|214:295|214:295|219:366|219:366|168:258,1,239.999992675781,4|0,1:2|0:0,0:0:0:0:
256,0,100474,6,0,B|147:11|147:11|118:47|118:47|143:115|143:115|166:118|166:118|198:83,1,270.000001029968,4|0,1:0|0:0,0:0:0:0:
178,104,100849,6,0,B|224:82|224:82|127:111,1,100,8|0,1:0|0:0,0:0:0:0:
21,108,101036,1,8,0:2:0:0:
42,40,101130,2,0,B|56:-7|56:-7|33:38,1,100,4|0,1:0|0:0,0:0:0:0:
130,191,101317,1,8,0:2:0:0:
62,212,101411,2,0,B|15:226|15:226|61:203,1,100,4|8,1:0|0:2,0:0:0:0:
195,259,101599,5,8,1:0:0:0:
200,289,101692,1,0,3:0:0:0:
170,294,101786,1,0,3:0:0:0:
165,264,101880,1,0,3:0:0:0:
268,228,101974,6,0,B|292:228|292:228|305:237|305:237|320:257|320:257|336:266|336:266|352:268,2,100,4|2|4,1:0|3:2|1:0,0:0:0:0:
268,228,102349,6,0,B|246:274|246:274|275:177,1,100,8|0,1:0|0:0,0:0:0:0:
308,44,102536,1,8,0:2:0:0:
240,23,102630,2,0,B|193:9|193:9|238:32,1,100,4|0,1:0|0:0,0:0:0:0:
364,116,102817,1,8,0:2:0:0:
432,95,102911,2,0,B|479:81|479:81|433:104,1,100,4|8,1:0|0:2,0:0:0:0:
384,246,103099,5,8,1:0:0:0:
359,211,103192,1,0,3:0:0:0:
389,216,103286,1,0,3:0:0:0:
354,241,103380,1,0,3:0:0:0:
288,146,103474,6,0,B|326:169|326:169|329:164|329:164|395:296|395:296|398:292|398:292|441:314,1,239.999992675781,4|4,1:0|1:0,0:0:0:0:
431,308,103849,6,0,L|332:323,1,100,8|0,1:0|0:0,0:0:0:0:
232,253,104036,1,8,0:2:0:0:
253,321,104130,2,0,B|267:368|267:368|244:323,1,100,4|0,1:0|0:0,0:0:0:0:
130,164,104317,1,8,0:2:0:0:
109,232,104411,2,0,B|95:279|95:279|118:233,1,100,4|8,1:0|0:2,0:0:0:0:
219,77,104599,5,8,1:0:0:0:
174,69,104692,1,0,3:0:0:0:
224,88,104786,1,0,3:0:0:0:
179,80,104880,1,0,3:0:0:0:
214,4,104974,6,0,B|248:203|248:203|305:193,1,239.999992675781,4|0,1:2|3:0,0:0:0:0:
285,196,105349,6,2,B|333:187|321:166|374:157,1,89.9999972534181,0|0,3:2|0:2,3:2:0:0:
309,75,106099,6,0,P|301:94|298:115,1,25,2|2,2:0|2:0,0:0:0:0:
304,62,106286,2,0,P|296:81|293:102,1,25,2|2,2:0|2:0,0:0:0:0:
190,164,106474,6,0,P|322:132|338:349,1,359.999989013672,4|0,1:0|0:0,0:0:0:0:
436,378,106849,1,8,1:0:0:0:
316,263,107036,1,8,0:2:0:0:
248,284,107130,2,0,B|201:298|201:298|247:275,1,100,4|0,1:0|0:0,0:0:0:0:
381,169,107317,1,8,0:2:0:0:
449,148,107411,2,0,B|496:134|496:134|450:157,1,100,4|8,1:0|0:2,0:0:0:0:
387,59,107599,5,8,1:0:0:0:
342,67,107692,1,0,3:0:0:0:
392,48,107786,1,0,3:0:0:0:
347,56,107880,1,0,3:0:0:0:
291,0,107974,6,0,B|267:0|267:0|254:9|254:9|239:29|239:29|223:38|223:38|207:40,2,100,4|2|4,1:0|3:2|1:0,0:0:0:0:
291,0,108349,6,0,B|269:46|269:46|298:-51,1,100,8|0,1:0|0:0,0:0:0:0:
271,182,108536,1,8,0:2:0:0:
203,161,108630,2,0,B|156:147|156:147|201:170,1,100,4|0,1:0|0:0,0:0:0:0:
385,137,108817,1,8,0:2:0:0:
406,205,108911,2,0,B|420:252|420:252|397:206,1,100,4|8,1:0|0:2,0:0:0:0:
409,344,109099,5,8,1:0:0:0:
409,344,109192,1,0,3:0:0:0:
458,349,109286,1,0,3:0:0:0:
489,308,109380,1,0,3:0:0:0:
425,256,109474,6,0,B|384:262|384:262|381:270|381:270|256:201|256:201|252:207|252:207|148:236,1,239.999992675781,4|4,1:0|1:0,0:0:0:0:
213,217,109755,1,0,0:0:0:0:
181,288,109849,2,0,B|128:280|128:280|150:160,1,100,8|0,1:0|0:0,0:0:0:0:
272,39,110036,1,8,0:2:0:0:
310,79,110130,1,4,1:0:0:0:
299,133,110224,2,0,L|153:110,1,100,0|8,0:0|0:2,0:0:0:0:
34,55,110411,1,4,1:0:0:0:
13,123,110505,2,0,B|-1:170|-1:170|22:124,1,100,8|8,0:2|1:0,0:0:0:0:
127,26,110692,1,0,3:0:0:0:
142,32,110786,1,0,3:0:0:0:
158,38,110880,1,0,3:0:0:0:
201,117,110974,5,4,1:2:0:0:
201,117,111349,1,0,3:2:0:0:
201,117,111724,1,0,3:2:0:0:
201,117,112099,6,0,B|263:109|263:109|290:84|290:84|442:60|442:60|447:26|447:26|411:31|411:31|403:111|403:111|390:129|390:129|383:177,1,450.000017166138,8|0,1:1|0:0,0:0:0:0:
256,384,112474,5,4,1:0:0:0:
195,269,112661,1,2,0:2:0:0:
195,269,112755,1,0,0:0:0:0:
195,269,112849,2,0,B|125:254|125:254|87:281,1,100,8|0,1:0|0:0,0:0:0:0:
0,356,113036,2,0,B|70:341|70:341|108:368,1,100,2|4,0:2|1:0,0:0:0:0:
261,217,113224,6,0,B|332:201|332:201|283:289,1,100
356,295,113411,1,4,1:0:0:0:
429,273,113505,2,0,B|490:311|490:311|393:339,1,100,4|8,1:0|1:0,0:0:0:0:
331,124,113692,1,0,0:0:0:0:
258,102,113786,2,0,B|196:140|196:140|293:168,1,100
447,10,113974,5,4,1:0:0:0:
447,10,114067,1,0,0:0:0:0:
447,10,114161,2,0,B|484:47|484:47|460:148,1,100,4|0,1:0|0:0,0:0:0:0:
357,207,114349,1,8,1:0:0:0:
357,207,114442,1,0,0:0:0:0:
357,207,114536,2,0,B|320:170|320:170|344:69,1,100,2|4,0:2|1:0,0:0:0:0:
275,26,114724,6,0,B|230:32|230:32|224:41|224:41|109:59,1,100
86,9,114911,1,4,1:0:0:0:
86,9,115005,2,0,B|131:15|131:15|137:24|137:24|252:42,1,100,4|8,1:0|1:0,0:0:0:0:
164,128,115192,1,0,0:0:0:0:
48,184,115286,2,0,B|28:158|28:158|131:178,1,100,2|0,0:2|0:0,0:0:0:0:
176,121,115474,6,0,B|203:139|203:139|215:168|215:168|222:224|222:224|248:262|248:262|230:295|230:295|210:378,1,239.999992675781,4|4,1:0|1:0,0:0:0:0:
221,330,115755,1,0,0:0:0:0:
327,284,115849,1,8,1:0:0:0:
327,284,115942,1,0,0:0:0:0:
327,284,116036,2,0,B|374:269|374:269|424:304,1,100,2|4,0:2|1:0,0:0:0:0:
148,370,116224,2,0,B|101:355|101:355|51:390,1,100
9,268,116411,2,0,P|31:294|0:277,1,100,4|4,1:0|1:0,0:0:0:0:
48,184,116599,6,0,P|74:178|94:167,1,50,8|0,1:0|0:0,0:0:0:0:
60,193,116692,6,0,P|86:187|106:176,1,50,2|0,0:2|0:0,0:0:0:0:
72,202,116786,6,0,P|98:196|118:185,1,50,2|0,0:2|0:0,0:0:0:0:
84,211,116880,6,0,P|110:205|130:194,1,50,2|0,0:2|0:0,0:0:0:0:
166,269,116974,6,0,L|199:38,1,135.000000514984,4|0,1:2|0:0,0:0:0:0:
265,180,117161,1,8,3:3:0:0:
265,180,117255,1,8,3:3:0:0:
265,180,117349,6,0,L|321:168,1,50,4|0,3:3|0:0,0:0:0:0:
411,140,117599,6,0,B|402:199|402:199|330:215|330:215|345:72,1,270.000001029968,4|0,1:2|0:0,0:0:0:0:
424,127,117849,6,0,B|415:186|415:186|343:202|343:202|358:59,1,270.000001029968,4|0,1:2|0:0,0:0:0:0:
488,12,118099,6,0,B|492:42|492:42|484:50|484:50|504:47|504:47|494:52|494:52|515:179,1,135.000000514984,4|0,1:2|0:0,0:0:0:0:
232,53,118286,2,0,B|236:83|236:83|228:91|228:91|248:88|248:88|238:93|238:93|259:220,1,135.000000514984,4|0,1:2|0:0,0:0:0:0:
468,303,118474,6,0,B|486:258|486:258|321:294|321:294|362:326,1,270.000001029968,4|2,1:0|0:2,0:0:0:0:
362,326,118849,6,0,L|176:296,1,100,0|0,1:0|3:0,0:0:0:0:
187,283,119036,1,8,0:2:0:0:
187,283,119130,2,0,B|170:316|170:316|179:312|179:312|205:454,1,100,2|0,0:2|1:0,0:0:0:0:
322,218,119317,5,4,3:2:0:0:
301,204,119411,1,0,0:0:0:0:
259,232,119505,1,0,3:0:0:0:
211,195,119599,2,0,B|163:183|163:183|114:222,1,100,8|0,1:2|0:0,0:0:0:0:
39,246,119786,2,0,L|55:120,1,100,6|0,3:2|0:0,0:0:0:0:
187,283,119974,5,4,1:0:0:0:
187,283,120067,1,0,0:0:0:0:
187,283,120161,1,2,3:2:0:0:
243,16,120349,5,0,1:0:0:0:
271,13,120442,1,0,3:0:0:0:
273,33,120536,1,8,0:2:0:0:
245,36,120630,1,2,0:2:0:0:
169,33,120724,5,0,1:0:0:0:
327,99,120911,1,0,3:0:0:0:
327,99,121005,1,0,3:0:0:0:
327,99,121099,2,0,L|443:82,1,100,8|0,1:2|3:0,0:0:0:0:
427,97,121286,2,0,L|311:114,1,100,6|0,3:2|3:0,0:0:0:0:
429,0,121474,6,0,B|393:21|393:21|366:173|366:173|315:208,1,239.999992675781,4|2,1:0|1:2,0:0:0:0:
329,197,121755,1,8,1:2:0:0:
453,131,121849,1,0,1:0:0:0:
453,131,121942,1,0,1:0:0:0:
453,131,122036,2,0,B|496:159|496:159|414:166,1,100,8|2,1:2|1:2,0:0:0:0:
483,235,122224,6,0,L|493:293,6,50,0|0|4|0|0|0|0,1:0|0:0|1:2|0:0|1:0|0:0|1:0,0:0:0:0:
477,251,122599,6,0,L|487:309,6,50,8|0|0|0|6|0|0,1:2|0:0|1:0|0:0|1:2|0:0|1:0,0:0:0:0:
388,301,122974,6,0,B|359:346|359:346|416:123,1,270.000001029968,4|0,1:2|0:0,0:0:0:0:
279,51,123255,2,0,B|250:6|250:6|307:229,1,270.000001029968,4|0,1:2|0:0,0:0:0:0:
174,341,123536,2,0,B|145:386|145:386|202:163,1,270.000001029968,4|0,1:2|0:0,0:0:0:0:
3,34,123817,6,0,P|121:20|116:139,1,270.000001029968,4|0,1:2|0:0,0:0:0:0:
1,189,124099,6,0,P|35:179|-1:198,2,135.000000514984,4|0|0,1:2|0:0|3:0,0:0:0:0:
256,192,124474,5,0,3:0:0:0:
256,192,136099,6,0,L|256:112,1,59.9999981689454,8|0,1:0|0:0,0:0:0:0:
333,217,136474,5,0,3:0:0:0:
333,217,136567,2,0,L|340:154,1,34.9999989318848,0|0,3:0|0:0,0:0:0:0:
340,228,136849,6,0,L|347:165,1,34.9999989318848
413,240,137036,2,0,L|420:177,1,34.9999989318848
486,252,137224,2,0,L|493:189,2,34.9999989318848,2|0|0,0:3|0:0|0:0,0:0:0:0:
442,337,137599,1,2,0:3:0:0:
364,349,137786,1,0,0:0:0:0:
286,361,137974,5,0,3:0:0:0:
286,361,138067,1,0,3:0:0:0:
272,348,138349,6,0,L|265:285,1,34.9999989318848
199,360,138536,2,0,L|192:297,1,34.9999989318848
163,261,138724,6,0,L|156:324,1,34.9999989318848,2|0,0:3|0:0,0:0:0:0:
90,249,138911,2,0,L|83:312,1,34.9999989318848
17,237,139099,1,2,0:3:0:0:
17,237,139192,1,0,0:0:0:0:
17,237,139286,2,0,L|10:300,1,34.9999989318848
43,344,139474,5,0,3:0:0:0:
43,344,139567,1,0,3:0:0:0:
72,164,139849,6,0,P|89:164|109:171,1,34.9999989318848
81,156,140036,2,0,P|98:156|118:163,1,34.9999989318848
228,94,140224,6,0,P|211:94|191:101,1,34.9999989318848,2|0,0:3|0:0,0:0:0:0:
219,86,140411,2,0,P|202:86|182:93,1,34.9999989318848
105,18,140599,6,0,P|122:18|142:25,1,34.9999989318848,2|0,0:3|0:0,0:0:0:0:
148,15,140786,2,0,P|131:10|114:10,1,34.9999989318848
23,83,140974,5,0,3:0:0:0:
14,71,141067,1,0,3:0:0:0:
22,60,141161,1,0,3:0:0:0:
35,64,141255,1,0,3:0:0:0:
36,78,141349,1,0,3:0:0:0:
48,161,141536,1,0,3:0:0:0:
187,77,141724,5,2,0:3:0:0:
112,57,141911,1,0,0:0:0:0:
167,2,142099,1,2,0:3:0:0:
167,2,142474,6,0,L|243:9,1,69.9999978637696,0|0,3:0|0:0,0:0:0:0:
293,229,142849,6,2,L|345:10,1,225.000008583069,0|0,0:0|0:0,0:1:0:0:
411,59,143224,5,2,0:3:0:0:
486,79,143411,1,0,0:0:0:0:
431,134,143599,2,0,L|423:215,1,69.9999978637696,2|0,0:3|0:0,0:0:0:0:
489,265,143974,1,0,3:0:0:0:
489,265,144067,1,0,3:0:0:0:
472,274,144349,6,0,L|480:334,1,34.9999989318848
488,384,144536,1,0,0:0:0:0:
463,269,144724,6,0,L|471:329,1,34.9999989318848,2|0,0:3|0:0,0:0:0:0:
479,379,144911,1,0,0:0:0:0:
402,350,145099,1,2,0:3:0:0:
383,249,145286,6,0,B|347:240|347:240|348:262|348:262|276:281,1,75.0000028610231
311,384,145474,5,0,3:0:0:0:
311,384,145567,1,0,3:0:0:0:
245,314,145849,6,0,L|240:263,1,44.999998626709
232,323,146036,2,0,L|227:272,1,44.999998626709
91,364,146224,6,0,L|96:313,1,50,2|0,0:3|0:0,0:0:0:0:
104,373,146411,2,0,L|109:322,1,50
163,233,146599,6,0,L|156:164,1,55.0000016784668,2|0,0:3|0:0,0:0:0:0:
145,245,146786,2,0,L|138:176,1,55.0000016784668
9,234,146974,5,0,3:0:0:0:
8,257,147067,1,0,3:0:0:0:
22,239,147161,1,0,3:0:0:0:
0,246,147255,1,0,3:0:0:0:
21,253,147349,1,0,3:0:0:0:
64,167,147536,1,0,0:0:0:0:
158,184,147724,1,2,0:3:0:0:
201,98,147911,1,0,0:0:0:0:
265,375,148099,6,0,B|258:336|258:336|266:319|266:319|267:338|267:338|240:370,3,119.999996337891,8|0|0|0,1:0|0:0|0:0|0:0,0:0:0:0:
256,192,148474,6,0,B|283:137|283:137|281:176,1,75.0000028610231,0|0,3:0|0:0,0:0:0:0:
364,259,148661,2,0,B|364:281|364:281|337:227,1,75.0000028610231,2|0,3:2|0:0,0:0:0:0:
388,150,148849,1,8,0:2:0:0:
388,150,148942,2,0,B|442:160|442:160|438:180,1,75.0000028610231,2|0,0:2|3:0,0:0:0:0:
364,259,149130,6,0,L|380:342,1,75.0000028610231,2|0,0:2|3:0,0:0:0:0:
498,269,149317,2,0,L|514:185,1,75.0000028610231,2|8,0:2|0:2,0:0:0:0:
340,242,149505,1,0,3:0:0:0:
340,242,149599,2,0,L|356:325,1,75.0000028610231,2|0,0:2|0:0,0:0:0:0:
438,179,149786,2,0,L|461:62,1,75.0000028610231,8|0,3:2|0:0,0:0:0:0:
259,10,149974,6,0,P|238:45|229:117,1,75.0000028610231,0|0,0:2|0:0,0:0:0:0:
97,122,150161,2,0,P|132:143|204:152,1,75.0000028610231,2|0,3:2|0:0,0:0:0:0:
58,11,150349,6,0,P|156:31|150:247,1,330.000010070801,8|2,0:2|0:2,0:0:0:0:
133,303,150724,1,8,0:2:0:0:
133,303,150817,2,0,L|26:283,2,59.9999981689454,2|0|0,0:2|0:0|3:0,0:0:0:0:
210,335,151099,5,2,0:2:0:0:
215,312,151192,1,0,0:0:0:0:
221,332,151286,5,8,3:2:0:0:
226,309,151380,1,0,0:0:0:0:
291,369,151474,6,0,B|305:339|305:339|500:252,1,220.000006713867,0|2,3:0|3:2,0:0:0:0:
484,266,151849,5,8,0:2:0:0:
484,266,151942,2,0,B|472:201|472:201|448:206,1,85.0000016212464,2|0,0:2|3:0,0:0:0:0:
334,153,152130,6,0,L|217:130,1,85.0000016212464,2|0,0:2|3:0,0:0:0:0:
416,27,152317,2,0,L|533:4,1,85.0000016212464,2|8,0:2|0:2,0:0:0:0:
347,166,152505,1,0,3:0:0:0:
347,166,152599,2,0,L|230:143,1,85.0000016212464,2|0,0:2|0:0,0:0:0:0:
429,40,152786,2,0,L|546:17,1,85.0000016212464,8|0,3:2|0:0,0:0:0:0:
197,87,152974,6,0,B|227:104|227:104|280:313,1,170.000003242493,8|2,3:2|0:2,0:0:0:0:
326,1,153255,2,0,B|296:18|296:18|243:227,1,170.000003242493,8|2,3:2|0:2,0:0:0:0:
107,90,153536,6,0,B|69:122|69:122|228:88,1,170.000003242493,8|0,3:2|0:0,0:0:0:0:
411,177,153817,2,0,B|449:209|449:209|290:175,1,170.000003242493,10|0,3:2|0:0,0:0:0:0:
186,96,154099,1,10,3:2:0:0:
186,96,154192,1,0,0:0:0:0:
186,96,154286,2,0,L|162:213,1,85.0000016212464,8|0,3:2|0:0,0:0:0:0:
46,344,154474,6,0,L|309:312,1,220.000006713867,0|2,1:0|3:2,0:0:0:0:
274,326,154849,5,0,1:0:0:0:
274,326,154942,2,0,B|300:332|300:332|267:221,1,85.0000016212464,2|0,1:2|3:0,0:0:0:0:
301,73,155130,2,0,P|286:112|284:154,1,85.0000016212464,2|0,3:2|1:0,0:0:0:0:
428,96,155317,2,0,P|425:138|410:177,1,85.0000016212464,2|0,1:2|3:0,0:0:0:0:
294,55,155505,1,0,3:0:0:0:
294,55,155599,2,0,P|279:95|276:137,1,85.0000016212464,2|0,1:2|1:0,0:0:0:0:
419,78,155786,2,0,P|417:121|402:160,1,85.0000016212464,0|0,3:0|3:0,0:0:0:0:
287,261,155974,6,0,B|254:252|254:252|334:243,1,85.0000016212464,0|0,1:0|1:0,0:0:0:0:
383,323,156161,2,0,B|392:290|392:290|344:354,1,85.0000016212464,2|0,3:2|3:0,0:0:0:0:
151,256,156349,1,0,1:0:0:0:
162,267,156442,2,0,L|147:158,1,85.0000016212464,2|0,1:2|3:0,0:0:0:0:
72,139,156630,2,0,B|39:147|39:147|103:99,1,85.0000016212464,2|0,3:2|1:0,0:0:0:0:
145,31,156817,2,0,B|166:4|166:4|142:81,1,85.0000016212464,2|0,1:2|3:0,0:0:0:0:
149,161,157005,1,0,3:0:0:0:
149,161,157099,2,0,B|147:194|147:194|121:118,1,85.0000016212464,2|0,1:2|1:0,0:0:0:0:
69,58,157286,2,0,B|50:29|50:29|115:76,1,85.0000016212464,0|0,3:0|3:0,0:0:0:0:
237,150,157474,5,0,1:0:0:0:
226,108,157567,1,0,1:0:0:0:
257,79,157661,1,0,3:0:0:0:
298,90,157755,1,0,3:0:0:0:
290,71,157849,5,0,1:0:0:0:
335,24,157942,1,0,1:0:0:0:
396,42,158036,1,0,3:0:0:0:
413,103,158130,1,0,3:0:0:0:
348,157,158224,6,0,L|360:211,6,42.5000008106232,0|0|0|0|0|0|0,0:0|2:0|0:0|2:0|0:0|2:0|0:0,0:0:0:0:
361,164,158599,6,0,L|373:218,6,42.5000008106232,0|0|0|0|0|0|0,0:0|2:0|0:0|2:0|0:0|2:0|0:0,0:0:0:0:
512,192,158974,5,0,1:0:0:0:
256,192,159349,1,0,1:0:0:0:
0,192,159724,1,0,1:0:0:0:
0,192,159817,1,0,0:0:0:0:
0,192,159911,2,0,L|136:192,1,119.999996337891
334,124,160099,6,0,P|253:287|170:125,1,450.000017166138,0|0,0:0|2:0,0:0:0:0:
252,101,160474,6,0,L|208:475,1,279.999991455078,4|0,1:0|0:0,0:0:0:0:
219,379,160849,5,10,1:1:0:0:
288,358,160942,2,0,P|286:288|259:240,1,119.999996337891,0|0,1:0|0:0,0:0:0:0:
100,69,161130,2,0,P|141:124|192:147,1,119.999996337891,2|4,1:1|0:2,0:0:0:0:
422,192,161317,2,0,P|355:171|301:182,1,119.999996337891,0|0,1:0|0:0,0:0:0:0:
80,259,161505,1,0,1:0:0:0:
88,280,161599,2,0,P|153:257|190:216,1,119.999996337891,8|0,1:1|0:0,0:0:0:0:
305,13,161786,2,0,P|264:69|259:124,1,119.999996337891,0|0,1:0|1:0,0:0:0:0:
349,157,161974,6,0,L|373:279,1,75.0000028610231,4|0,1:0|0:0,0:0:0:0:
401,360,162161,2,0,L|309:275,1,75.0000028610231,0|0,1:0|0:0,0:0:0:0:
248,235,162349,1,10,1:1:0:0:
239,226,162442,2,0,L|362:240,1,75.0000028610231,0|0,1:0|0:0,0:0:0:0:
448,239,162630,2,0,L|339:299,1,75.0000028610231,2|4,1:1|1:2,0:0:0:0:
271,351,162817,2,0,L|323:238,1,75.0000028610231,0|0,1:0|0:0,0:0:0:0:
360,133,163005,1,0,1:0:0:0:
437,140,163099,2,0,B|469:160|469:160|396:163,1,75.0000028610231,2|0,1:3|0:0,0:0:0:0:
280,163,163286,1,0,1:0:0:0:
280,163,163380,1,0,1:0:0:0:
280,163,163474,6,0,B|236:149|236:149|170:15|170:15|261:47,1,239.999992675781,2|0,1:3|0:0,0:0:0:0:
281,9,163849,5,10,1:1:0:0:
212,30,163942,2,0,P|214:100|241:148,1,119.999996337891,0|0,1:0|0:0,0:0:0:0:
400,319,164130,2,0,P|359:264|308:241,1,119.999996337891,2|4,1:1|0:2,0:0:0:0:
78,196,164317,2,0,P|145:217|199:206,1,119.999996337891,0|0,1:0|0:0,0:0:0:0:
420,129,164505,1,0,1:0:0:0:
412,108,164599,2,0,P|347:131|310:172,1,119.999996337891,8|0,1:1|0:0,0:0:0:0:
195,375,164786,2,0,P|236:319|241:264,1,119.999996337891,0|0,1:0|1:0,0:0:0:0:
110,31,164974,6,0,L|134:153,1,75.0000028610231,4|0,1:0|0:0,0:0:0:0:
162,234,165161,2,0,L|70:149,1,75.0000028610231
9,109,165349,1,10,1:1:0:0:
0,100,165442,2,0,L|123:114,1,75.0000028610231,0|0,1:0|0:0,0:0:0:0:
209,113,165630,2,0,L|100:173,1,75.0000028610231,2|4,0:1|1:2,0:0:0:0:
32,225,165817,2,0,L|84:112,1,75.0000028610231,0|0,0:0|1:0,0:0:0:0:
294,128,166005,1,0,0:0:0:0:
294,128,166099,1,2,1:3:0:0:
294,128,166192,2,0,B|323:150|323:150|246:140,1,75.0000028610231,0|0,0:0|1:0,0:0:0:0:
185,15,166380,1,0,0:0:0:0:
261,48,166474,6,0,B|437:64|437:64|404:60|382:26,1,239.999992675781,2|0,1:3|0:0,0:0:0:0:
281,375,166849,5,10,1:1:0:0:
212,354,166942,2,0,P|214:284|241:236,1,119.999996337891,0|0,1:0|0:0,0:0:0:0:
400,65,167130,2,0,P|359:120|308:143,1,119.999996337891,2|4,1:1|0:2,0:0:0:0:
78,188,167317,2,0,P|145:167|199:178,1,119.999996337891,0|0,1:0|0:0,0:0:0:0:
420,255,167505,1,0,1:0:0:0:
412,276,167599,2,0,P|347:253|310:212,1,119.999996337891,8|0,1:1|0:0,0:0:0:0:
195,9,167786,2,0,P|236:65|241:120,1,119.999996337891,0|0,1:0|1:0,0:0:0:0:
119,382,167974,6,0,L|143:260,1,75.0000028610231,4|0,1:0|0:0,0:0:0:0:
171,179,168161,2,0,L|79:264,1,75.0000028610231
18,304,168349,1,10,1:1:0:0:
9,313,168442,2,0,L|132:299,1,75.0000028610231,0|0,1:0|0:0,0:0:0:0:
218,300,168630,2,0,L|109:240,1,75.0000028610231,2|4,1:1|0:2,0:0:0:0:
41,188,168817,2,0,L|93:301,1,75.0000028610231,0|0,1:0|0:0,0:0:0:0:
309,346,169005,1,0,1:0:0:0:
376,294,169099,2,0,B|411:283|411:283|347:279,1,75.0000028610231,2|0,1:3|0:0,0:0:0:0:
226,311,169286,2,0,B|190:321|190:321|254:325,1,75.0000028610231,0|0,1:0|1:0,0:0:0:0:
283,129,169474,6,0,B|474:94|474:94|462:30,1,239.999992675781,2|0,1:3|0:0,0:0:0:0:
301,12,169755,2,0,B|384:26|384:26|321:38,1,119.999996337891,2|8,1:1|1:1,0:0:0:0:
149,75,169942,1,0,1:0:0:0:
149,75,170036,2,0,B|232:60|232:60|169:49,1,119.999996337891,2|0,1:1|0:0,0:0:0:0:
228,276,170224,6,0,B|37:241|37:241|49:177,1,239.999992675781,2|0,1:3|0:0,0:0:0:0:
210,159,170505,2,0,B|126:173|126:173|190:185,1,119.999996337891,2|8,1:1|1:1,0:0:0:0:
362,222,170692,1,0,1:0:0:0:
362,222,170786,2,0,B|278:207|278:207|342:196,1,119.999996337891,2|0,1:1|0:0,0:0:0:0:
309,23,170974,6,0,B|342:39|342:39|366:204,1,119.999996337891,2|0,1:3|0:0,0:0:0:0:
242,366,171161,5,8,1:3:0:0:
267,355,171255,1,8,1:3:0:0:
200,301,171349,5,4,1:3:0:0:
197,329,171442,1,4,0:3:0:0:
280,304,171536,5,0,1:0:0:0:
257,287,171630,1,0,1:0:0:0:
237,324,171724,6,0,B|158:305|158:305|208:254,1,119.999996337891,4|0,1:2|0:0,0:0:0:0:
230,0,171911,2,0,B|239:52|239:52|234:65|234:65|245:119,1,119.999996337891,4|0,1:2|0:0,0:0:0:0:
366,272,172099,2,0,B|426:216|426:216|357:196,1,119.999996337891,4|0,1:2|0:0,0:0:0:0:
163,155,172286,2,0,B|84:173|84:173|134:225,1,119.999996337891,4|0,1:2|0:0,0:0:0:0:
272,208,172474,6,0,B|408:189|408:189|422:158|422:158|541:137,1,239.999992675781,4|2,1:0|0:2,0:0:0:0:
489,146,172849,5,10,1:1:0:0:
489,146,172942,2,0,B|468:124|468:124|519:281,1,119.999996337891,0|2,1:0|0:2,0:0:0:0:
406,351,173130,2,0,B|385:373|385:373|412:287,1,119.999996337891,2|4,1:1|0:2,0:0:0:0:
347,120,173317,2,0,B|319:34|319:34|340:56,1,119.999996337891,0|2,1:0|0:2,0:0:0:0:
257,259,173505,1,0,1:0:0:0:
257,259,173599,2,0,B|229:344|229:344|250:322,1,119.999996337891,8|0,1:1|0:0,0:0:0:0:
165,150,173786,2,0,B|144:128|144:128|171:213,1,119.999996337891,2|0,1:2|1:0,0:0:0:0:
72,192,173974,6,0,B|122:184|122:184|141:198|141:198|186:191,1,119.999996337891,4|0,1:0|0:0,0:0:0:0:
359,110,174161,2,0,B|309:102|309:102|290:116|290:116|244:109,1,119.999996337891,2|0,0:2|0:0,0:0:0:0:
363,0,174349,1,10,1:1:0:0:
422,56,174442,2,0,B|445:83|445:83|424:202,1,119.999996337891,0|2,1:0|0:2,0:0:0:0:
242,20,174630,6,0,B|155:29|155:29|164:102,1,119.999996337891,2|4,1:1|0:2,0:0:0:0:
17,268,174817,2,0,B|103:258|103:258|95:186,1,119.999996337891,0|2,1:0|0:2,0:0:0:0:
43,26,175005,1,0,1:0:0:0:
22,101,175099,2,0,B|19:161|19:161|40:70,1,119.999996337891,2|0,1:3|0:0,0:0:0:0:
250,164,175286,2,0,L|131:147,1,119.999996337891,2|0,1:2|0:0,0:0:0:0:
131,147,175474,6,0,P|344:201|234:359,1,419.999987182618,2|0,1:3|0:0,0:0:0:0:
111,330,175849,5,10,1:1:0:0:
185,315,175942,2,0,B|238:287|238:287|166:298,1,119.999996337891,0|2,1:0|0:2,0:0:0:0:
0,248,176130,2,0,B|44:261|44:261|65:192,1,119.999996337891,2|4,1:1|0:2,0:0:0:0:
189,103,176317,2,0,B|168:33|168:33|111:50,1,119.999996337891,0|2,1:0|0:2,0:0:0:0:
239,289,176505,1,0,1:0:0:0:
239,289,176599,2,0,B|277:316|277:316|320:258,1,119.999996337891,8|0,1:1|0:0,0:0:0:0:
386,123,176786,2,0,B|335:129|335:129|325:140|325:140|272:149,1,119.999996337891,2|0,1:2|1:0,0:0:0:0:
403,223,176974,6,0,B|461:241|461:241|399:229,1,119.999996337891,4|0,1:0|0:0,0:0:0:0:
195,191,177161,2,0,B|137:173|137:173|199:185,1,119.999996337891,2|0,0:2|0:0,0:0:0:0:
333,40,177349,1,10,1:1:0:0:
333,40,177442,2,0,B|425:47|425:47|428:19,1,119.999996337891,0|2,1:0|0:2,0:0:0:0:
427,19,177630,1,2,1:1:0:0:
249,22,177724,6,0,B|233:62|233:62|283:176,1,119.999996337891,4|0,0:2|1:0,0:0:0:0:
351,300,177911,2,0,B|335:260|335:260|365:189,1,119.999996337891,2|0,0:2|1:0,0:0:0:0:
427,132,178099,2,0,L|134:205,1,239.999992675781,2|2,1:3|1:2,0:0:0:0:
194,190,178380,1,0,0:0:0:0:
150,118,178474,6,0,P|132:251|-9:202,1,279.999991455078,2|2,1:3|0:2,0:0:0:0:
23,238,178849,5,10,1:1:0:0:
23,238,178942,2,0,B|44:260|44:260|-7:103,1,119.999996337891,0|2,1:0|0:2,0:0:0:0:
106,33,179130,2,0,B|127:11|127:11|100:97,1,119.999996337891,2|4,1:1|0:2,0:0:0:0:
165,264,179317,2,0,B|193:350|193:350|172:328,1,119.999996337891,0|2,1:0|0:2,0:0:0:0:
255,125,179505,1,0,1:0:0:0:
255,125,179599,2,0,B|283:40|283:40|262:62,1,119.999996337891,8|0,1:1|1:0,0:0:0:0:
347,234,179786,2,0,B|368:256|368:256|341:171,1,119.999996337891,2|0,1:2|0:0,0:0:0:0:
471,12,179974,6,0,B|449:39|449:39|288:-4,1,119.999996337891,4|0,1:0|0:0,0:0:0:0:
161,131,180161,2,0,B|183:158|183:158|344:115,1,119.999996337891,2|0,1:2|0:0,0:0:0:0:
396,104,180349,1,10,1:1:0:0:
472,118,180442,2,0,B|530:132|530:132|471:123,1,119.999996337891,0|2,1:0|0:2,0:0:0:0:
415,306,180630,6,0,B|429:364|429:364|420:305,1,119.999996337891,2|4,1:1|0:2,0:0:0:0:
477,246,180817,2,0,B|433:206|433:206|377:228,1,119.999996337891,0|2,1:0|0:2,0:0:0:0:
410,315,181005,1,0,1:0:0:0:
375,215,181099,2,0,B|431:193|431:193|475:233,1,119.999996337891,2|0,1:3|0:0,0:0:0:0:
303,300,181286,2,0,B|252:294|252:294|242:283|242:283|189:274,1,119.999996337891,2|0,1:2|1:0,0:0:0:0:
105,159,181474,6,0,B|66:154|66:154|29:425,1,239.999992675781,2|2,1:3|0:2,0:0:0:0:
94,26,181755,2,2,B|55:21|55:21|18:292,1,239.999992675781,0|0,1:1|0:1,0:1:0:0:
169,86,182036,2,0,B|227:72|227:72|168:81,1,119.999996337891,2|0,1:1|1:0,0:0:0:0:
407,159,182224,6,0,B|446:154|446:154|483:425,1,239.999992675781,2|2,1:3|0:2,0:0:0:0:
418,26,182505,2,2,B|457:21|457:21|494:292,1,239.999992675781,0|0,1:1|0:1,0:1:0:0:
343,86,182786,2,0,B|285:72|285:72|344:81,1,119.999996337891,2|0,1:1|1:0,0:0:0:0:
256,336,182974,5,2,1:3:0:0:
187,225,183161,5,8,0:3:0:0:
180,196,183255,1,8,1:3:0:0:
332,196,183349,5,4,1:3:0:0:
325,225,183442,1,4,0:3:0:0:
256,192,183536,6,0,L|256:142,1,50,0|0,1:0|3:0,0:0:0:0:
102,54,183724,6,0,B|66:43|48:3|48:3|104:333,1,359.999989013672,4|0,1:2|0:0,0:0:0:0:
26,336,184099,5,4,1:2:0:0:
20,358,184192,1,0,1:0:0:0:
30,346,184286,5,4,1:2:0:0:
24,368,184380,1,0,1:0:0:0:
96,282,184474,6,0,B|283:267|283:267|294:224|294:224|131:273,1,290.000008850098,4|2,1:0|1:2,0:0:0:0:
294,224,184849,5,10,0:1:0:0:
342,158,184942,2,0,B|364:177|371:215|371:215|380:175|329:126,1,125,0|10,1:0|1:2,0:0:0:0:
432,291,185130,2,0,P|477:249|499:191,1,125,2|4,1:1|0:2,0:0:0:0:
278,91,185317,2,0,P|326:228|369:420,1,250,8|0,1:2|1:0,0:0:0:0:
272,352,185599,1,8,1:1:0:0:
272,352,185692,1,0,0:0:0:0:
272,352,185786,2,0,P|228:361|265:336,1,125,10|0,1:2|1:0,0:0:0:0:
66,214,185974,6,0,B|40:214|20:190|20:190|57:211|131:185,1,125,4|0,1:0|0:0,0:0:0:0:
207,45,186161,2,0,B|178:47|150:74|150:74|166:36|236:26,1,125,2|0,1:2|0:0,0:0:0:0:
0,39,186349,1,10,0:1:0:0:
13,12,186442,2,0,P|58:62|77:121,1,125,0|10,1:0|1:2,0:0:0:0:
228,277,186630,6,0,B|263:276|263:276|173:253,1,125,2|4,1:1|0:2,0:0:0:0:
31,360,186817,2,0,B|118:337|118:337|83:336,1,125,8|2,1:2|1:2,0:0:0:0:
176,254,187005,1,0,1:0:0:0:
111,171,187099,2,0,B|93:255|93:255|18:239,1,125,2|0,1:3|0:0,0:0:0:0:
250,377,187286,2,0,B|334:359|334:359|318:284,1,125,10|0,1:2|0:0,0:0:0:0:
490,51,187474,6,0,B|477:157|477:157|430:206|430:206|410:331,1,290.000008850098,2|0,1:3|0:0,0:0:0:0:
411,319,187849,5,10,1:1:0:0:
466,252,187942,2,0,L|436:131,1,125,0|10,1:0|1:2,0:0:0:0:
245,85,188130,2,0,B|274:87|302:114|302:114|286:76|216:66,1,125,2|4,1:1|0:2,0:0:0:0:
307,255,188317,2,0,B|299:227|315:192|315:192|285:220|299:289,1,125,8|2,1:2|0:2,0:0:0:0:
512,119,188505,1,0,1:0:0:0:
436,130,188599,2,0,B|375:144|375:144|437:135,1,125,8|0,1:1|0:0,0:0:0:0:
232,171,188786,2,0,B|170:180|170:180|230:165,1,125,10|0,1:2|1:0,0:0:0:0:
368,64,188974,5,4,1:0:0:0:
453,243,189161,2,0,B|411:288|411:288|434:347,1,125,2|8,1:2|0:2,0:0:0:0:
506,306,189349,1,10,1:1:0:0:
417,337,189442,2,0,B|394:278|394:278|435:232,1,125,0|0,1:0|0:0,0:0:0:0:
268,354,189630,1,2,0:1:0:0:
305,282,189724,6,0,B|323:266|323:266|222:276,1,125,4|8,1:2|0:2,0:0:0:0:
316,261,189911,2,0,B|333:244|333:244|232:254,1,125,2|0,1:2|0:0,0:0:0:0:
105,197,190099,2,0,B|136:376|136:376|125:333|56:286,1,250,2|0,1:3|0:0,0:0:0:0:
98,319,190380,1,0,0:0:0:0:
4,123,190474,6,0,B|39:115|39:115|197:264|197:264|250:250,1,290.000008850098,2|2,1:3|1:2,0:0:0:0:
183,188,190849,5,10,0:1:0:0:
232,254,190942,2,0,B|254:235|261:197|261:197|270:237|219:286,1,125,0|10,1:0|1:2,0:0:0:0:
322,121,191130,2,0,P|367:163|389:221,1,125,2|4,1:1|0:2,0:0:0:0:
322,293,191317,2,0,P|370:156|413:-36,1,250,8|0,1:2|1:0,0:0:0:0:
469,14,191599,1,8,1:1:0:0:
469,14,191692,1,0,0:0:0:0:
469,14,191786,2,0,P|513:5|476:30,1,125,10|0,1:2|1:0,0:0:0:0:
144,185,191974,6,0,B|144:159|168:139|168:139|147:176|173:250,1,125,4|0,1:0|0:0,0:0:0:0:
313,326,192161,2,0,B|311:297|284:269|284:269|322:285|332:355,1,125,2|0,1:2|0:0,0:0:0:0:
346,132,192349,1,10,0:1:0:0:
346,132,192442,2,0,P|296:177|237:196,1,125,0|10,1:0|1:2,0:0:0:0:
28,145,192630,6,0,B|-7:144|-7:144|83:121,1,125,2|4,1:1|0:2,0:0:0:0:
216,319,192817,2,0,B|129:296|129:296|164:295,1,125,8|2,1:2|1:2,0:0:0:0:
271,72,193005,1,0,1:0:0:0:
271,72,193099,2,0,B|187:90|187:90|203:165,1,125,2|0,1:3|0:0,0:0:0:0:
226,239,193286,2,0,B|310:221|310:221|294:146,1,125,10|0,1:2|0:0,0:0:0:0:
209,28,193474,6,0,B|3:3|3:3|88:87,1,250,2|0,1:3|0:0,0:0:0:0:
304,163,193849,6,0,B|421:146|421:146|427:155|427:155|512:144|512:144|478:168,1,250,4|0,1:2|0:0,0:0:0:0:
205,2,194224,6,0,P|198:188|125:359,1,375,4|0,1:2|1:0,0:0:0:0:
307,382,194599,2,0,P|313:195|386:24,1,375,4|0,1:2|0:0,0:0:0:0:
468,80,194974,6,0,B|457:95|430:96|430:96|478:93|520:116,1,125,4|0,1:2|0:0,0:0:0:0:
512,19,195161,1,0,0:0:0:0:
251,194,195349,6,0,B|240:209|213:210|213:210|261:207|303:230,1,125,4|0,1:2|0:0,0:0:0:0:
295,133,195536,1,0,0:0:0:0:
38,339,195724,6,0,B|27:354|1:355|1:355|48:352|90:375,1,125,4|0,1:2|0:0,0:0:0:0:
82,278,195911,1,0,3:0:0:0:
287,377,196099,6,0,L|225:7,1,375,2|0,1:0|0:0,0:0:0:0:
316,42,196474,5,4,1:0:0:0:
463,154,196661,5,2,0:2:0:0:
463,154,196755,2,0,B|416:143|416:143|480:218,1,100,8|0,0:2|1:0,0:0:0:0:
492,282,196942,1,0,3:0:0:0:
492,282,197036,1,8,0:2:0:0:
417,260,197130,2,0,B|370:249|370:249|434:324,1,100,2|0,0:2|1:0,0:0:0:0:
301,351,197317,2,0,B|269:276|269:276|288:258|288:258|316:145,1,200,4|0,3:2|3:0,0:0:0:0:
282,95,197599,1,8,1:2:0:0:
282,95,197692,1,0,0:0:0:0:
282,95,197786,2,0,L|313:241,1,100,6|0,3:2|0:0,0:0:0:0:
169,312,197974,6,0,B|204:319|204:319|133:340,1,100,4|0,1:0|3:0,0:0:0:0:
66,226,198161,2,0,B|54:191|54:191|108:243,1,100,2|8,3:2|3:2,0:0:0:0:
44,358,198349,2,0,B|20:385|20:385|37:312,1,100,0|0,1:0|3:0,0:0:0:0:
282,95,198536,5,8,0:2:0:0:
207,73,198630,2,0,B|160:62|160:62|224:137,1,100,2|0,0:2|1:0,0:0:0:0:
236,206,198817,1,4,3:2:0:0:
236,206,198911,2,0,B|189:195|189:195|253:270,1,100,0|0,0:0|3:0,0:0:0:0:
28,152,199099,5,8,1:2:0:0:
1,109,199192,1,2,0:2:0:0:
33,71,199286,1,6,3:2:0:0:
80,90,199380,1,2,0:2:0:0:
76,139,199474,6,0,B|93:307|93:307|99:316|99:316|90:310|90:310|31:317,1,250,4|2,1:0|0:2,0:0:0:0:
180,317,199849,5,0,1:0:0:0:
187,348,199942,1,0,3:0:0:0:
163,370,200036,1,8,0:2:0:0:
99,316,200130,2,0,B|52:327|52:327|116:252,1,100,2|0,0:2|1:0,0:0:0:0:
190,192,200317,2,0,B|143:203|143:203|207:128,1,100,4|0,3:2|0:0,0:0:0:0:
111,95,200505,1,0,3:0:0:0:
111,95,200599,2,0,B|41:104|41:104|45:139,1,100,8|0,1:2|0:0,0:0:0:0:
266,283,200786,1,6,3:2:0:0:
251,279,200880,1,0,0:0:0:0:
277,207,200974,6,0,L|458:189,1,125,4|0,1:2|0:0,0:0:0:0:
459,76,201161,5,8,0:3:0:0:
506,113,201255,1,8,0:3:0:0:
451,136,201349,1,4,0:3:0:0:
472,84,201442,5,4,0:3:0:0:
495,117,201536,1,0,3:0:0:0:
455,122,201630,1,0,3:0:0:0:
372,70,201724,6,0,B|327:56|327:56|321:45|321:45|197:5|197:5|228:20|242:69,1,250,4|0,1:2|0:0,0:0:0:0:
235,49,202005,1,0,3:0:0:0:
148,220,202099,6,0,B|325:164|325:164|268:214,1,250,4|0,1:2|3:0,0:0:0:0:
276,206,202380,1,0,3:0:0:0:
114,99,202474,6,0,B|58:82|58:82|37:116|37:116|61:314,1,290.000008850098,4|2,1:0|0:2,0:0:0:0:
60,306,202849,5,8,1:0:0:0:
130,363,202942,1,0,3:0:0:0:
154,341,203036,1,8,0:2:0:0:
147,310,203130,2,0,B|194:299|194:299|130:374,1,100,2|8,0:2|1:0,0:0:0:0:
385,356,203317,2,0,B|432:345|432:345|368:420,1,100,4|0,3:2|0:0,0:0:0:0:
329,187,203505,1,0,3:0:0:0:
329,187,203599,2,0,B|322:229|322:229|314:235|314:235|307:281,1,100,8|0,1:1|0:0,0:0:0:0:
269,384,203786,2,0,B|276:342|276:342|284:336|284:336|291:290,1,100,6|0,3:2|0:0,0:0:0:0:
395,147,203974,6,0,B|431:140|431:140|448:149|448:149|458:163|458:163|465:161|465:161|515:169,2,100,4|0|2,1:0|3:0|3:2,0:0:0:0:
162,122,204349,5,8,1:0:0:0:
193,129,204442,1,0,3:0:0:0:
215,105,204536,1,8,0:2:0:0:
152,17,204630,2,0,B|199:6|199:6|135:81,1,100,2|8,0:2|1:0,0:0:0:0:
67,249,204817,2,0,B|114:238|114:238|50:313,1,100,4|0,3:2|0:0,0:0:0:0:
282,208,205005,1,0,3:0:0:0:
329,279,205099,2,0,B|342:326|342:326|348:243,1,100,8|0,1:1|0:0,0:0:0:0:
316,118,205286,2,0,B|302:73|302:73|297:156,1,100,6|0,3:2|0:0,0:0:0:0:
462,361,205474,5,4,1:0:0:0:
438,366,205567,1,0,0:0:0:0:
434,342,205661,1,2,0:2:0:0:
457,338,205755,1,8,0:2:0:0:
463,331,205849,5,8,1:0:0:0:
416,316,205942,1,0,3:0:0:0:
433,271,206036,1,8,0:0:0:0:
477,287,206130,1,2,0:2:0:0:
483,211,206224,6,0,L|465:118,6,59.9999981689454,8|0|4|0|8|0|0,1:0|0:0|3:2|0:0|1:0|0:0|3:0,0:0:0:0:
489,195,206599,2,0,L|471:102,6,59.9999981689454,8|0|0|0|6|0|0,1:1|0:0|0:0|0:0|3:2|0:0|0:0,0:0:0:0:
374,194,206974,5,4,1:2:0:0:
374,194,207349,5,2,0:2:0:0:
371,209,207442,1,2,0:2:0:0:
296,193,207536,5,2,0:2:0:0:
299,178,207630,1,2,0:2:0:0:
219,188,207724,6,0,B|208:200|208:200|143:186,1,75.0000028610231,4|0,0:2|0:0,0:0:0:0:
151,188,208005,6,0,B|140:200|140:200|75:186,1,75.0000028610231,4|0,0:2|0:0,0:0:0:0:
83,188,208286,6,0,B|72:200|72:200|7:186,1,75.0000028610231,4|0,0:2|0:0,0:0:0:0:
142,78,208474,6,0,L|104:396,1,239.999992675781,4|0,1:0|0:0,0:0:0:0:
0,262,208849,1,0,1:0:0:0:
200,279,209036,6,0,B|248:293|248:293|167:283,1,100,2|0,0:1|0:0,0:0:0:0:
307,236,209224,1,0,1:0:0:0:
307,236,209317,2,0,B|340:272|340:272|322:319,1,100,2|0,3:1|0:0,0:0:0:0:
339,108,209505,1,2,3:1:0:0:
339,108,209599,2,0,B|386:92|386:92|393:43,1,100,0|0,1:0|0:0,0:0:0:0:
494,213,209786,2,0,L|385:189,1,100,2|0,3:2|0:0,0:0:0:0:
190,220,209974,6,0,B|142:246|142:246|120:120|120:120|176:130,1,239.999992675781,4|2,1:0|0:2,0:0:0:0:
176,130,210255,1,2,0:1:0:0:
130,45,210349,2,0,B|87:37|87:37|76:41|76:41|32:32,1,100,0|0,1:0|3:0,0:0:0:0:
265,0,210536,2,0,B|308:8|308:8|319:4|319:4|363:13,1,100,2|0,0:1|0:0,0:0:0:0:
339,196,210724,1,0,1:0:0:0:
355,206,210817,2,0,L|329:52,1,100,2|0,3:1|0:0,0:0:0:0:
458,102,211005,1,2,3:1:0:0:
442,92,211099,2,0,L|468:246,1,100,0|0,1:0|0:0,0:0:0:0:
326,286,211286,1,2,3:1:0:0:
326,286,211380,1,0,0:0:0:0:
259,231,211474,6,0,B|175:218|175:218|95:388|95:388|172:332,1,359.999989013672,4|0,1:0|0:0,0:0:0:0:
165,336,211849,1,0,1:0:0:0:
117,261,211942,1,0,3:0:0:0:
117,261,212036,2,0,B|99:188|99:188|45:199,1,100,2|0,0:1|0:0,0:0:0:0:
136,58,212224,5,0,1:0:0:0:
187,116,212317,2,0,B|262:122|262:122|218:91,1,100,2|0,3:1|0:0,0:0:0:0:
130,67,212505,5,2,3:1:0:0:
181,125,212599,2,0,B|256:131|256:131|212:100,1,100,0|0,1:0|0:0,0:0:0:0:
277,21,212786,1,2,3:2:0:0:
21,3,212974,6,0,L|56:220,1,125,4|0,1:2|0:0,0:0:0:0:
78,210,213161,5,8,0:3:0:0:
120,223,213255,1,8,0:3:0:0:
198,244,213349,5,4,0:3:0:0:
220,223,213442,1,4,0:3:0:0:
285,175,213536,5,0,3:0:0:0:
280,157,213630,1,0,3:0:0:0:
363,194,213724,6,0,B|352:239|352:239|359:250|359:250|331:378|331:378|334:343|298:307,1,250,4|0,1:2|0:0,0:0:0:0:
312,322,214005,1,0,3:0:0:0:
376,118,214099,6,0,B|471:307|471:307|410:273,1,250,4|0,1:2|3:0,0:0:0:0:
438,289,214380,1,0,3:0:0:0:
285,175,214474,6,0,B|220:119|224:51|224:51|208:118|124:150,1,290.000008850098,4|0,1:0|0:0,0:0:0:0:
133,158,214849,5,0,1:0:0:0:
133,158,214942,1,0,3:0:0:0:
133,158,215036,2,0,L|118:256,1,100,2|0,0:1|0:0,0:0:0:0:
186,308,215224,5,0,1:0:0:0:
222,245,215317,2,0,B|258:210|258:210|207:287,1,100,2|0,3:1|0:0,0:0:0:0:
120,64,215505,2,0,B|75:73|75:73|66:69|66:69|23:77,1,100,2|0,3:1|1:0,0:0:0:0:
42,292,215692,1,0,0:0:0:0:
7,228,215786,2,0,B|-5:179|-5:179|36:262,1,100,2|0,3:2|0:0,0:0:0:0:
105,358,215974,6,0,B|157:370|157:370|274:309|274:309|231:389,1,250,4|2,1:0|0:2,0:0:0:0:
243,365,216255,1,2,0:1:0:0:
222,245,216349,2,0,B|145:226|145:226|136:266,1,100,0|0,1:0|0:0,0:0:0:0:
325,199,216536,2,0,B|347:240|347:240|359:242|359:242|349:335,1,100,2|2,0:1|0:2,0:0:0:0:
509,360,216724,5,0,1:0:0:0:
433,328,216817,2,0,L|447:197,1,100,2|0,3:1|0:0,0:0:0:0:
501,354,217005,5,2,3:1:0:0:
425,322,217099,2,0,L|439:191,1,100,0|0,1:0|0:0,0:0:0:0:
453,39,217286,1,2,3:1:0:0:
453,39,217380,1,0,0:0:0:0:
496,106,217474,6,0,B|458:117|458:117|319:73|319:73|345:67|345:67|347:70|347:70|379:65,1,250,4|2,1:0|0:2,0:0:0:0:
249,265,217849,1,0,1:0:0:0:
271,271,217942,1,0,3:0:0:0:
254,287,218036,1,2,0:1:0:0:
176,193,218224,5,0,1:0:0:0:
170,178,218317,2,0,B|140:196|140:196|150:290,1,100,2|0,3:1|0:0,0:0:0:0:
336,99,218505,1,2,3:1:0:0:
342,84,218598,2,0,B|372:102|372:102|362:168|362:168|367:177|367:177|354:266,1,200,0|0,1:0|0:0,0:0:0:0:
354,264,218880,1,0,0:0:0:0:
256,128,218974,5,4,1:0:0:0:
256,256,220099,5,2,0:2:0:0:
256,256,220192,5,2,0:2:0:0:
256,256,220286,5,2,0:2:0:0:
256,256,220380,5,2,0:2:0:0:
187,324,220474,6,0,P|148:243|406:235,1,435.000013275147,4|0,1:0|0:0,0:0:0:0:
454,189,220849,5,0,1:0:0:0:
487,180,220942,1,0,3:0:0:0:
462,156,221036,1,0,0:0:0:0:
385,160,221130,2,0,P|359:203|360:287,1,100,2|0,0:3|1:0,0:0:0:0:
352,380,221317,2,0,P|376:335|449:294,1,100,4|0,3:2|0:0,0:0:0:0:
340,89,221505,1,0,3:0:0:0:
340,89,221599,2,0,P|297:115|213:114,1,100,2|0,1:3|0:0,0:0:0:0:
277,305,221786,2,0,P|251:262|252:178,1,100,6|0,3:2|0:0,0:0:0:0:
270,25,221974,6,0,B|129:1|129:1|83:133,1,250,4|2,1:0|3:2,0:0:0:0:
98,107,222349,5,0,1:0:0:0:
98,107,222442,2,0,L|112:205,1,100,0|0,3:0|0:0,0:0:0:0:
84,340,222630,2,0,P|127:314|211:315,1,100,2|0,0:3|1:0,0:0:0:0:
229,232,222817,2,0,P|186:206|102:207,1,100,4|0,3:2|0:0,0:0:0:0:
13,295,223005,1,0,3:0:0:0:
13,295,223099,2,0,P|39:252|38:168,1,100,2|0,1:3|0:0,0:0:0:0:
304,307,223286,2,0,P|259:331|218:404,1,100,6|0,3:2|0:0,0:0:0:0:
138,200,223474,6,0,L|428:163,1,250,4|2,1:0|0:2,0:0:0:0:
385,168,223849,5,0,1:0:0:0:
447,110,223942,1,0,3:0:0:0:
406,65,224036,1,0,0:0:0:0:
375,81,224130,2,0,P|330:66|285:-1,1,100,2|0,0:3|1:0,0:0:0:0:
121,191,224317,2,0,P|167:184|223:124,1,100,4|0,3:2|0:0,0:0:0:0:
370,263,224505,1,0,3:0:0:0:
370,263,224599,2,0,P|323:264|257:215,1,100,2|0,1:3|0:0,0:0:0:0:
149,323,224786,2,0,P|194:332|267:295,1,100,6|0,3:2|0:0,0:0:0:0:
490,176,224974,6,0,B|484:231|484:231|474:244|474:244|468:296,1,125,4|0,1:2|0:0,0:0:0:0:
254,236,225161,5,8,0:3:0:0:
229,225,225255,1,8,0:3:0:0:
216,174,225349,5,4,0:3:0:0:
239,157,225442,1,4,0:3:0:0:
296,171,225536,5,0,3:0:0:0:
299,199,225630,1,0,3:0:0:0:
259,193,225724,6,0,B|44:155|44:155|24:71|24:71|154:90,1,375,4|0,1:2|0:0,0:0:0:0:
166,35,226099,5,0,3:0:0:0:
168,47,226192,1,0,3:0:0:0:
170,59,226286,1,0,3:0:0:0:
172,71,226380,1,0,3:0:0:0:
93,81,226474,6,0,B|99:136|99:136|109:149|109:149|115:201,1,125,4|0,1:0|0:0,0:0:0:0:
270,126,226661,1,2,0:2:0:0:
51,252,226849,5,0,1:0:0:0:
51,252,226942,1,0,3:0:0:0:
51,252,227036,1,0,0:0:0:0:
51,252,227130,2,0,B|4:272|4:272|69:275,1,100,2|0,0:3|1:0,0:0:0:0:
192,247,227317,2,0,B|239:227|239:227|174:224,1,100,4|0,3:2|0:0,0:0:0:0:
97,348,227505,1,0,3:0:0:0:
97,348,227599,2,0,B|52:357|52:357|43:353|43:353|0:361,1,100,2|0,1:3|0:0,0:0:0:0:
150,151,227786,2,0,B|195:142|195:142|204:146|204:146|247:138,1,100,6|0,3:2|0:0,0:0:0:0:
316,266,227974,6,0,L|355:18,1,250,4|2,1:0|3:2,0:0:0:0:
271,0,228349,5,0,1:0:0:0:
271,0,228442,1,0,3:0:0:0:
271,0,228536,1,0,0:0:0:0:
355,20,228630,2,0,B|398:28|398:28|407:24|407:24|452:33,1,100,2|0,0:3|1:0,0:0:0:0:
209,74,228817,2,0,B|166:66|166:66|157:70|157:70|112:61,1,100,4|0,3:2|0:0,0:0:0:0:
271,0,229005,1,0,3:0:0:0:
275,5,229099,2,0,L|288:122,1,100,2|0,1:3|0:0,0:0:0:0:
286,183,229286,2,0,B|306:230|306:230|309:165,1,100,6|0,3:2|0:0,0:0:0:0:
117,174,229474,6,0,B|212:154|212:154|203:182|203:182|205:202|205:202|178:338,1,250,4|2,1:0|0:2,0:0:0:0:
24,93,229849,5,0,1:0:0:0:
0,72,229942,1,0,3:0:0:0:
12,63,230036,1,0,0:0:0:0:
24,63,230130,6,0,P|56:53|26:71,1,100,2|0,0:3|1:0,0:0:0:0:
147,0,230317,2,0,P|166:27|140:4,1,100,4|0,3:2|0:0,0:0:0:0:
46,200,230505,1,0,3:0:0:0:
46,200,230599,2,0,P|46:166|54:200,1,100,2|0,1:3|0:0,0:0:0:0:
243,97,230786,2,0,P|222:123|236:91,1,100,6|0,3:2|0:0,0:0:0:0:
131,125,230974,6,0,B|168:229|168:229|188:169,1,145.000004425049,4|0,1:2|0:0,0:0:0:0:
319,192,231161,5,8,0:3:0:0:
366,155,231255,1,8,0:3:0:0:
311,132,231349,1,4,0:3:0:0:
332,184,231442,5,4,0:3:0:0:
355,151,231536,1,0,3:0:0:0:
315,146,231630,1,0,3:0:0:0:
393,231,231724,6,0,B|498:205|498:205|442:161,1,145.000004425049,4|0,1:2|0:0,0:0:0:0:
243,383,231911,2,0,B|138:357|138:357|194:313,1,145.000004425049,4|0,1:2|0:0,0:0:0:0:
283,65,232099,2,0,L|325:366,1,290.000008850098,4|0,1:2|0:0,0:0:0:0:
323,352,232380,1,0,0:0:0:0:
183,220,232474,6,0,P|161:211|132:210,2,44.999998626709,4|0|0,1:2|0:0|0:0,0:0:0:0:
183,220,233224,6,0,B|218:22|218:22|158:121,1,270.000001029968,4|0,1:2|0:0,0:0:0:0:
159,199,233505,6,0,B|246:380|246:380|237:264,1,270.000001029968,4|0,1:2|0:0,0:0:0:0:
190,201,233786,6,0,B|12:105|12:105|88:194,1,270.000001029968,4|0,1:2|0:0,0:0:0:0:
163,216,234067,6,0,B|362:188|362:188|248:161,1,270.000001029968,4|0,1:2|0:0,0:0:0:0:
175,188,234349,6,0,B|29:327|29:327|137:282,1,270.000001029968,4|0,1:2|0:0,0:0:0:0:
295,173,234630,6,0,B|345:184|345:184|355:200|355:200|403:183|403:183|470:284|470:284|443:277,1,270.000001029968,4|0,1:2|0:0,0:0:0:0:
434,384,234911,6,0,B|382:371|382:371|372:355|372:355|324:372|324:372|257:271|257:271|284:278,1,270.000001029968,4|0,1:2|0:0,0:0:0:0:
365,278,235192,5,4,1:2:0:0:
