osu file format v14

[General]
AudioFilename: audio.ogg
AudioLeadIn: 0
PreviewTime: 158984
Countdown: 0
SampleSet: Soft
StackLeniency: 0.2
Mode: 0
LetterboxInBreaks: 0
WidescreenStoryboard: 1

[Editor]
Bookmarks: 13484,25484,37484,49484,64484,76484,88484,100484,112484,124484,136484,148484,160484,172484,184484,196484,208484,220484
DistanceSpacing: 1
BeatDivisor: 4
GridSize: 8
TimelineZoom: 3.299999

[Metadata]
Title:ENERGY SYNERGY MATRIX (Extended)
TitleUnicode:ENERGY SYNERGY MATRIX (Extended)
Artist:Tanchiky
ArtistUnicode:Tanchiky
Creator:Wispy
Version:ESM COLLAB
Source:BOFU2017 - LEGENDA EST A MYTH -
Tags:cytusine rlc captin1 winber1 firiiu featured artist fa mpg mg mappers' guild electronic instrumental groundbreaking compilation album hitech hi-tech esm THE BMS OF FIGHTERS ULTIMATE
BeatmapID:4385157
BeatmapSetID:2091981

[Difficulty]
HPDrainRate:5
CircleSize:4.3
OverallDifficulty:9.1
ApproachRate:9.6
SliderMultiplier:1.7
SliderTickRate:1

[Events]
//Background and Video events
0,0,"invertedgungacollabing.jpg",0,0
//Break Periods
2,129174,134465
//Storyboard Layer 0 (Background)
//Storyboard Layer 1 (Fail)
//Storyboard Layer 2 (Pass)
//Storyboard Layer 3 (Foreground)
//Storyboard Layer 4 (Overlay)
//Storyboard Sound Samples

[TimingPoints]
-26,375,4,2,1,60,1,0
1099,-57.1428571428571,4,2,1,60,0,0
2224,-100,4,2,1,60,0,0
2786,-57.1428571428571,4,2,1,60,0,0
3724,-100,4,2,1,60,0,0
4474,-57.1428571428571,4,2,1,60,0,0
6161,-100,4,2,1,60,0,0
6724,-133.333333333333,4,2,1,60,0,0
7474,-57.1428571428571,4,2,1,60,0,0
12724,-33.3333333333333,4,2,1,60,0,0
14130,-50,4,2,1,60,0,0
15349,-100,4,2,1,60,0,0
15583,-33.3333333333333,4,2,1,60,0,0
15911,-66.6666666666667,4,2,1,60,0,0
16099,-50,4,2,1,60,0,0
16474,-33.3333333333333,4,2,1,60,0,0
16849,-100,4,2,1,60,0,0
17130,-40,4,2,1,60,0,0
17317,-66.6666666666667,4,2,1,60,0,0
17786,-33.3333333333333,4,2,1,60,0,0
17974,-66.6666666666667,4,2,1,60,0,0
19474,-33.3333333333333,4,2,1,60,0,0
20130,-50,4,2,1,60,0,0
21630,-33.3333333333333,4,2,1,60,0,0
21911,-66.6666666666667,4,2,1,60,0,0
22099,-50,4,2,1,60,0,0
22474,-33.3333333333333,4,2,1,60,0,0
22849,-50,4,2,1,60,0,0
23130,-40,4,2,1,60,0,0
23317,-66.6666666666667,4,2,1,60,0,0
23599,-33.3333333333333,4,2,1,60,0,0
23974,-66.6666666666667,4,2,1,60,0,0
25474,-33.3333333333333,4,2,1,60,0,0
25942,-50,4,2,1,60,0,0
26786,-100,4,2,1,60,0,0
26974,-50,4,2,1,60,0,0
28099,-66.6666666666667,4,2,1,60,0,0
28474,-40,4,2,1,60,0,0
28849,-66.6666666666667,4,2,1,60,0,0
29036,-50,4,2,1,60,0,0
29974,-33.3333333333333,4,2,1,60,0,0
30724,-50,4,2,1,60,0,0
31099,-33.3333333333333,4,2,1,60,0,0
31849,-50,4,2,1,60,0,0
34099,-66.6666666666667,4,2,1,60,0,0
34474,-33.3333333333333,4,2,1,60,0,0
34849,-66.6666666666667,4,2,1,60,0,0
35036,-50,4,2,1,60,0,0
35599,-40,4,2,1,60,0,0
35786,-100,4,2,1,60,0,0
35974,-33.3333333333333,4,2,1,60,0,0
36161,-33.3333333333333,4,2,1,30,0,0
37099,-33.3333333333333,4,2,1,45,0,0
37474,-33.3333333333333,4,2,1,60,0,0
38130,-50,4,2,1,60,0,0
38599,-66.6666666666667,4,2,1,60,0,0
38786,-100,4,2,1,60,0,0
38974,-66.6666666666667,4,2,1,60,0,0
39630,-50,4,2,1,60,0,0
40099,-66.6666666666667,4,2,1,60,0,0
40474,-50,4,2,1,60,0,0
41599,-66.6666666666667,4,2,1,60,0,0
41786,-100,4,2,1,60,0,0
41974,-33.3333333333333,4,2,1,60,0,0
43849,-50,4,2,1,60,0,0
44130,-66.6666666666667,4,2,1,60,0,0
44974,-33.3333333333333,4,2,1,60,0,0
45349,-50,4,2,1,60,0,0
45630,-66.6666666666667,4,2,1,60,0,0
46474,-33.3333333333333,4,2,1,60,0,0
46849,-50,4,2,1,60,0,0
47130,-66.6666666666667,4,2,1,60,0,0
47599,-44.4444444444445,4,2,1,60,0,0
47974,-33.3333333333333,4,2,1,60,0,0
49099,-50,4,2,1,60,0,0
49474,-50,4,2,1,60,0,0
49849,-33.3333333333333,4,2,1,60,0,0
50130,-50,4,2,1,60,0,0
51349,-33.3333333333333,4,2,1,60,0,0
51630,-50,4,2,1,60,0,0
51911,-100,4,2,1,60,0,0
52099,-50,4,2,1,60,0,0
52849,-33.3333333333333,4,2,1,60,0,0
53130,-50,4,2,1,60,0,0
53974,-40,4,2,1,60,0,0
54349,-100,4,2,1,60,0,0
54724,-40,4,2,1,60,0,0
55474,-50,4,2,1,60,0,0
56130,-100,4,2,1,60,0,0
56974,-40,4,2,1,60,0,0
57630,-50,4,2,1,60,0,0
58099,-66.6666666666667,4,2,1,60,0,0
58474,-100,4,2,1,60,0,0
58849,-50,4,2,1,60,0,0
59130,-40,4,2,1,60,0,0
59317,-50,4,2,1,60,0,0
59599,-66.6666666666667,4,2,1,60,0,0
61849,-50,4,2,1,60,0,0
62224,-33.3333333333333,4,2,1,60,0,0
63724,-100,4,2,1,60,0,0
64474,375,4,2,1,60,1,0
64474,-40,4,2,1,60,0,0
65224,-50,4,2,1,60,0,0
65974,-40,4,2,1,60,0,0
67099,-50,4,2,1,60,0,0
67286,-33.3333333333333,4,2,1,60,0,0
67474,-40,4,2,1,60,0,0
70099,-33.3333333333333,4,2,1,60,0,0
70474,-40,4,2,1,60,0,0
73099,-50,4,2,1,60,0,0
73661,-100,4,2,1,60,0,0
74974,-22.2222222222222,4,2,1,60,0,0
75349,-25,4,2,1,60,0,0
76099,-33.3333333333333,4,2,1,60,0,0
76474,-100,4,2,2,60,0,0
76849,-50,4,2,2,60,0,0
77224,-100,4,2,2,60,0,0
77599,-33.3333333333333,4,2,2,60,0,0
77974,-100,4,2,2,60,0,0
78349,-50,4,2,2,60,0,0
78536,-100,4,2,2,60,0,0
79099,-33.3333333333333,4,2,2,60,0,0
79474,-100,4,2,2,60,0,0
82099,-33.3333333333333,4,2,2,60,0,0
82474,-100,4,2,2,60,0,0
83599,-33.3333333333333,4,2,2,60,0,0
83974,-66.6666666666667,4,2,2,60,0,0
85099,-33.3333333333333,4,2,2,60,0,0
85474,-50,4,2,2,60,0,0
86224,-40,4,2,2,60,0,0
86974,-36.3636363636364,4,2,2,60,0,0
88099,-33.3333333333333,4,2,1,60,0,0
88474,-50,4,2,2,60,0,0
90161,-33.3333333333333,4,2,2,60,0,0
90536,-50,4,2,2,60,0,0
92974,-33.3333333333333,4,2,2,60,0,0
94474,-40,4,2,2,60,0,0
94567,-40,4,1,1,60,0,0
95505,-66.6666666666667,4,1,1,60,0,0
95974,-28.5714285714286,4,1,1,60,0,0
96161,-40,4,1,1,60,0,0
97005,-66.6666666666667,4,1,1,60,0,0
97474,-50,4,1,1,60,0,0
98974,-66.6666666666667,4,1,1,60,0,0
99724,-133.333333333333,4,2,1,60,0,0
99974,-33.3333333333333,4,2,1,60,0,0
100224,-28.5714285714286,4,2,1,60,0,0
100474,-33.3333333333333,4,2,1,60,0,0
100849,-50,4,2,1,60,0,0
101130,-33.3333333333333,4,2,1,60,0,0
101974,-50,4,2,1,60,0,0
102349,-33.3333333333333,4,2,1,60,0,0
103849,-50,4,2,1,60,0,0
104130,-33.3333333333333,4,2,1,60,0,0
105349,-66.6666666666667,4,2,1,60,0,0
106099,-100,4,2,0,60,0,0
106474,-28.5714285714286,4,2,1,60,0,0
106942,-50,4,2,1,60,0,0
107130,-33.3333333333333,4,2,1,60,0,0
107974,-50,4,2,1,60,0,0
108349,-33.3333333333333,4,2,1,60,0,0
109942,-50,4,2,1,60,0,0
110130,-33.3333333333333,4,2,1,60,0,0
112099,-28.5714285714286,4,2,1,60,0,0
112474,-33.3333333333333,4,2,1,60,0,0
112849,-50,4,2,1,60,0,0
113130,-40,4,2,1,60,0,0
113599,-40,4,2,1,60,0,0
114161,-50,4,2,1,60,0,0
114349,-40,4,2,1,60,0,0
114630,-40,4,2,1,60,0,0
114817,-50,4,2,1,60,0,0
115099,-40,4,2,1,60,0,0
115474,-28.5714285714286,4,2,1,60,0,0
115849,-40,4,2,1,60,0,0
116974,-33.3333333333333,4,2,1,60,0,0
117599,-28.5714285714286,4,2,1,60,0,0
118099,-33.3333333333333,4,2,1,60,0,0
118849,-50,4,2,1,60,0,0
119599,-100,4,2,1,60,0,0
119974,-50,4,2,1,60,0,0
121099,-100,4,2,1,60,0,0
121849,-50,4,2,1,60,0,0
122224,-50,4,1,1,60,0,0
122599,-40,4,1,1,60,0,0
122974,-28.5714285714286,4,2,1,60,0,0
124286,-66.6666666666667,4,2,1,60,0,0
124567,-66.6666666666667,4,2,1,30,0,0
136099,-66.6666666666667,4,2,1,60,0,0
136474,-80,4,2,1,40,0,0
136849,-50,4,2,1,40,0,0
142474,-45.4545454545455,4,2,1,40,0,0
142849,-100,4,2,1,40,0,0
143224,-50,4,2,1,40,0,0
147349,-40,4,2,1,40,0,0
147724,-66.6666666666667,4,2,1,40,0,0
148099,-40,4,2,1,60,0,0
148474,-66.6666666666667,4,2,2,30,0,0
149974,-66.6666666666667,4,2,2,40,0,0
151474,-66.6666666666667,4,2,2,50,0,0
152786,-100,4,2,2,60,0,0
152974,-50,4,2,2,60,0,0
153536,-40,4,2,2,60,0,0
154099,-50,4,2,2,60,0,0
154474,-66.6666666666667,4,2,2,60,0,0
155505,-50,4,2,2,60,0,0
157005,-40,4,2,2,60,0,0
157849,-33.3333333333333,4,2,2,60,0,0
158224,-28.5714285714286,4,1,2,60,0,0
158599,-50,4,1,2,60,0,0
158974,-200,4,3,2,60,0,0
159724,-100,4,3,2,60,0,0
160099,-25,4,3,2,60,0,0
160380,-25,4,3,2,5,0,0
160474,-33.3333333333333,4,3,2,70,0,1
160567,-33.3333333333333,4,3,1,70,0,1
160942,-40,4,3,1,70,0,1
161599,-66.6666666666667,4,3,1,70,0,1
161974,-33.3333333333333,4,3,1,70,0,1
162442,-40,4,3,1,70,0,1
162817,-40,4,3,1,70,0,1
163099,-33.3333333333333,4,3,1,70,0,1
163474,-33.3333333333333,4,3,1,70,0,1
163942,-50,4,3,1,70,0,1
164130,-40,4,3,1,70,0,1
164599,-50,4,3,1,70,0,1
164974,-33.3333333333333,4,3,1,70,0,1
165349,-33.3333333333333,4,3,1,70,0,1
165724,-33.3333333333333,4,3,1,70,0,1
166099,-28.5714285714286,4,3,1,70,0,1
166474,-33.3333333333333,4,3,1,70,0,1
166942,-40,4,3,1,70,0,1
167599,-66.6666666666667,4,3,1,70,0,1
167974,-33.3333333333333,4,3,1,70,0,1
168349,-40,4,3,1,70,0,1
169099,-33.3333333333333,4,3,1,70,0,1
169474,-33.3333333333333,4,3,1,70,0,1
170224,-30.03003003003,4,3,1,70,0,1
170786,-33.3333333333333,4,3,1,70,0,1
170974,-27.3224043715847,4,3,1,70,0,1
171724,-25,4,3,1,70,0,1
172474,-33.3333333333333,4,3,2,70,0,1
172567,-33.3333333333333,4,3,1,70,0,1
172661,-33.3333333333333,4,3,1,70,0,1
172942,-100,4,3,1,70,0,1
173130,-33.3333333333333,4,3,1,70,0,1
174442,-100,4,3,1,70,0,1
174630,-33.3333333333333,4,3,1,70,0,1
175849,-100,4,3,1,70,0,1
176130,-33.3333333333333,4,3,1,70,0,1
177442,-100,4,3,1,70,0,1
177630,-33.3333333333333,4,3,1,70,0,1
178942,-100,4,3,1,70,0,1
179130,-33.3333333333333,4,3,1,70,0,1
180442,-100,4,3,1,70,0,1
180630,-33.3333333333333,4,3,1,70,0,1
181474,-28.5714285714286,4,3,1,70,0,1
181755,-50,4,3,1,70,0,1
182224,-28.5714285714286,4,3,1,70,0,1
182505,-50,4,3,1,70,0,1
182974,-28.5714285714286,4,3,1,70,0,1
183255,-100,4,3,1,70,0,1
183536,-33.3333333333333,4,3,1,70,0,1
183911,-33.3333333333333,4,3,1,70,0,1
184099,-33.3333333333333,4,3,1,70,0,1
184474,-33.3333333333333,4,3,2,70,0,1
184567,-33.3333333333333,4,3,1,70,0,1
185130,-40,4,3,1,70,0,1
185599,-66.6666666666667,4,3,1,70,0,1
185974,-40,4,3,1,70,0,1
186161,-33.3333333333333,4,3,1,70,0,1
186630,-66.6666666666667,4,3,1,70,0,1
187286,-50,4,3,1,70,0,1
187474,-33.3333333333333,4,3,1,70,0,1
187849,-40,4,3,1,70,0,1
188505,-66.6666666666667,4,3,1,70,0,1
188974,-50,4,3,1,70,0,1
189349,-40,4,3,1,70,0,1
189724,-33.3333333333333,4,3,1,70,0,1
190099,-28.5714285714286,4,3,1,70,0,1
190474,-33.3333333333333,4,3,1,70,0,1
190942,-40,4,3,1,70,0,1
191599,-66.6666666666667,4,3,1,70,0,1
191974,-40,4,3,1,70,0,1
192630,-66.6666666666667,4,3,1,70,0,1
193286,-50,4,3,1,70,0,1
193474,-33.3333333333333,4,3,1,70,0,1
193849,-25,4,3,1,70,0,1
194224,-28.5714285714286,4,3,1,70,0,1
194599,-40,4,3,1,70,0,1
194974,-22.2222222222222,4,3,1,70,0,1
195349,-25,4,3,1,70,0,1
196474,-33.3333333333333,4,2,1,60,0,0
196849,-66.6666666666667,4,2,1,60,0,0
197130,-50,4,2,1,60,0,0
197786,-66.6666666666667,4,2,1,60,0,0
197974,-40,4,2,1,60,0,0
198630,-50,4,2,1,60,0,0
199099,-66.6666666666667,4,2,1,60,0,0
199474,-33.3333333333333,4,2,1,60,0,0
199849,-66.6666666666667,4,2,1,60,0,0
200130,-50,4,2,1,60,0,0
200974,-33.3333333333333,4,2,1,60,0,0
203036,-66.6666666666667,4,2,1,60,0,0
203974,-40,4,2,1,60,0,0
204536,-66.6666666666667,4,2,1,60,0,0
205474,-33.3333333333333,4,1,1,60,0,0
206224,-40,4,1,1,60,0,0
206974,-33.3333333333333,4,2,1,60,0,0
207349,-40,4,2,1,60,0,0
207724,-28.5714285714286,4,2,1,60,0,0
209036,-50,4,2,1,60,0,0
210536,-33.3333333333333,4,2,1,60,0,0
210817,-50,4,2,1,60,0,0
211474,-33.3333333333333,4,2,1,60,0,0
212317,-50,4,2,1,60,0,0
212974,-33.3333333333333,4,2,1,60,0,0
215036,-50,4,2,1,60,0,0
216630,-100,4,2,1,60,0,0
216817,-33.3333333333333,4,2,1,60,0,0
218599,-28.5714285714286,4,2,1,60,0,0
218974,-66.6666666666667,4,2,1,60,0,0
220474,-33.3333333333333,4,2,1,60,0,0
221130,-66.6666666666667,4,2,1,60,0,0
221599,-50,4,2,1,60,0,0
224974,-33.3333333333333,4,2,1,60,0,0
226849,-50,4,2,1,60,0,0
230974,-33.3333333333333,4,2,1,60,0,0

[Colours]
Combo1 : 17,254,176
Combo2 : 173,255,95
Combo3 : 255,88,100
Combo4 : 255,94,55

[HitObjects]
377,90,1099,5,0,0:0:0:0:
377,90,1192,1,0,0:0:0:0:
377,90,1286,1,0,0:0:0:0:
377,90,1380,1,0,0:0:0:0:
394,172,1474,2,0,B|371:81|451:26|451:26|465:44|492:68,2,223.125002127886,4|0|0,1:1|3:0|3:0,0:0:0:0:
472,247,2224,6,0,P|451:254|426:274,1,42.5,0|0,3:0|0:0,0:0:0:0:
406,343,2411,1,0,0:0:0:0:
406,343,2504,2,0,P|413:364|433:389,2,42.5,0|0|0,3:0|0:0|0:0,0:0:0:0:
110,93,2786,6,0,P|73:98|49:125,1,74.3750007092953,4|0,1:1|0:0,0:0:0:0:
263,53,2974,2,0,P|188:48|145:183,2,223.125002127886,4|0|0,1:1|3:0|3:0,0:0:0:0:
158,342,3724,6,0,P|139:353|107:359,1,42.5,0|0,3:0|0:0,0:0:0:0:
42,330,3912,2,0,P|30:311|24:279,1,42.5,0|0,0:0|3:0,0:0:0:0:
68,220,4099,5,4,1:1:0:0:
68,220,4192,1,0,1:1:0:0:
68,220,4286,1,4,1:1:0:0:
68,220,4380,1,0,1:1:0:0:
164,190,4474,2,0,B|212:232|203:312|138:336|138:336|130:310|115:293,1,223.125002127886,4|0,1:1|3:0,0:0:0:0:
118,297,5036,6,0,P|161:284|199:269,1,74.3750007092953,4|0,1:1|0:0,0:0:0:0:
441,272,5224,2,0,P|367:248|293:211,1,148.750001418591,4|0,1:1|0:0,0:0:0:0:
109,132,5505,2,0,P|167:180|237:161,1,148.750001418591,4|0,1:1|0:0,0:0:0:0:
392,62,5786,2,0,P|395:104|431:127,1,74.3750007092953,4|0,1:1|0:0,0:0:0:0:
418,123,5974,5,0,3:0:0:0:
478,60,6161,2,0,P|484:37|490:14,2,42.5,0|0|2,0:0|3:0|0:2,0:0:0:0:
362,53,6442,1,0,0:0:0:0:
333,40,6536,2,0,P|338:63|345:93,1,42.5,2|0,3:2|0:0,0:0:0:0:
301,156,6724,6,0,P|311:201|361:200,1,95.6250036478044,0|0,3:0|3:0,0:0:0:0:
171,235,7099,5,0,3:0:0:0:
171,235,7192,1,0,3:0:0:0:
171,235,7286,1,0,3:0:0:0:
171,235,7380,1,0,3:0:0:0:
189,340,7474,6,0,B|245:337|306:381|306:381|333:370,1,148.750001418591,4|0,1:1|0:0,0:0:0:0:
112,295,7755,1,0,0:0:0:0:
80,310,7849,2,0,P|69:273|41:252,1,74.3750007092953,0|0,1:0|0:0,0:0:0:0:
259,224,8036,1,0,0:0:0:0:
141,92,8224,6,0,B|94:61|19:69|19:69|1:45,1,148.750001418591,0|0,1:0|0:0,0:0:0:0:
110,175,8505,1,0,0:0:0:0:
129,206,8599,2,0,L|195:172,1,74.3750007092953,0|0,1:0|0:0,0:0:0:0:
280,132,8786,1,0,0:0:0:0:
28,225,8974,6,0,P|66:221|101:238,1,74.3750007092953,4|0,1:2|0:0,0:0:0:0:
193,225,9161,1,0,1:2:0:0:
193,225,9255,1,0,0:0:0:0:
193,225,9349,2,0,P|215:256|217:294,1,74.3750007092953,0|0,1:0|0:0,0:0:0:0:
281,359,9536,1,0,1:0:0:0:
61,311,9724,6,0,L|109:254,1,74.3750007092953,0|0,1:0|0:0,0:0:0:0:
152,129,9911,1,0,1:0:0:0:
152,129,10005,1,0,0:0:0:0:
152,129,10099,2,0,L|227:143,1,74.3750007092953,0|0,1:0|0:0,0:0:0:0:
340,85,10286,1,0,1:0:0:0:
419,352,10474,5,4,1:2:0:0:
461,339,10567,1,0,1:0:0:0:
485,301,10661,1,0,1:0:0:0:
483,256,10755,1,0,1:0:0:0:
419,215,10849,5,0,1:0:0:0:
347,238,10942,1,0,1:0:0:0:
275,217,11036,1,0,1:0:0:0:
233,155,11130,1,0,1:0:0:0:
258,62,11224,6,0,P|276:55|304:51,7,37.1875003546476,4|0|0|0|0|0|0|0,1:2|0:0|1:0|0:0|1:0|0:0|1:0|0:0,0:0:0:0:
358,90,11599,2,0,P|366:114|368:139,6,37.1875003546476,0|0|0|0|0|0|0,1:0|0:0|1:0|0:0|1:0|0:0|1:0,0:0:0:0:
344,209,11974,5,8,3:3:0:0:
344,209,12067,1,8,3:3:0:0:
344,209,12161,1,4,3:3:0:0:
344,209,12255,1,4,3:3:0:0:
258,161,12349,5,8,3:3:0:0:
367,190,12442,1,8,3:3:0:0:
278,252,12536,1,4,3:3:0:0:
305,149,12630,1,4,3:3:0:0:
370,277,12724,6,0,B|349:257|349:257|23:313|23:313|2:297,1,382.500014591218,4|0,1:2|0:0,0:0:0:0:
126,152,13099,2,0,B|147:132|147:132|473:188|473:188|494:172,1,382.500014591218,4|0,1:2|0:0,0:0:0:0:
418,33,13474,6,0,P|397:117|385:288,1,255.000009727478,4|2,1:0|0:2,0:0:0:0:
384,284,13849,6,0,B|349:323|349:323|261:314,1,127.500004863739,0|0,1:0|3:0,0:0:0:0:
192,264,14036,1,0,0:0:0:0:
81,357,14130,2,0,L|40:368,2,42.5,2|0|0,0:2|0:0|1:0,0:0:0:0:
121,220,14317,2,0,L|135:165,2,42.5,0|0|0,3:0|0:0|0:0,0:0:0:0:
168,342,14505,1,0,3:0:0:0:
28,277,14599,2,0,B|104:264|104:264|127:277|127:277|222:259,1,170,0|2,1:0|3:2,0:0:0:0:
192,264,14974,5,4,1:0:0:0:
388,49,15161,2,0,P|359:26|305:33,1,85,2|0,0:2|0:0,0:0:0:0:
312,28,15349,1,0,1:0:0:0:
128,184,15536,1,0,0:0:0:0:
183,135,15630,2,0,B|231:124|231:124|259:136|259:136|310:124,1,127.500004863739,2|0,0:2|1:0,0:0:0:0:
413,188,15817,1,0,3:0:0:0:
413,188,15911,2,0,P|418:214|401:193,1,63.7500024318696,0|0,0:0|3:0,0:0:0:0:
305,125,16099,6,0,B|218:96|218:96|242:134,1,127.5,0|0,1:0|0:0,0:0:0:0:
183,135,16286,2,0,B|202:165|202:165|115:136,1,127.5,2|0,3:2|0:0,0:0:0:0:
87,101,16474,6,0,B|7:73|7:73|66:242,1,255.000009727478,4|2,1:0|0:2,0:0:0:0:
63,233,16849,1,0,1:0:0:0:
62,241,16942,1,0,3:0:0:0:
61,249,17036,1,0,0:0:0:0:
120,357,17130,2,0,B|152:313|152:313|134:254,1,106.25,2|0,0:2|1:0,0:0:0:0:
137,264,17317,6,0,L|203:278,1,63.7500024318696,0|0,3:0|0:0,0:0:0:0:
283,321,17505,1,0,3:0:0:0:
308,166,17599,2,0,L|293:242,1,63.7500024318696,0|0,1:0|0:0,0:0:0:0:
283,321,17786,2,0,P|251:257|233:122,1,191.250007295609,2|0,3:2|0:0,0:0:0:0:
240,38,17974,5,4,1:2:0:0:
371,104,18161,5,8,0:3:0:0:
447,66,18255,1,8,0:3:0:0:
402,138,18349,1,4,0:3:0:0:
461,101,18442,1,4,0:3:0:0:
433,174,18536,2,0,L|423:242,1,63.7500024318696,0|0,3:0|3:0,0:0:0:0:
263,291,18724,5,4,1:2:0:0:
263,291,18911,2,0,L|258:202,1,63.7500024318696,0|0,0:0|3:0,0:0:0:0:
334,76,19099,5,0,3:0:0:0:
325,146,19192,1,0,3:0:0:0:
184,159,19286,1,0,3:0:0:0:
163,93,19380,1,0,3:0:0:0:
240,38,19474,6,0,P|254:136|263:316,1,255.000009727478,4|2,1:0|0:2,0:0:0:0:
263,291,19849,6,0,P|327:271|330:201,1,127.500004863739,0|0,1:0|3:0,0:0:0:0:
278,162,20036,1,0,0:0:0:0:
318,74,20130,2,0,L|329:16,2,42.5,2|0|0,0:2|0:0|1:0,0:0:0:0:
187,186,20317,2,0,L|202:243,2,42.5,0|0|0,3:0|0:0|0:0,0:0:0:0:
204,44,20505,1,0,3:0:0:0:
278,162,20599,2,0,P|216:182|162:93,1,170,0|2,1:0|3:2,0:0:0:0:
159,108,20974,5,4,1:0:0:0:
166,298,21161,2,0,L|67:310,1,85,2|0,0:2|0:0,0:0:0:0:
82,309,21349,1,0,1:0:0:0:
250,132,21536,1,0,0:0:0:0:
330,146,21630,2,0,L|481:126,1,127.500004863739,2|0,0:2|1:0,0:0:0:0:
304,228,21817,1,0,3:0:0:0:
304,228,21911,2,0,B|298:260|298:260|322:235,1,63.7500024318696,0|0,0:0|3:0,0:0:0:0:
457,130,22099,6,0,P|415:119|353:178,1,127.5,0|0,1:0|0:0,0:0:0:0:
354,168,22286,2,0,P|328:132|243:137,1,127.5,2|0,3:2|0:0,0:0:0:0:
210,207,22474,6,0,B|110:234|110:234|56:167|56:167|85:84,1,255.000009727478,4|2,1:0|0:2,0:0:0:0:
78,105,22849,2,0,B|115:100|115:100|126:105|126:105|180:98,1,85,0|0,1:0|3:0,0:0:0:0:
232,65,23036,1,0,0:0:0:0:
210,207,23130,2,0,L|194:324,1,106.25,2|0,0:2|1:0,0:0:0:0:
195,312,23317,2,0,L|287:298,1,63.7500024318696,0|0,3:0|0:0,0:0:0:0:
268,155,23505,1,0,3:0:0:0:
132,187,23599,6,0,B|71:230|71:230|161:219|161:219|162:227|162:227|161:219|161:219|220:213|220:213|234:200|234:200|325:190|325:190|356:212,1,382.500014591218,0|0,1:0|0:0,0:0:0:0:
268,155,23974,6,0,B|241:272|306:221|278:343,1,191.250007295609,4|0,1:2|0:0,0:0:0:0:
350,208,24349,5,2,0:2:0:0:
405,162,24442,1,2,0:2:0:0:
466,196,24536,1,2,0:2:0:0:
411,242,24630,1,2,0:2:0:0:
403,147,24724,5,4,0:2:0:0:
361,361,25005,5,4,0:2:0:0:
402,132,25286,5,4,0:2:0:0:
375,364,25474,6,0,B|366:373|366:373|485:386|485:386|452:299|452:299|392:292|392:292|412:206|412:206|432:194|432:194|457:73,1,510.000019454957,4|0,1:0|1:0,0:0:0:0:
490,157,25942,5,0,3:0:0:0:
387,54,26036,2,0,L|210:102,1,170,2|0,0:1|1:0,0:0:0:0:
154,146,26317,2,0,B|136:113|136:113|151:63,1,85,2|0,3:1|0:0,0:0:0:0:
212,14,26505,1,2,3:1:0:0:
217,207,26599,6,0,P|172:235|93:209,1,127.5,0|0,1:0|0:0,0:0:0:0:
84,204,26786,2,0,L|75:250,1,42.5,2|0,3:2|0:0,0:0:0:0:
296,278,26974,6,0,B|361:289|361:289|388:279|388:279|493:296,1,170,4|2,1:0|0:2,0:0:0:0:
325,363,27255,1,2,0:1:0:0:
399,212,27349,2,0,L|386:125,1,85,0|0,1:0|3:0,0:0:0:0:
470,27,27536,2,0,L|460:76,2,42.5,2|0|2,0:1|0:0|0:2,0:0:0:0:
479,216,27724,5,0,1:0:0:0:
298,106,27817,2,0,P|245:135|247:245,1,170,2|2,3:1|3:1,0:0:0:0:
271,364,28099,2,0,P|283:323|288:283,1,63.7500024318696,0|0,1:0|0:0,0:0:0:0:
160,156,28286,5,2,3:1:0:0:
52,182,28380,1,0,0:0:0:0:
96,62,28474,6,0,P|117:126|147:295,1,212.5,4|2,1:0|0:2,0:0:0:0:
145,268,28849,6,0,L|71:258,1,63.7500024318696,0|0,1:0|3:0,0:0:0:0:
234,294,29036,2,0,P|173:308|65:368,1,170,2|0,0:1|1:0,0:0:0:0:
323,293,29317,2,0,B|349:276|349:276|364:216,1,85,2|0,3:1|0:0,0:0:0:0:
294,177,29505,1,2,3:1:0:0:
440,204,29599,6,0,B|432:125|348:117|348:117|364:126|383:162,1,170,0|2,1:0|3:2,0:0:0:0:
363,142,29974,6,0,L|232:121,1,127.500004863739,4|0,1:2|0:0,0:0:0:0:
38,155,30161,5,8,0:3:0:0:
110,198,30255,1,8,0:3:0:0:
141,39,30349,5,4,0:3:0:0:
67,79,30443,1,4,0:3:0:0:
189,186,30536,5,0,3:0:0:0:
192,102,30630,1,0,3:0:0:0:
122,128,30724,6,0,L|148:386,1,255.000009727478,4|0,1:2|3:0,0:0:0:0:
46,296,31099,5,4,1:2:0:0:
126,310,31192,1,0,3:0:0:0:
217,324,31286,1,0,3:0:0:0:
328,342,31380,1,0,3:0:0:0:
455,359,31474,6,0,B|439:328|439:328|140:281|140:281|111:229,1,382.500014591218,4|0,1:0|0:0,0:0:0:0:
193,196,31849,5,0,1:0:0:0:
193,196,31942,1,0,3:0:0:0:
37,197,32036,6,0,P|72:158|111:152,1,85,2|2,0:1|0:2,0:0:0:0:
294,201,32224,5,0,1:0:0:0:
204,153,32317,1,2,3:1:0:0:
315,105,32411,1,0,0:0:0:0:
310,124,32505,1,2,3:1:0:0:
262,237,32599,6,0,L|278:328,1,85,0|0,1:0|0:0,0:0:0:0:
115,61,32786,2,0,B|148:85|148:85|215:69,1,85,2|0,3:2|0:0,0:0:0:0:
457,58,32974,6,0,B|451:26|451:26|417:174,1,170,4|2,1:0|0:2,0:0:0:0:
356,82,33255,1,2,0:1:0:0:
504,130,33349,2,0,B|520:154|520:154|506:222,1,85,0|0,1:0|3:0,0:0:0:0:
345,355,33536,2,0,P|365:346|394:341,2,42.5,2|0|2,0:1|0:0|0:2,0:0:0:0:
459,372,33724,5,0,1:0:0:0:
299,290,33817,2,0,P|257:324|134:377,1,170,2|2,3:1|3:1,0:0:0:0:
386,248,34099,2,0,P|432:267|463:289,1,63.7500024318696,0|0,1:0|0:0,0:0:0:0:
191,256,34286,5,2,3:1:0:0:
167,152,34380,1,0,0:0:0:0:
32,116,34474,6,0,P|116:158|271:204,1,255.000009727478,4|2,1:0|0:2,0:0:0:0:
270,204,34849,6,0,P|259:172|254:139,1,63.7500024318696,0|0,1:0|3:0,0:0:0:0:
432,0,35036,2,0,P|388:49|370:79,1,85,2|2,0:1|0:2,0:0:0:0:
360,144,35224,5,0,1:0:0:0:
360,144,35317,1,2,3:1:0:0:
360,144,35411,1,0,0:0:0:0:
294,71,35505,5,2,3:1:0:0:
445,116,35599,2,0,B|476:165|480:228|480:228|457:266,1,159.375,0|0,1:0|0:0,0:0:0:0:
437,278,35786,6,0,L|381:266,1,42.5,2|0,3:2|0:0,0:0:0:0:
202,305,35974,6,0,B|220:334|220:334|322:355|322:355|314:278|314:278|281:250,1,255.000009727478,4|0,1:0|0:0,0:0:0:0:
254,244,36349,5,0,0:0:0:0:
239,162,36536,1,0,0:0:0:0:
232,90,36724,1,0,0:0:0:0:
232,90,36817,1,0,0:0:0:0:
232,90,36911,1,0,0:0:0:0:
232,90,37005,1,0,0:0:0:0:
319,101,37099,5,2,0:2:0:0:
242,80,37192,1,2,0:2:0:0:
329,91,37286,5,2,0:2:0:0:
252,70,37379,1,2,0:2:0:0:
342,51,37474,6,0,B|286:90|310:166|310:166|389:197|385:269,1,255.000009727478,4|2,1:0|0:2,0:0:0:0:
384,256,37849,5,0,1:0:0:0:
453,232,37942,1,0,3:0:0:0:
502,286,38036,1,8,0:2:0:0:
384,256,38130,6,0,P|380:235|374:214,2,42.5,2|0|0,0:2|0:0|1:0,0:0:0:0:
262,154,38317,2,0,P|283:161|304:166,2,42.5,4|0|0,3:2|0:0|0:0,0:0:0:0:
302,165,38505,5,0,3:0:0:0:
207,294,38599,2,0,P|197:260|185:230,1,63.7500024318696,8|0,1:2|0:0,0:0:0:0:
187,234,38786,2,0,P|166:243|148:252,1,42.5,6|0,3:2|0:0,0:0:0:0:
428,54,38974,6,0,P|437:93|452:131,1,63.7500024318696,4|0,1:0|0:0,0:0:0:0:
414,203,39161,2,0,P|387:220|348:213,1,63.7500024318696,2|8,3:2|0:2,0:0:0:0:
178,135,39349,5,0,1:0:0:0:
249,104,39442,1,0,3:0:0:0:
301,159,39536,1,8,0:2:0:0:
178,135,39630,6,0,P|173:161|166:181,2,42.5,2|0|0,0:2|0:0|1:0,0:0:0:0:
112,290,39817,2,0,P|107:264|100:244,2,42.5,4|0|0,3:2|0:0|0:0,0:0:0:0:
102,249,40005,5,0,3:0:0:0:
247,290,40099,2,0,P|217:268|187:274,1,63.7500024318696,8|0,1:2|0:0,0:0:0:0:
92,214,40286,2,0,P|120:198|154:206,1,63.7500024318696,6|0,3:2|0:0,0:0:0:0:
460,184,40474,6,0,B|393:172|393:172|389:164|389:164|292:146,1,170,4|2,1:0|0:2,0:0:0:0:
298,147,40849,5,0,1:0:0:0:
274,78,40942,1,0,3:0:0:0:
327,23,41036,1,8,0:2:0:0:
298,147,41130,6,0,P|276:150|256:156,2,42.5,2|0|0,0:2|0:0|1:0,0:0:0:0:
141,86,41317,2,0,P|163:89|183:95,2,42.5,4|0|0,3:2|0:0|0:0,0:0:0:0:
182,94,41505,5,0,3:0:0:0:
150,269,41599,2,0,P|139:225|133:197,1,63.7500024318696,8|0,1:2|0:0,0:0:0:0:
136,208,41786,2,0,P|157:191|171:177,1,42.5,6|0,3:2|0:0,0:0:0:0:
364,151,41974,6,0,B|312:115|271:62,1,127.500004863739,4|0,1:2|0:0,0:0:0:0:
160,19,42162,5,8,0:3:0:0:
42,109,42256,1,8,0:3:0:0:
166,162,42349,1,4,0:3:0:0:
82,225,42443,1,4,0:3:0:0:
165,292,42537,1,0,3:0:0:0:
120,325,42630,1,0,3:0:0:0:
201,373,42724,6,0,P|250:304|363:173,1,255.000009727478,4|0,1:2|0:0,0:0:0:0:
361,174,43005,1,0,3:0:0:0:
246,98,43099,6,0,P|330:193|406:296,1,255.000009727478,4|0,1:2|3:0,0:0:0:0:
406,296,43379,1,0,3:0:0:0:
469,180,43474,6,0,P|348:216|227:266,1,255.000009727478,4|2,1:0|0:2,0:0:0:0:
229,265,43849,6,0,P|234:220|207:194,1,85,0|0,1:0|3:0,0:0:0:0:
165,121,44036,1,8,0:2:0:0:
106,340,44130,6,0,B|68:351|68:351|91:335,1,63.7500024318696,2|0,0:3|1:0,0:0:0:0:
207,194,44317,2,0,B|245:205|245:205|222:189,1,63.7500024318696,4|0,3:2|0:0,0:0:0:0:
78,140,44505,5,0,3:0:0:0:
164,278,44599,2,0,P|179:249|176:212,1,63.7500024318696,2|0,1:3|0:0,0:0:0:0:
178,219,44786,2,0,P|149:204|112:207,1,63.7500024318696,6|0,3:2|0:0,0:0:0:0:
72,355,44974,6,0,B|35:336|35:336|19:246,1,127.500004863739,4|0,1:0|0:0,0:0:0:0:
145,44,45161,2,0,B|182:63|182:63|198:153,1,127.500004863739,2|8,3:2|0:2,0:0:0:0:
219,170,45349,6,0,P|175:175|139:146,1,85,0|0,1:0|3:0,0:0:0:0:
122,77,45536,1,8,0:2:0:0:
307,89,45630,6,0,B|291:70|291:70|308:127,1,63.7500024318696,2|0,0:3|1:0,0:0:0:0:
357,282,45817,2,0,B|341:301|341:301|358:244,1,63.7500024318696,4|0,3:2|0:0,0:0:0:0:
297,194,46005,5,0,3:0:0:0:
485,126,46099,2,0,P|453:133|428:162,1,63.7500024318696,2|0,1:3|0:0,0:0:0:0:
381,213,46287,2,0,P|391:250|395:282,1,63.7500024318696,6|0,3:2|0:0,0:0:0:0:
479,348,46474,6,0,B|426:311|426:311|355:322,1,127.500004863739,4|0,1:0|0:0,0:0:0:0:
134,246,46661,2,0,B|187:283|187:283|258:272,1,127.500004863739,2|8,0:2|0:2,0:0:0:0:
280,195,46849,6,0,P|247:166|226:124,1,85,0|0,1:0|3:0,0:0:0:0:
146,106,47036,1,8,0:2:0:0:
367,212,47130,6,0,P|350:239|335:275,1,63.7500024318696,2|0,0:3|1:0,0:0:0:0:
272,325,47317,2,0,P|308:341|336:357,1,63.7500024318696,4|0,3:2|0:0,0:0:0:0:
364,339,47505,1,0,3:0:0:0:
186,371,47599,6,0,P|168:284|133:182,1,191.250007295609,2|6,1:3|3:2,0:0:0:0:
101,177,47880,1,0,0:0:0:0:
216,63,47974,6,0,B|263:17|263:17|222:216,1,255.000009727478,4|0,1:2|3:0,0:0:0:0:
224,202,48255,1,0,3:0:0:0:
269,272,48349,1,8,1:1:0:0:
269,272,48536,1,8,1:1:0:0:
298,143,48724,5,8,1:1:0:0:
323,214,48817,1,8,1:1:0:0:
348,113,48911,5,8,1:1:0:0:
334,186,49004,1,8,1:1:0:0:
406,230,49099,2,0,P|411:250|418:272,6,42.5,8|0|0|0|0|0|0,1:1|1:1|1:1|1:1|1:1|1:1|1:1,0:0:0:0:
361,318,49474,6,0,B|261:304|311:374|181:356,1,170,4|8,1:0|0:2,0:0:0:0:
176,355,49755,1,0,0:0:0:0:
37,297,49849,2,0,B|95:281|95:281|117:247|117:247|217:227|217:227|190:274,1,255,8|8,1:0|0:2,0:0:0:0:
176,355,50130,6,0,L|195:254,1,85,4|0,1:0|0:0,0:0:0:0:
45,215,50317,1,0,0:0:0:0:
18,132,50411,1,4,1:0:0:0:
18,132,50505,1,0,0:0:0:0:
18,132,50599,2,0,B|62:121|62:121|104:145,1,85,8|0,1:0|0:0,0:0:0:0:
156,224,50786,2,0,L|258:213,1,85
339,232,50974,5,4,1:0:0:0:
344,126,51068,1,0,0:0:0:0:
409,192,51161,1,8,0:2:0:0:
416,212,51255,1,0,0:0:0:0:
478,132,51349,6,0,B|380:104|380:104|322:170|322:170|345:254,1,255.000009727478,8|8,1:0|0:2,0:0:0:0:
379,336,51630,1,4,1:0:0:0:
251,69,51817,1,0,0:0:0:0:
251,69,51911,2,0,P|235:101|228:122,1,42.5,4|0,1:0|0:0,0:0:0:0:
108,123,52099,6,0,P|148:151|182:177,1,85,8|0,1:0|0:0,0:0:0:0:
297,175,52286,2,0,P|251:211|226:235,1,85,4|0,1:0|0:0,0:0:0:0:
77,304,52474,6,0,P|126:304|261:312,1,170,4|8,1:0|0:2,0:0:0:0:
267,319,52755,1,0,0:0:0:0:
340,179,52849,2,0,B|309:159|309:159|237:170|237:170|218:214|218:214|145:226|145:226|118:207,1,255.000009727478,8|8,1:0|0:2,0:0:0:0:
36,78,53130,6,0,L|61:166,1,85,4|0,1:0|0:0,0:0:0:0:
48,239,53317,1,0,0:0:0:0:
136,138,53411,2,0,B|180:122|180:122|221:133,1,85,4|0,1:0|0:0,0:0:0:0:
214,279,53599,2,0,B|170:295|170:295|129:284,1,85,8|0,1:0|0:0,0:0:0:0:
255,204,53786,1,0,0:0:0:0:
296,277,53880,1,0,0:0:0:0:
313,157,53974,6,0,B|407:170|407:170|388:293,1,212.5,4|0,1:2|1:0,0:0:0:0:
338,352,54255,1,0,1:0:0:0:
231,362,54349,6,0,B|173:353|173:353|183:284,1,127.5,0|0,1:0|1:0,0:0:0:0:
313,157,54724,6,0,B|297:37|297:37|181:55,1,212.5,4|0,1:2|3:0,0:0:0:0:
135,87,55005,1,0,3:0:0:0:
241,192,55099,6,0,B|225:72|225:72|109:90,1,212.5,4|0,1:2|3:0,0:0:0:0:
201,299,55474,6,0,L|285:288,1,85,4|0,1:0|0:0,0:0:0:0:
295,295,55661,2,0,L|211:306,1,85,8|0,0:2|0:0,0:0:0:0:
370,278,55849,5,8,1:0:0:0:
315,221,55942,1,0,0:0:0:0:
388,202,56036,1,8,0:2:0:0:
382,345,56130,6,0,L|375:304,1,42.5,6|0,1:0|0:0,0:0:0:0:
249,193,56317,2,0,L|288:207,1,42.5,2|4,0:3|1:0,0:0:0:0:
357,234,56505,1,0,0:0:0:0:
444,154,56599,2,0,L|412:182,1,42.5,10|0,1:0|0:0,0:0:0:0:
357,234,56786,1,2,1:3:0:0:
357,234,56974,6,0,B|390:186|390:186|370:89|370:89|300:61,1,212.5,4|8,1:0|0:2,0:0:0:0:
193,68,57255,1,0,0:0:0:0:
193,68,57349,2,0,B|142:89|142:89|122:186|122:186|155:234,1,212.5,8|8,1:0|0:2,0:0:0:0:
155,234,57630,6,0,B|195:227|195:227|200:220|200:220|241:214,1,85,6|0,1:0|0:0,0:0:0:0:
353,133,57817,2,0,B|313:140|313:140|308:147|308:147|267:153,1,85,2|4,0:3|1:0,0:0:0:0:
165,144,58005,5,0,0:0:0:0:
336,228,58099,1,4,1:2:0:0:
336,228,58474,6,0,P|355:278|314:343,1,127.5,4|0,1:0|0:0,0:0:0:0:
269,277,58849,6,0,B|372:216|353:303|442:223,1,170,0|0,3:0|0:0,0:0:0:0:
497,187,59130,6,0,P|454:156|402:157,1,106.25,2|4,3:1|1:0,0:0:0:0:
327,105,59317,6,0,P|292:153|174:151,1,170,0|0,3:0|3:0,0:0:0:0:
99,49,59599,5,2,3:1:0:0:
156,120,59692,1,0,3:0:0:0:
171,205,59786,1,0,3:0:0:0:
153,279,59880,1,0,3:0:0:0:
113,332,59974,5,4,1:2:0:0:
113,332,61474,1,4,1:2:0:0:
205,125,61661,5,8,0:3:0:0:
284,161,61755,1,8,0:3:0:0:
326,89,61849,6,0,P|298:71|279:66,1,42.5,4|0,0:3|0:0,0:0:0:0:
304,57,61942,2,0,P|270:55|251:60,1,42.5,4|0,0:3|0:0,0:0:0:0:
268,41,62036,2,0,P|238:56|224:70,1,42.5,0|0,3:0|0:0,0:0:0:0:
229,46,62129,2,0,P|211:74|206:93,1,42.5,0|0,3:0|0:0,0:0:0:0:
205,125,62224,6,0,B|150:122|150:122|133:103|133:103|68:98,1,127.500004863739,4|0,1:2|0:0,0:0:0:0:
318,356,62411,2,0,B|373:353|373:353|390:334|390:334|455:329,1,127.500004863739,4|0,1:2|0:0,0:0:0:0:
225,225,62599,2,0,B|187:177|187:177|255:114|255:114|340:153|340:153|292:290,1,382.500014591218,4|0,1:2|3:0,0:0:0:0:
318,356,62974,6,0,L|189:348,1,127.500004863739,4|0,1:2|0:0,0:0:0:0:
113,342,63161,1,8,1:0:0:0:
168,251,63255,1,8,1:0:0:0:
41,245,63349,6,0,L|191:253,1,127.500004863739,4|0,1:2|1:0,0:0:0:0:
263,258,63536,1,0,1:0:0:0:
224,164,63630,1,0,1:0:0:0:
321,144,63724,6,0,L|146:134,1,170,4|0,1:2|3:0,0:0:0:0:
143,116,64474,6,0,P|205:126|265:128,1,106.25,6|0,1:0|0:0,0:0:0:0:
399,192,64661,1,2,0:2:0:0:
512,65,64755,2,0,P|415:99|303:171,1,212.5,2|0,0:2|0:0,0:0:0:0:
305,6,65036,2,0,P|354:36|355:93,1,106.25,2|0,0:2|0:0,0:0:0:0:
332,263,65224,5,6,1:0:0:0:
214,359,65317,2,0,P|225:303|237:254,1,85,2|0,0:2|0:0,0:0:0:0:
416,313,65505,1,2,0:2:0:0:
509,268,65599,2,0,P|459:286|409:299,1,85,6|0,1:0|0:0,0:0:0:0:
229,199,65786,1,2,0:2:0:0:
148,247,65880,1,0,0:0:0:0:
7,140,65974,6,0,B|-12:90|-12:90|152:167,1,212.5,6|2,1:0|0:2,0:0:0:0:
50,233,66255,1,2,0:2:0:0:
79,369,66349,1,4,1:0:0:0:
17,321,66442,2,0,B|52:280|52:280|119:293,1,106.25,2|2,0:2|0:2,0:0:0:0:
264,298,66630,2,0,B|229:339|229:339|162:326,1,106.25,2|6,0:2|1:0,0:0:0:0:
148,190,66817,5,2,0:2:0:0:
126,114,66911,1,2,0:2:0:0:
140,209,67005,1,2,0:2:0:0:
217,145,67099,2,0,L|312:163,1,85,4|0,1:0|0:0,0:0:0:0:
509,22,67286,6,0,B|464:0|464:0|402:24|402:24|386:115,1,191.250007295609,2|0,1:0|0:0,0:0:0:0:
371,91,67474,6,0,P|389:145|403:204,1,106.25,6|0,1:0|0:0,0:0:0:0:
424,384,67661,2,0,P|445:311|504:163,1,212.5,2|4,0:2|1:0,0:0:0:0:
296,242,67942,2,0,P|324:290|383:298,1,106.25,0|2,0:0|0:2,0:0:0:0:
467,94,68130,1,0,0:0:0:0:
328,23,68224,5,6,1:0:0:0:
328,23,68317,2,0,L|180:45,1,106.25,2|0,0:2|0:0,0:0:0:0:
85,117,68505,1,2,0:2:0:0:
9,86,68598,2,0,L|157:108,1,106.25,6|0,1:0|0:0,0:0:0:0:
132,18,68786,5,2,0:2:0:0:
190,156,68880,1,0,0:0:0:0:
115,285,68974,6,0,B|70:357|70:357|97:219,1,212.5,6|2,1:0|0:2,0:0:0:0:
19,187,69255,1,2,0:2:0:0:
46,331,69349,1,4,1:0:0:0:
196,295,69442,2,0,B|202:260|202:260|301:365|301:365|310:325,1,212.5,2|2,0:2|0:2,0:0:0:0:
440,221,69724,6,0,B|453:191|453:191|391:241,1,106.25,6|2,1:0|0:2,0:0:0:0:
190,156,69911,2,0,B|177:126|177:126|239:176,1,106.25,2|2,0:2|0:2,0:0:0:0:
352,12,70099,2,0,B|296:61|314:139|336:121|361:190|294:263,1,255.000009727478,4|2,1:0|1:0,0:0:0:0:
300,232,70474,6,0,P|302:168|315:110,1,106.25,6|0,1:0|0:0,0:0:0:0:
431,45,70661,1,2,0:2:0:0:
217,37,70755,2,0,P|287:76|416:129,1,212.5,2|0,0:2|0:0,0:0:0:0:
500,256,71036,2,0,P|458:297|398:286,1,106.25,2|0,0:2|0:0,0:0:0:0:
189,239,71224,5,6,1:0:0:0:
24,334,71317,2,0,P|76:314|130:303,1,106.25,2|0,0:2|0:0,0:0:0:0:
263,332,71505,1,2,0:2:0:0:
234,172,71599,2,0,P|214:231|202:286,1,106.25,6|0,1:0|0:0,0:0:0:0:
119,338,71786,5,2,0:2:0:0:
69,239,71880,1,0,0:0:0:0:
23,144,71974,6,0,B|6:103|6:103|46:44,1,106.25,6|2,1:0|0:2,0:0:0:0:
209,8,72161,2,0,B|226:49|226:49|186:108,1,106.25,2|2,0:2|0:2,0:0:0:0:
109,97,72349,2,0,L|327:64,1,212.5,4|2,1:0|0:2,0:0:0:0:
479,40,72630,2,0,B|438:53|438:53|379:8,1,106.25,2|6,0:2|1:0,0:0:0:0:
314,156,72817,5,2,0:2:0:0:
400,181,72911,1,2,0:2:0:0:
311,144,73005,1,2,0:2:0:0:
290,238,73099,2,0,L|306:344,1,85,4|0,1:0|0:0,0:0:0:0:
382,316,73286,5,2,1:0:0:0:
396,322,73380,1,0,0:0:0:0:
212,253,73474,2,0,L|115:278,1,85,6|0,1:0|0:0,0:0:0:0:
33,241,73661,6,0,L|55:244,1,21.25,0|0,1:0|0:0,0:0:0:0:
121,301,73849,6,0,L|90:317,1,28.3333333333333,0|0,1:0|0:0,0:0:0:0:
188,310,73974,6,0,L|200:283,1,28.3333333333333,0|0,1:0|0:0,0:0:0:0:
255,319,74099,6,0,L|272:355,1,28.3333333333333,0|0,1:0|0:0,0:0:0:0:
348,295,74224,6,0,L|326:278,1,21.25,0|0,1:0|0:0,0:0:0:0:
385,269,74317,6,0,L|413:264,1,21.25,0|0,1:0|0:0,0:0:0:0:
422,243,74411,6,0,L|417:214,1,21.25,0|0,1:0|0:0,0:0:0:0:
459,217,74505,6,0,L|475:235,1,21.25,0|0,1:0|0:0,0:0:0:0:
496,191,74599,6,0,L|484:289,1,85,0|0,1:0|3:0,0:0:0:0:
80,81,74974,6,0,B|149:97|149:97|163:40|86:-1|21:20|17:86|12:166|61:186|143:159,1,382.500014591218,4|0,1:2|0:0,0:0:0:0:
309,116,75349,6,0,B|235:101|180:155|204:207|258:185|302:219|313:245|314:296|228:314|146:258,1,340,4|0,1:2|0:0,0:0:0:0:
387,353,75724,6,0,B|367:240|367:240|437:278,1,170,4|0,1:2|0:0,0:0:0:0:
440,261,75911,2,0,B|474:217|474:217|500:329,1,170,0|0,3:0|0:0,0:0:0:0:
76,329,76099,6,0,B|8:276|8:276|299:351,1,382.500014591218,4|0,1:2|0:0,0:0:0:0:
294,350,76474,6,0,P|286:328|276:311,1,42.5,4|0,1:1|0:0,0:0:0:0:
340,253,76661,2,0,P|347:233|357:214,1,42.5
193,199,76849,2,0,B|207:174|209:141|209:141|220:203|265:230,1,170,8|0,1:2|0:0,0:0:0:0:
364,100,77130,1,0,0:0:0:0:
289,117,77224,2,0,P|295:143|301:172,1,42.5,0|0,1:0|0:0,0:0:0:0:
174,317,77411,2,0,P|168:291|162:262,1,42.5,8|0,0:2|0:0,0:0:0:0:
137,275,77599,6,0,P|273:294|512:366,1,382.500014591218,2|0,1:1|0:0,0:0:0:0:
90,364,77974,5,0,1:0:0:0:
90,364,78067,1,0,0:0:0:0:
90,364,78161,2,0,P|74:335|60:319,1,42.5
227,188,78349,2,0,P|181:264|120:239,1,170,8|0,1:2|0:0,0:0:0:0:
34,61,78630,1,0,0:0:0:0:
102,92,78724,2,0,P|105:71|111:44,1,42.5,0|0,1:0|0:0,0:0:0:0:
36,209,78911,2,0,P|33:188|27:161,1,42.5,8|0,0:2|0:0,0:0:0:0:
1,179,79099,6,0,P|182:169|364:77,1,382.500014591218,2|0,1:1|0:0,0:0:0:0:
476,252,79474,6,0,P|481:223|488:199,1,42.5,4|0,1:0|0:0,0:0:0:0:
405,239,79661,2,0,P|410:210|417:186,1,42.5
339,162,79849,5,8,1:2:0:0:
263,207,79942,1,0,0:0:0:0:
283,284,80036,1,0,0:0:0:0:
264,332,80130,1,0,0:0:0:0:
241,356,80224,5,0,1:0:0:0:
241,356,80317,1,0,0:0:0:0:
241,356,80411,2,0,P|229:335|215:316,1,42.5,8|0,0:2|0:0,0:0:0:0:
22,251,80599,5,0,1:0:0:0:
97,242,80693,1,0,0:0:0:0:
148,293,80787,2,0,P|161:275|178:253,1,42.5
202,188,80974,5,0,1:0:0:0:
283,219,81067,1,0,0:0:0:0:
219,181,81161,2,0,P|214:156|208:137,1,42.5
287,129,81349,2,0,P|282:104|276:85,1,42.5,8|0,1:2|0:0,0:0:0:0:
341,44,81536,5,0,0:0:0:0:
341,44,81630,1,0,0:0:0:0:
403,88,81724,5,0,1:0:0:0:
438,100,81817,1,0,0:0:0:0:
393,165,81911,2,0,P|378:186|366:207,1,42.5,8|0,0:2|0:0,0:0:0:0:
491,332,82099,6,0,P|344:226|154:151,1,382.500014591218,2|0,1:1|0:0,0:0:0:0:
483,206,82474,6,0,P|480:183|478:164,1,42.5,4|0,1:0|0:0,0:0:0:0:
419,258,82661,2,0,P|416:281|414:300,1,42.5
367,191,82849,5,8,1:2:0:0:
367,191,82942,1,0,0:0:0:0:
303,243,83036,2,0,P|300:266|298:285,1,42.5
196,223,83224,5,0,1:0:0:0:
114,160,83317,1,0,0:0:0:0:
156,256,83411,1,8,0:2:0:0:
185,181,83505,1,0,0:0:0:0:
81,277,83599,6,0,P|63:150|39:25,1,255.000009727478,2|0,1:1|0:0,0:0:0:0:
10,59,83880,1,0,0:0:0:0:
152,101,83974,6,0,P|124:124|97:153,1,63.7500024318696,0|0,1:0|0:0,0:0:0:0:
94,132,84161,2,0,P|116:109|141:89,1,63.7500024318696
304,61,84349,6,0,P|332:84|359:113,1,63.7500024318696,8|0,1:2|0:0,0:0:0:0:
362,92,84536,2,0,P|340:69|315:49,1,63.7500024318696
182,199,84724,5,0,1:0:0:0:
275,147,84817,1,0,0:0:0:0:
176,168,84911,1,8,0:2:0:0:
255,210,85006,1,0,0:0:0:0:
203,95,85099,6,0,P|335:79|463:44,1,255.000009727478,2|0,1:0|0:0,0:0:0:0:
430,33,85380,1,0,0:0:0:0:
390,190,85474,6,0,P|394:159|372:185,1,85,4|0,1:0|0:0,0:0:0:0:
370,182,85660,2,0,P|339:178|365:200,1,85,0|8,0:0|0:2,0:0:0:0:
420,310,85849,6,0,B|464:280|464:280|444:312,1,85,8|0,1:2|0:0,0:0:0:0:
447,306,86036,2,0,B|491:336|491:336|471:304,1,85,0|8,0:0|0:2,0:0:0:0:
146,109,86224,6,0,P|146:66|167:107,1,106.25,0|8,1:0|0:2,0:0:0:0:
176,93,86411,2,0,P|176:136|197:95,1,106.25,0|8,0:0|0:2,0:0:0:0:
67,305,86599,6,0,B|72:261|72:261|96:324,1,106.25,0|8,1:0|0:2,0:0:0:0:
94,318,86786,2,0,B|89:274|89:274|65:337,1,106.25,0|8,0:0|0:2,0:0:0:0:
455,198,86974,6,0,P|444:156|446:197,1,116.875001114607,0|0,1:0|0:0,0:0:0:0:
56,140,87161,5,0,0:0:0:0:
56,140,87255,1,8,0:2:0:0:
56,140,87349,2,0,B|71:179|71:179|54:97,1,116.875001114607,8|0,1:2|0:0,0:0:0:0:
416,43,87536,5,0,0:0:0:0:
416,43,87630,1,8,0:2:0:0:
416,43,87724,2,0,P|374:71|413:82,1,116.875001114607,0|8,1:0|0:2,0:0:0:0:
232,374,87911,5,0,0:0:0:0:
232,374,88005,1,8,0:2:0:0:
121,349,88099,2,0,B|159:334|159:334|213:37|213:37|251:21,1,382.500014591218,8|0,1:0|0:0,0:0:0:0:
249,21,88474,6,0,L|362:35,1,85,4|0,1:0|0:0,0:0:0:0:
401,74,88661,2,0,L|514:88,1,85,0|2,3:3|0:2,0:0:0:0:
333,31,88849,2,0,L|310:120,1,85,8|0,0:0|0:0,0:0:0:0:
379,176,89036,5,2,3:2:0:0:
388,161,89130,1,0,0:0:0:0:
307,209,89224,1,2,3:2:0:0:
291,201,89318,1,0,0:0:0:0:
381,267,89411,1,8,0:0:0:0:
381,267,89505,1,2,3:2:0:0:
381,267,89599,2,0,L|396:354,1,85
395,350,89786,1,6,1:2:0:0:
276,49,89974,5,2,3:2:0:0:
213,122,90067,1,0,3:3:0:0:
131,71,90161,2,0,L|421:108,1,255.000009727478,4|12,1:2|0:2,0:0:0:0:
20,193,90536,5,2,3:2:0:0:
17,215,90630,1,0,0:0:0:0:
98,173,90724,1,2,3:2:0:0:
114,192,90817,2,0,B|143:157|143:157|129:102,1,85,0|8,0:0|0:0,0:0:0:0:
83,275,91005,1,2,3:2:0:0:
149,330,91099,2,0,L|203:314,2,42.5
83,275,91286,1,6,1:2:0:0:
326,286,91474,6,0,L|351:386,1,85,4|0,1:0|0:0,0:0:0:0:
415,171,91661,2,0,L|489:98,1,85,0|2,3:3|0:2,0:0:0:0:
272,142,91849,2,0,L|172:114,1,85,8|0,0:0|0:0,0:0:0:0:
86,239,92036,5,2,3:2:0:0:
159,250,92130,1,0,0:0:0:0:
119,142,92224,1,2,3:2:0:0:
190,119,92317,2,0,B|243:99|243:99|227:226,1,170,0|2,0:0|3:2,0:0:0:0:
228,211,92599,1,0,0:0:0:0:
228,211,92692,1,0,0:0:0:0:
242,296,92786,2,0,B|267:332|267:332|272:286,1,85,6|0,1:2|0:0,0:0:0:0:
467,51,92974,6,0,B|455:113|455:113|336:144|336:144|382:220,1,255.000009727478,6|0,1:2|3:3,0:0:0:0:
133,211,93255,2,0,B|164:361|164:361|279:267,1,255.000009727478,6|0,1:2|0:0,0:0:0:0:
398,286,93536,2,0,B|321:272|321:272|262:178|262:178|202:231,1,255.000009727478,6|2,1:2|0:2,0:0:0:0:
242,296,93817,1,4,1:2:0:0:
133,211,93911,6,0,L|-13:195,1,127.500004863739,8|2,0:0|0:2,0:0:0:0:
379,211,94099,2,0,L|525:195,1,127.500004863739,4|0,1:2|0:0,0:0:0:0:
259,107,94286,1,6,1:2:0:0:
259,107,94474,6,0,P|301:142|362:122,1,106.25,4|0,1:0|0:0,0:0:0:0:
275,237,94661,1,0,3:0:0:0:
348,133,94755,2,0,B|221:122|276:197|145:186,1,212.5,2|0,3:2|0:0,0:0:0:0:
149,186,95036,1,2,3:2:0:0:
149,186,95130,1,0,3:0:0:0:
67,159,95224,5,8,1:0:0:0:
107,252,95317,1,0,0:0:0:0:
100,139,95411,1,0,3:0:0:0:
74,245,95505,2,0,L|66:321,2,63.7500024318696,2|8|0,3:2|1:0|0:0,0:0:0:0:
232,38,95786,1,6,3:2:0:0:
232,38,95974,6,0,P|260:98|280:194,1,148.750001418591,4|0,1:2|0:0,0:0:0:0:
350,229,96161,1,0,3:0:0:0:
278,178,96255,2,0,B|237:178|208:131|254:73|330:108|382:149,1,212.5,2|0,3:2|0:0,0:0:0:0:
370,140,96536,1,2,3:2:0:0:
370,140,96630,1,0,3:0:0:0:
350,229,96724,5,8,1:0:0:0:
453,231,96817,1,0,0:0:0:0:
365,252,96911,1,0,3:0:0:0:
459,207,97005,2,0,L|477:277,2,63.7500024318696,2|8|0,3:2|1:0|0:0,0:0:0:0:
249,360,97286,1,6,3:2:0:0:
249,360,97474,6,0,L|151:350,1,85,4|0,1:2|0:0,0:0:0:0:
37,262,97661,1,0,0:0:0:0:
109,269,97755,2,0,L|207:279,1,85,2|0,0:2|0:0,0:0:0:0:
193,277,97942,1,0,0:0:0:0:
278,239,98036,2,0,L|376:249,1,85,6|0,0:2|0:0,0:0:0:0:
176,186,98224,6,0,L|123:192,2,42.5,4|0|0,0:2|0:0|0:0,0:0:0:0:
253,144,98411,1,0,0:0:0:0:
74,141,98505,2,0,L|21:147,2,42.5,2|0|0,0:2|0:0|0:0,0:0:0:0:
151,99,98692,1,0,0:0:0:0:
167,263,98786,2,0,L|173:316,2,42.5,2|0|0,0:2|0:0|0:0,0:0:0:0:
261,364,98974,6,0,B|242:251|297:305|275:159,2,191.250007295609,0|0|0,3:2|3:2|3:2,0:0:0:0:
221,114,99724,6,0,P|225:86|231:36,1,63.7500024318696,8|0,1:0|0:0,0:0:0:0:
76,104,99974,6,0,B|56:116|24:123|24:123|182:146|96:96|238:116,1,255.000009727478,4|0,1:2|0:0,0:0:0:0:
383,138,100224,6,0,B|300:118|300:118|267:192|267:192|177:221|177:221|220:161,1,297.500002837181,4|0,1:2|0:0,0:0:0:0:
358,51,100474,6,0,B|385:13|385:13|427:231,1,255.000009727478,4|0,1:0|0:0,0:0:0:0:
410,232,100849,5,8,1:0:0:0:
322,354,100942,2,0,P|330:304|343:260,1,85,0|8,0:0|0:2,0:0:0:0:
449,303,101130,2,0,B|476:327|476:327|396:310|396:310|375:319|375:319|247:290,1,255.000009727478,4|8,1:0|0:2,0:0:0:0:
160,317,101411,1,4,1:0:0:0:
165,329,101505,1,8,0:2:0:0:
80,269,101599,5,8,1:0:0:0:
66,189,101692,1,0,3:0:0:0:
130,217,101786,1,0,3:0:0:0:
14,239,101880,1,0,3:0:0:0:
144,204,101974,6,0,L|250:223,1,85,4|2,1:0|3:2,0:0:0:0:
478,128,102161,2,0,P|438:144|387:154,1,85,4|2,1:0|3:2,0:0:0:0:
196,102,102349,6,0,B|182:67|182:67|249:41|249:41|323:106|323:106|267:155,1,255.000009727478,8|8,1:0|0:2,0:0:0:0:
355,296,102630,2,0,B|378:316|378:316|274:332|274:332|325:217,1,255.000009727478,4|8,1:0|0:2,0:0:0:0:
432,56,102911,5,4,1:0:0:0:
446,60,103005,1,8,0:2:0:0:
352,12,103099,5,8,1:0:0:0:
267,43,103192,1,0,3:0:0:0:
200,67,103286,1,0,3:0:0:0:
159,83,103380,1,0,3:0:0:0:
139,91,103474,6,0,B|127:73|127:73|103:194,1,127.500004863739,4|0,1:0|0:0,0:0:0:0:
90,206,103661,2,0,B|102:188|102:188|122:291,1,127.500004863739,4|0,1:0|0:0,0:0:0:0:
87,363,103849,5,8,1:0:0:0:
38,264,103942,2,0,P|14:324|3:367,1,85,0|8,0:0|0:2,0:0:0:0:
48,121,104130,6,0,P|119:225|178:364,1,255.000009727478,4|8,1:0|0:2,0:0:0:0:
323,321,104411,1,4,1:0:0:0:
318,338,104505,1,8,0:2:0:0:
381,366,104599,5,8,1:0:0:0:
361,263,104692,1,0,3:0:0:0:
232,261,104786,1,0,3:0:0:0:
252,363,104879,1,0,3:0:0:0:
405,342,104974,6,0,L|439:70,1,255.000009727478,4|0,1:2|3:0,0:0:0:0:
435,57,105349,6,2,B|485:83|485:83|418:135|418:135|348:112|348:112|326:156|326:156|271:153|271:153|256:180|256:180|215:201,1,382.500014591218,0|0,3:2|0:2,3:2:0:0:
167,132,106099,6,0,L|176:81,1,42.5,2|2,2:0|2:0,0:0:0:0:
102,70,106286,2,0,L|111:19,1,42.5,2|2,2:0|2:0,0:0:0:0:
248,53,106474,6,0,B|261:52|261:52|184:27|184:27|212:152|212:152|162:183|162:183|123:284|123:284|188:239,1,446.250004255772,4|0,1:0|0:0,0:0:0:0:
190,269,106849,5,8,1:0:0:0:
282,333,106942,2,0,P|240:343|186:369,1,85,0|8,0:0|0:2,0:0:0:0:
53,283,107130,2,0,B|-5:262|-5:262|69:244|69:244|103:356,1,255.000009727478,4|8,1:0|0:2,0:0:0:0:
274,246,107411,5,4,1:0:0:0:
275,237,107505,1,8,0:2:0:0:
396,273,107599,5,8,1:0:0:0:
469,289,107692,1,0,3:0:0:0:
445,227,107786,1,0,3:0:0:0:
421,337,107880,1,0,3:0:0:0:
464,213,107974,6,0,L|438:111,1,85,4|2,1:0|3:2,0:0:0:0:
319,6,108161,2,0,P|304:49|287:108,1,85,4|2,1:0|3:2,0:0:0:0:
476,60,108349,6,0,B|493:49|499:35|499:35|439:34|392:90|442:109|394:158|331:167,1,255.000009727478,8|8,1:0|0:2,0:0:0:0:
117,55,108630,2,0,B|78:12|78:12|278:101,1,255.000009727478,4|8,1:0|0:2,0:0:0:0:
274,239,108911,5,4,1:0:0:0:
287,242,109005,1,8,0:2:0:0:
229,170,109099,5,8,1:0:0:0:
162,229,109192,1,0,3:0:0:0:
191,301,109286,1,0,3:0:0:0:
207,349,109380,1,0,3:0:0:0:
186,365,109474,6,0,B|89:342|89:342|111:365,1,127.500004863739,4|0,1:0|0:0,0:0:0:0:
286,325,109661,2,0,B|383:302|383:302|361:325,1,127.500004863739,4|0,1:0|0:0,0:0:0:0:
472,275,109849,5,8,1:0:0:0:
346,171,109942,2,0,P|386:188|437:202,1,85,0|8,0:0|0:2,0:0:0:0:
176,192,110130,6,0,P|258:173|455:94,1,255.000009727478,4|8,1:0|0:2,0:0:0:0:
469,38,110411,5,4,1:0:0:0:
460,22,110505,1,8,0:2:0:0:
492,144,110599,5,8,1:0:0:0:
393,101,110692,1,0,3:0:0:0:
291,62,110786,1,0,3:0:0:0:
283,83,110880,1,0,3:0:0:0:
233,7,110974,6,0,P|271:102|316:278,1,255.000009727478,4|0,1:2|0:0,0:0:0:0:
222,272,111349,1,0,3:2:0:0:
161,200,111724,1,0,3:2:0:0:
491,291,112099,6,0,B|505:278|505:278|400:204|400:204|388:327|388:327|286:305|286:305|269:335|269:335|195:354,1,446.250004255772,8|0,1:1|0:0,0:0:0:0:
92,310,112474,6,0,B|-7:257|27:134|27:134|77:158,1,255.000009727478,4|2,1:0|0:2,0:0:0:0:
71,155,112755,1,0,0:0:0:0:
212,194,112849,6,0,P|174:215|138:255,1,85,8|0,1:0|0:0,0:0:0:0:
145,244,113036,1,2,0:2:0:0:
134,101,113130,2,0,B|120:62|107:23|107:23|83:13,1,106.25,4|0,1:0|0:0,0:0:0:0:
220,102,113317,5,0,0:0:0:0:
238,69,113411,1,4,1:0:0:0:
237,116,113505,1,4,1:0:0:0:
79,207,113599,6,0,B|66:162|66:162|33:312|33:312|147:281,1,318.75,8|0,1:0|0:0,0:0:0:0:
236,360,113974,5,4,1:0:0:0:
229,256,114067,1,0,0:0:0:0:
287,309,114161,1,4,1:0:0:0:
215,325,114255,1,0,0:0:0:0:
361,349,114349,6,0,B|370:301|370:301|365:296|365:296|371:294|371:294|381:239,1,106.25,8|0,1:0|0:0,0:0:0:0:
141,97,114536,1,2,0:2:0:0:
181,191,114630,2,0,B|191:215|191:215|218:213|218:213|226:185|226:185|206:172,1,106.25,4|0,1:0|0:0,0:0:0:0:
268,69,114817,5,0,0:0:0:0:
259,111,114911,1,4,1:0:0:0:
291,64,115005,1,4,1:0:0:0:
382,204,115099,6,0,B|356:171|315:168|315:168|330:163|343:153,1,106.25,8|0,1:0|0:0,0:0:0:0:
193,307,115286,2,0,B|219:274|260:271|260:271|245:266|232:256,1,106.25,2|0,0:2|0:0,0:0:0:0:
436,332,115474,6,0,B|480:343|480:343|330:369|330:369|366:262,1,297.500002837181,4|4,1:0|1:0,0:0:0:0:
361,274,115755,1,0,0:0:0:0:
298,174,115849,5,8,1:0:0:0:
281,241,115942,1,0,0:0:0:0:
274,201,116036,1,2,0:2:0:0:
359,125,116130,6,0,P|305:49|202:92,1,212.5,4|0,1:0|0:0,0:0:0:0:
205,196,116411,1,4,1:0:0:0:
229,122,116505,1,4,1:0:0:0:
126,196,116599,5,8,1:0:0:0:
126,196,116692,1,2,0:2:0:0:
149,279,116786,5,2,0:2:0:0:
149,279,116879,1,2,0:2:0:0:
281,206,116974,6,0,P|164:230|28:266,1,255.000009727478,4|8,1:2|3:3,0:0:0:0:
33,265,117255,1,8,3:3:0:0:
6,356,117349,1,4,3:3:0:0:
297,81,117599,6,0,B|290:54|290:54|405:26|405:26|501:104|501:104|483:125,1,297.500002837181,4|0,1:2|0:0,0:0:0:0:
316,219,117849,2,0,B|222:229|222:229|370:167|370:167|380:121,1,297.500002837181,4|0,1:2|0:0,0:0:0:0:
477,343,118099,6,0,B|473:328|473:328|421:308|395:251,1,127.500004863739,4|0,1:2|0:0,0:0:0:0:
35,181,118286,2,0,B|38:195|38:195|90:215|116:272,1,127.500004863739,4|0,1:2|0:0,0:0:0:0:
477,158,118474,6,0,B|480:45|357:13|357:13|352:69,1,255.000009727478,4|2,1:0|0:2,0:0:0:0:
352,61,118849,6,0,P|309:57|281:85,1,85,0|0,1:0|3:0,0:0:0:0:
202,85,119036,1,8,0:2:0:0:
306,202,119130,6,0,P|309:174|319:146,2,42.5,2|0|0,0:2|0:0|1:0,0:0:0:0:
203,214,119317,2,0,P|191:188|186:159,2,42.5,4|0|0,3:2|0:0|0:0,0:0:0:0:
189,175,119505,5,0,3:0:0:0:
167,295,119599,2,0,P|194:298|222:308,1,42.5,8|0,1:2|0:0,0:0:0:0:
113,227,119786,2,0,P|96:249|73:268,1,42.5,6|0,3:2|0:0,0:0:0:0:
85,258,119974,6,0,B|161:266|161:266|170:275|170:275|254:281,1,170,4|2,1:0|3:2,0:0:0:0:
250,280,120349,6,0,P|236:237|258:208,1,85,0|0,1:0|3:0,0:0:0:0:
331,176,120536,1,8,0:2:0:0:
365,315,120630,6,0,P|389:323|410:338,2,42.5,2|0|0,0:2|0:0|1:0,0:0:0:0:
404,231,120817,2,0,P|428:225|454:228,2,42.5,4|0|0,3:2|0:0|3:0,0:0:0:0:
445,226,121005,5,0,3:0:0:0:
331,176,121099,2,0,P|323:200|308:221,1,42.5,8|0,1:2|3:0,0:0:0:0:
414,141,121286,2,0,P|397:122|386:98,1,42.5,6|0,3:2|3:0,0:0:0:0:
389,28,121474,5,4,1:0:0:0:
342,22,121567,1,0,1:0:0:0:
275,36,121661,1,2,1:2:0:0:
235,103,121756,1,8,1:2:0:0:
247,187,121849,1,0,1:0:0:0:
316,244,121942,1,0,1:0:0:0:
270,162,122036,1,8,1:2:0:0:
241,277,122130,1,2,1:2:0:0:
157,285,122224,6,0,P|143:267|124:254,2,42.5,0|0|4,1:0|0:0|1:2,0:0:0:0:
82,185,122411,2,0,P|68:203|49:216,2,42.5,0|0|0,1:0|0:0|1:0,0:0:0:0:
166,183,122599,2,0,P|171:154|182:131,6,53.125,8|0|0|0|6|0|0,1:2|0:0|1:0|0:0|1:2|0:0|1:0,0:0:0:0:
119,77,122974,6,0,B|201:101|201:101|223:77|223:77|370:36|370:36|354:64,1,297.500002837181,4|0,1:2|0:0,0:0:0:0:
202,312,123255,6,0,B|180:215|180:215|264:367|264:367|301:374,1,297.500002837181,4|0,1:2|0:0,0:0:0:0:
491,96,123536,6,0,B|468:108|468:108|403:289|403:289|303:308,1,297.500002837181,4|0,1:2|0:0,0:0:0:0:
26,194,123817,6,0,B|12:118|12:118|216:237,1,297.500002837181,4|0,1:2|0:0,0:0:0:0:
403,63,124099,6,0,L|355:209,1,148.750001418591,4|0,1:2|0:0,0:0:0:0:
287,243,124286,2,0,P|301:275|310:302,1,63.7500024318696,0|0,3:0|3:0,0:0:0:0:
468,348,124474,5,0,3:0:0:0:
256,192,124661,12,0,128974,0:0:0:0:
256,192,134974,12,8,136099,1:0:0:0:
99,180,136474,6,0,L|92:237,1,53.125,0|0,3:0|3:0,0:0:0:0:
92,232,136849,6,0,L|188:224,1,85
176,224,137036,2,0,L|193:126,1,85
274,147,137224,1,2,0:3:0:0:
265,205,137317,1,0,0:0:0:0:
256,264,137411,1,0,0:0:0:0:
190,140,137599,2,0,L|286:148,1,85,2|0,0:3|0:0,0:0:0:0:
256,264,137786,2,0,L|278:355,1,85
365,266,137974,5,0,3:0:0:0:
365,266,138067,1,0,3:0:0:0:
388,35,138349,6,0,L|289:50,1,85
303,47,138536,2,0,L|317:138,1,85
197,131,138724,2,0,L|210:47,1,85,2|0,0:3|0:0,0:0:0:0:
125,34,138911,2,0,L|224:49,1,85
315,131,139099,5,2,0:3:0:0:
327,159,139192,1,0,0:0:0:0:
197,131,139286,1,0,0:0:0:0:
185,159,139379,1,0,0:0:0:0:
258,186,139474,5,0,3:0:0:0:
258,186,139567,1,0,3:0:0:0:
458,355,139849,6,0,L|362:344,1,85
374,346,140036,2,0,L|427:256,1,85
399,165,140224,1,2,0:3:0:0:
366,214,140317,1,0,0:0:0:0:
333,263,140411,1,0,0:0:0:0:
240,139,140599,2,0,L|350:151,1,85,2|0,0:3|0:0,0:0:0:0:
417,272,140786,2,0,L|307:260,1,85
218,238,140974,5,0,3:0:0:0:
166,281,141067,1,0,3:0:0:0:
135,341,141161,1,0,3:0:0:0:
94,286,141255,1,0,3:0:0:0:
39,245,141349,6,0,P|22:205|52:165,1,85,0|0,3:0|0:0,0:0:0:0:
40,171,141536,2,0,P|86:166|117:198,1,85,0|0,3:0|0:0,0:0:0:0:
218,238,141724,2,0,B|207:283|229:321|229:321|270:314|294:262,1,170,2|0,0:3|0:0,0:0:0:0:
381,200,142099,2,0,B|420:261|386:330|386:330|314:321|280:250,1,255,2|0,0:3|0:0,0:0:0:0:
300,184,142474,5,0,3:0:0:0:
289,268,142567,2,0,B|407:253|347:318|473:289,1,187.000005706787,0|0,3:0|0:0,0:0:0:0:
468,290,142849,6,2,B|476:237|476:237|485:234|485:234|495:166,1,127.5,0|0,0:0|0:0,0:1:0:0:
427,108,143224,5,2,0:3:0:0:
369,122,143317,1,0,0:0:0:0:
311,137,143411,2,0,L|293:34,1,85
296,54,143599,2,0,L|206:41,1,85,2|0,0:3|0:0,0:0:0:0:
236,155,143786,2,0,L|131:175,1,85
85,123,143974,5,0,3:0:0:0:
85,123,144067,1,0,3:0:0:0:
392,338,144349,6,0,L|308:345,1,85
204,345,144536,2,0,L|119:338,1,85
197,260,144724,2,0,L|204:344,1,85,2|0,0:3|0:0,0:0:0:0:
307,345,144911,2,0,L|315:261,1,85
205,173,145099,5,2,0:3:0:0:
195,148,145192,1,0,0:0:0:0:
307,173,145286,1,0,0:0:0:0:
317,148,145379,1,0,0:0:0:0:
256,104,145474,5,0,3:0:0:0:
256,104,145567,1,0,3:0:0:0:
416,296,145849,6,0,P|445:265|451:208,1,85
159,147,146036,2,0,P|162:203|185:245,1,85
96,296,146224,2,0,P|67:265|61:208,1,85,2|0,0:3|0:0,0:0:0:0:
352,146,146411,2,0,P|353:189|338:228,1,85
256,344,146599,2,0,B|276:240|232:276|260:156,1,170,2|0,0:3|0:0,0:0:0:0:
255,175,146880,1,0,0:0:0:0:
188,136,146974,5,0,3:0:0:0:
214,103,147067,1,0,3:0:0:0:
255,91,147161,1,0,3:0:0:0:
296,101,147255,1,0,3:0:0:0:
188,136,147349,6,0,B|142:93|142:93|206:21|206:21|304:43|304:43|296:109,1,318.75,0|0,3:0|0:0,0:0:0:0:
361,212,147724,6,0,B|402:232|456:225|456:225|422:195|363:191,1,191.250007295609,2|0,0:3|0:0,0:0:0:0:
296,101,148099,6,0,B|292:167|292:167|285:174|285:174|281:243,1,141.666666666667,8|0,1:0|0:0,0:0:0:0:
255,341,148286,2,0,B|259:275|259:275|266:268|266:268|270:199,1,141.666666666667
133,199,148474,6,0,P|162:218|179:256,1,63.7500024318696,0|0,3:0|0:0,0:0:0:0:
375,292,148661,2,0,P|346:311|329:349,1,63.7500024318696,2|0,3:2|0:0,0:0:0:0:
142,324,148849,5,8,0:2:0:0:
130,328,148942,1,2,0:2:0:0:
117,333,149036,1,0,3:0:0:0:
67,262,149130,6,0,B|42:256|42:256|37:259|37:259|-3:252,1,63.7500024318696,2|0,0:2|3:0,0:0:0:0:
227,179,149317,2,0,B|252:173|252:173|257:176|257:176|297:169,1,63.7500024318696,2|8,0:2|0:2,0:0:0:0:
68,130,149505,1,0,3:0:0:0:
52,60,149599,2,0,P|92:60|113:78,1,63.7500024318696,2|0,0:2|0:0,0:0:0:0:
326,92,149786,5,8,3:2:0:0:
337,86,149880,1,0,0:0:0:0:
253,53,149974,6,0,L|185:71,1,63.7500024318696,0|0,0:2|0:0,0:0:0:0:
414,119,150161,2,0,P|450:98|459:66,1,63.7500024318696,2|0,3:2|0:0,0:0:0:0:
392,23,150349,1,8,0:2:0:0:
326,171,150442,2,0,B|336:208|343:198|352:234,1,63.7500024318696,2|0,0:2|3:0,0:0:0:0:
500,354,150630,1,2,0:2:0:0:
449,285,150724,5,8,0:2:0:0:
441,290,150817,1,2,0:2:0:0:
389,353,150911,5,0,0:0:0:0:
378,341,151005,1,0,3:0:0:0:
281,283,151099,6,0,L|208:299,1,63.7500024318696,2|0,0:2|0:0,0:0:0:0:
167,218,151286,2,0,B|137:226|137:226|133:231|133:231|94:234,1,63.7500024318696,8|0,3:2|0:0,0:0:0:0:
31,363,151474,6,0,P|64:340|72:310,1,63.7500024318696,0|0,3:0|0:0,0:0:0:0:
78,100,151661,2,0,P|55:127|53:166,1,63.7500024318696,2|0,3:2|0:0,0:0:0:0:
244,174,151849,5,8,0:2:0:0:
255,176,151942,1,2,0:2:0:0:
266,179,152036,1,0,3:0:0:0:
376,103,152130,6,0,B|353:109|353:109|348:106|348:106|315:116,1,63.7500024318696,2|0,0:2|3:0,0:0:0:0:
195,98,152317,2,0,B|188:102|188:102|212:36,1,63.7500024318696,2|8,0:2|0:2,0:0:0:0:
285,29,152505,1,0,3:0:0:0:
244,174,152599,2,0,L|258:252,1,63.7500024318696,2|0,0:2|0:0,0:0:0:0:
347,324,152786,6,0,L|303:316,1,42.5,8|0,3:2|0:0,0:0:0:0:
170,332,152974,6,0,B|153:307|153:307|317:342,1,170,8|2,3:2|0:2,0:0:0:0:
494,347,153255,6,0,B|455:337|455:337|414:259|414:259|366:248,1,170,8|2,3:2|0:2,0:0:0:0:
225,68,153536,6,0,B|199:125|199:125|265:165|265:165|281:243,1,212.5,8|0,3:2|0:0,0:0:0:0:
486,156,153817,6,0,B|515:138|515:138|464:93|464:93|366:157,1,212.5,10|0,3:2|0:0,0:0:0:0:
159,211,154099,6,0,B|116:223|116:223|81:203,1,85,10|0,3:2|0:0,0:0:0:0:
61,60,154286,2,0,B|104:48|104:48|138:67,1,85,8|0,3:2|0:0,0:0:0:0:
49,193,154474,6,0,B|56:165|56:165|62:160|62:160|71:125,1,63.7500024318696,0|0,1:0|1:0,0:0:0:0:
169,72,154661,2,0,B|162:100|162:100|156:105|156:105|147:140,1,63.7500024318696,2|0,3:2|3:0,0:0:0:0:
254,129,154849,5,0,1:0:0:0:
251,211,154942,2,0,L|266:288,1,63.7500024318696,2|0,1:2|3:0,0:0:0:0:
463,193,155130,6,0,B|456:165|456:165|450:160|450:160|441:125,1,63.7500024318696,2|0,3:2|1:0,0:0:0:0:
343,72,155317,2,0,B|350:100|350:100|356:105|356:105|365:140,1,63.7500024318696,2|0,1:2|3:0,0:0:0:0:
256,349,155505,5,0,3:0:0:0:
158,320,155599,2,0,B|100:306|100:306|126:322,1,85,2|0,1:2|1:0,0:0:0:0:
352,379,155786,2,0,B|410:365|410:365|384:381,1,85,0|0,3:0|3:0,0:0:0:0:
206,217,155974,5,0,1:0:0:0:
195,223,156067,1,0,1:0:0:0:
107,203,156161,2,0,P|83:169|96:102,1,85,2|0,3:2|3:0,0:0:0:0:
281,274,156349,1,0,1:0:0:0:
364,238,156442,2,0,P|408:248|439:302,1,85,2|0,1:2|3:0,0:0:0:0:
321,116,156630,6,0,P|280:146|271:191,1,85,2|0,3:2|1:0,0:0:0:0:
500,318,156817,2,0,P|462:353|408:348,1,85,2|0,1:2|3:0,0:0:0:0:
403,147,157005,5,0,3:0:0:0:
315,37,157099,2,0,B|270:27|270:27|263:30|263:30|190:14,1,106.25,2|0,1:2|1:0,0:0:0:0:
67,285,157286,2,0,B|112:295|112:295|119:292|119:292|192:308,1,106.25,0|0,3:0|3:0,0:0:0:0:
446,225,157474,6,0,P|437:255|432:287,6,53.125,0|0|0|0|0|0|0,1:0|0:0|1:0|0:0|3:0|0:0|3:0,0:0:0:0:
338,352,157849,6,0,P|345:326|350:288,6,63.7500024318696,0|0|0|0|0|0|0,1:0|0:0|1:0|0:0|3:0|0:0|3:0,0:0:0:0:
298,223,158224,6,0,P|274:204|214:216,2,74.3750007092953,0|0|0,0:0|2:0|0:0,0:0:0:0:
185,137,158411,6,0,P|146:157|135:200,2,74.3750007092953,0|0|0,0:0|2:0|0:0,0:0:0:0:
130,354,158599,6,0,P|134:330|125:308,1,42.5,0|0,0:0|2:0,0:0:0:0:
164,332,158692,6,0,P|154:310|134:297,1,42.5,0|0,0:0|2:0,0:0:0:0:
181,294,158786,6,0,P|160:281|137:281,1,42.5,0|0,0:0|2:0,0:0:0:0:
175,253,158880,6,0,P|150:254|131:266,1,42.5,0|0,0:0|2:0,0:0:0:0:
61,232,158974,6,0,L|54:278,1,42.5,0|0,1:0|0:0,0:0:0:0:
231,204,159349,6,0,L|224:158,1,42.5,0|0,1:0|0:0,0:0:0:0:
407,242,159724,6,0,L|400:288,1,42.5,0|0,1:0|0:0,0:0:0:0:
358,336,159911,2,0,L|365:290,1,42.5
474,288,160099,6,0,B|417:341|417:341|116:156|116:156|40:196,1,510,0|0,0:0|2:0,0:0:0:0:
70,319,160474,6,0,B|44:290|44:290|78:198|116:79,1,255.000009727478,4|0,1:0|0:0,0:0:0:0:
114,86,160849,5,10,1:1:0:0:
160,266,160942,2,0,P|225:285|271:303,1,106.25,0|0,1:0|0:0,0:0:0:0:
336,19,161129,2,0,P|274:35|272:84,1,106.25,2|4,1:1|0:2,0:0:0:0:
52,153,161317,2,0,P|96:198|140:175,1,106.25,0|0,1:0|0:0,0:0:0:0:
279,154,161505,5,0,1:0:0:0:
203,136,161599,2,0,P|195:103|180:61,1,63.7500024318696,8|0,1:1|0:0,0:0:0:0:
338,240,161786,1,0,1:0:0:0:
330,217,161880,1,0,1:0:0:0:
420,276,161974,6,0,P|378:330|327:320,1,127.500004863739,4|0,1:0|0:0,0:0:0:0:
265,77,162161,2,0,P|332:86|349:135,1,127.500004863739,0|0,1:0|0:0,0:0:0:0:
91,312,162349,5,10,1:1:0:0:
231,269,162442,2,0,B|216:247|216:247|229:208|243:158,1,106.25,0|0,1:0|0:0,0:0:0:0:
97,45,162630,5,2,1:1:0:0:
88,20,162724,1,4,1:2:0:0:
58,135,162817,2,0,P|36:185|16:239,1,106.25,0|0,1:0|0:0,0:0:0:0:
222,338,163005,5,0,1:0:0:0:
196,187,163099,2,0,P|199:130|137:105,1,127.500004863739,2|0,1:3|0:0,0:0:0:0:
116,282,163286,1,0,1:0:0:0:
116,282,163380,1,0,1:0:0:0:
251,253,163474,6,0,B|366:234|366:234|376:220|376:220|496:199,1,255.000009727478,2|0,1:3|0:0,0:0:0:0:
317,163,163849,5,10,1:1:0:0:
430,315,163942,2,0,P|446:275|416:236,1,85,0|0,1:0|0:0,0:0:0:0:
424,47,164130,2,0,P|409:100|392:151,1,106.25,2|4,1:1|0:2,0:0:0:0:
226,268,164317,2,0,P|279:254|332:243,1,106.25,0|0,1:0|0:0,0:0:0:0:
144,132,164505,5,0,1:0:0:0:
101,65,164599,2,0,P|53:55|19:43,1,85,8|0,1:1|0:0,0:0:0:0:
145,343,164786,1,0,1:0:0:0:
154,312,164880,1,0,1:0:0:0:
69,372,164974,6,0,B|40:350|40:350|29:249|6:130,1,255.000009727478,4|0,1:0|0:0,0:0:0:0:
238,194,165349,5,10,1:1:0:0:
336,153,165443,2,0,B|377:125|377:125|340:293|340:293|313:253,1,255.000009727478,0|2,1:0|0:1,0:0:0:0:
45,44,165724,6,0,B|93:24|93:24|135:92,1,127.500004863739,4|0,1:2|0:0,0:0:0:0:
154,312,165911,2,0,B|202:332|202:332|244:264,1,127.500004863739,0|0,1:0|0:0,0:0:0:0:
321,73,166099,6,0,B|368:47|368:47|343:146,1,148.750001418591,2|0,1:3|0:0,0:0:0:0:
427,327,166286,2,0,B|474:353|474:353|449:254,1,148.750001418591,0|0,1:0|0:0,0:0:0:0:
485,125,166474,6,0,B|465:156|465:156|350:180|242:232,1,255.000009727478,2|0,1:3|0:0,0:0:0:0:
314,86,166848,5,10,1:1:0:0:
259,225,166942,2,0,P|227:189|169:200,1,106.25,0|0,1:0|0:0,0:0:0:0:
4,336,167130,2,0,P|58:319|105:304,1,106.25,2|4,1:1|0:2,0:0:0:0:
89,83,167317,2,0,P|76:137|60:189,1,106.25,0|0,1:0|0:0,0:0:0:0:
195,279,167505,5,0,1:0:0:0:
174,196,167599,2,0,P|186:162|196:127,1,63.7500024318696,8|0,1:1|0:0,0:0:0:0:
347,352,167786,1,0,1:0:0:0:
355,328,167880,1,0,1:0:0:0:
436,305,167974,6,0,B|414:202|414:202|262:233,1,255.000009727478,4|0,1:0|0:0,0:0:0:0:
436,305,168349,5,10,1:1:0:0:
508,231,168442,2,0,P|494:171|484:128,1,106.25,0|0,1:0|0:0,0:0:0:0:
326,33,168630,2,0,B|350:18|350:18|382:29|432:43,1,106.25,2|4,1:1|0:2,0:0:0:0:
228,164,168817,2,0,P|292:150|302:107,1,106.25,0|0,1:0|0:0,0:0:0:0:
111,24,169006,5,0,1:0:0:0:
60,103,169099,2,0,B|45:129|45:129|68:169|91:221,1,127.500004863739,2|0,1:3|0:0,0:0:0:0:
174,278,169286,1,0,1:0:0:0:
204,196,169380,1,0,1:0:0:0:
323,174,169474,6,0,B|308:201|308:201|205:234|101:297,1,255.000009727478,2|0,1:3|0:0,0:0:0:0:
17,258,169755,1,2,1:1:0:0:
17,258,169849,1,8,1:1:0:0:
17,258,169942,1,0,1:0:0:0:
51,169,170036,6,0,P|110:180|98:244,1,127.500004863739,2|0,1:1|0:0,0:0:0:0:
81,353,170224,2,0,B|211:342|342:385|342:385|353:351,1,283.050006910401,2|0,1:3|0:0,0:0:0:0:
389,294,170505,1,2,1:1:0:0:
362,204,170599,1,8,1:1:0:0:
333,115,170692,1,0,1:0:0:0:
426,177,170786,6,0,B|376:168|376:168|360:151|360:151|306:144,1,127.500004863739,2|0,1:1|0:0,0:0:0:0:
106,123,170974,1,2,1:3:0:0:
420,344,171161,5,8,1:3:0:0:
460,247,171255,1,8,1:3:0:0:
396,319,171349,2,0,B|305:336|305:336|357:301,1,155.549997211132,4|4,1:3|0:3,0:0:0:0:
160,307,171536,5,0,1:0:0:0:
137,227,171630,1,0,1:0:0:0:
197,318,171724,2,0,B|234:269|234:269|132:306,1,170,4|0,1:2|0:0,0:0:0:0:
90,96,171911,2,0,B|53:145|53:145|155:108,1,170,4|0,1:2|0:0,0:0:0:0:
337,325,172099,6,0,B|318:255|363:193|363:193|353:157,1,170,4|0,1:2|0:0,0:0:0:0:
449,9,172286,2,0,B|468:79|423:141|423:141|433:177,1,170,4|0,1:2|0:0,0:0:0:0:
90,96,172474,6,0,P|128:196|157:361,1,255.000009727478,4|2,1:0|0:2,0:0:0:0:
90,96,172849,5,10,1:1:0:0:
216,202,172942,2,0,P|254:212|273:216,1,42.5,0|2,1:0|0:2,0:0:0:0:
446,283,173130,6,0,B|489:236|489:236|475:155,1,127.500004863739,2|4,1:1|0:2,0:0:0:0:
255,17,173317,2,0,B|240:82|240:82|284:133,1,127.500004863739,0|2,1:0|0:2,0:0:0:0:
361,217,173505,1,0,1:0:0:0:
478,173,173599,2,0,P|429:141|346:151,1,127.500004863739,8|0,1:1|0:0,0:0:0:0:
257,269,173786,1,2,1:2:0:0:
260,307,173880,1,0,1:0:0:0:
90,334,173974,6,0,B|120:227|120:227|264:271,1,255.000009727478,4|2,1:0|0:2,0:0:0:0:
54,175,174349,5,10,1:1:0:0:
187,329,174442,2,0,P|197:377|202:402,1,42.5,0|2,1:0|0:2,0:0:0:0:
358,148,174630,6,0,L|216:130,1,127.500004863739,2|4,1:1|0:2,0:0:0:0:
60,312,174817,2,0,L|202:330,1,127.500004863739,0|2,1:0|0:2,0:0:0:0:
398,236,175005,1,0,1:0:0:0:
232,132,175099,2,0,L|267:-14,1,127.500004863739,2|0,1:3|0:0,0:0:0:0:
483,235,175286,2,0,B|473:300|473:300|399:329,1,127.500004863739,2|0,1:2|0:0,0:0:0:0:
89,204,175474,6,0,B|196:186|196:186|210:168|210:168|366:145,1,255.000009727478,2|2,1:3|0:2,0:0:0:0:
89,204,175849,5,10,1:1:0:0:
214,317,175942,2,0,L|221:258,1,42.5,0|2,1:0|0:2,0:0:0:0:
267,78,176130,6,0,P|216:29|137:29,1,127.500004863739,2|4,1:1|0:2,0:0:0:0:
352,282,176317,2,0,P|443:273|474:231,1,127.500004863739,0|2,1:0|0:2,0:0:0:0:
358,164,176505,1,0,1:0:0:0:
266,246,176599,2,0,B|260:300|260:300|270:321|270:321|263:386,1,127.500004863739,8|0,1:1|0:0,0:0:0:0:
157,155,176786,1,2,1:2:0:0:
154,122,176880,1,0,1:0:0:0:
272,52,176974,6,0,B|315:137|315:137|153:155,1,255.000009727478,4|2,1:0|0:2,0:0:0:0:
379,96,177349,5,10,1:1:0:0:
192,69,177442,2,0,L|123:62,1,42.5,0|2,1:0|0:2,0:0:0:0:
267,365,177630,6,0,L|292:203,1,127.500004863739,2|4,1:1|0:2,0:0:0:0:
150,65,177817,2,0,B|112:119|112:119|134:177,1,127.500004863739,0|2,1:0|0:2,0:0:0:0:
228,195,178005,1,0,1:0:0:0:
132,269,178099,2,0,B|81:282|81:282|69:300|69:300|4:315,1,127.500004863739,2|0,1:3|0:0,0:0:0:0:
386,334,178286,2,0,B|424:280|424:280|402:222,1,127.500004863739,2|0,1:2|0:0,0:0:0:0:
255,119,178474,6,0,L|276:391,1,255.000009727478,2|2,1:3|0:2,0:0:0:0:
175,244,178849,5,10,1:1:0:0:
345,208,178942,2,0,L|351:276,1,42.5,0|2,1:0|0:2,0:0:0:0:
177,58,179130,6,0,B|224:16|224:16|292:33,1,127.500004863739,2|4,1:1|0:2,0:0:0:0:
476,262,179317,2,0,L|330:248,1,127.500004863739,0|2,1:0|0:2,0:0:0:0:
196,172,179505,1,0,1:0:0:0:
354,151,179599,1,8,1:1:0:0:
354,151,179692,1,0,1:0:0:0:
354,151,179786,2,0,L|381:-5,1,127.500004863739,2|0,1:2|0:0,0:0:0:0:
177,58,179974,6,0,L|37:80,1,127.500004863739,4|0,1:0|0:0,0:0:0:0:
335,326,180161,2,0,L|475:304,1,127.500004863739,2|0,1:2|0:0,0:0:0:0:
256,192,180349,5,10,1:1:0:0:
256,304,180442,2,0,L|256:360,1,42.5,0|2,1:0|0:2,0:0:0:0:
171,367,180630,6,0,L|155:231,1,127.500004863739,2|4,1:1|0:2,0:0:0:0:
348,267,180817,2,0,L|363:126,1,127.500004863739,0|2,1:0|0:2,0:0:0:0:
256,192,181005,1,0,1:0:0:0:
156,241,181099,2,0,L|140:105,1,127.500004863739,2|0,1:3|0:0,0:0:0:0:
304,33,181286,5,2,1:2:0:0:
362,140,181380,1,0,1:0:0:0:
456,73,181474,6,0,B|380:45|380:45|347:116|347:116|254:139|254:139|302:90,1,297.500002837181,2|2,1:3|0:2,0:0:0:0:
284,109,181755,6,2,P|324:196|328:275,1,170,0|0,1:1|0:1,0:1:0:0:
273,324,182036,5,2,1:1:0:0:
389,364,182130,1,0,1:0:0:0:
329,269,182224,6,0,B|287:235|287:235|220:249|220:249|188:312|188:312|117:326|117:326|78:293,1,297.500002837181,2|2,1:3|0:2,0:0:0:0:
93,306,182505,6,2,B|131:199|61:240|112:119,1,170,0|0,1:1|0:1,0:1:0:0:
174,116,182786,5,2,1:1:0:0:
65,69,182880,1,0,1:0:0:0:
212,41,182974,6,0,B|315:19|315:19|298:99|298:99|306:101|306:101|298:99|298:99|276:197,1,297.500002837181,2|8,1:3|0:3,0:0:0:0:
237,266,183255,5,8,1:3:0:0:
393,317,183349,2,0,L|449:329,1,42.5,4|4,1:3|0:3,0:0:0:0:
278,190,183536,6,0,P|220:182|161:217,1,127.500004863739,0|0,1:0|3:0,0:0:0:0:
74,139,183724,2,0,P|151:255|182:389,1,255.000009727478,4|0,1:2|0:0,0:0:0:0:
339,45,184099,5,4,1:2:0:0:
326,129,184192,1,0,1:0:0:0:
352,55,184286,5,4,1:2:0:0:
339,139,184379,1,0,1:0:0:0:
367,64,184474,6,0,B|400:34|400:34|496:71,1,127.500004863739,4|0,1:0|0:0,0:0:0:0:
227,8,184661,2,0,B|127:44|127:44|110:75|110:75|-34:118,1,255.000009727478,2|10,1:2|0:1,0:0:0:0:
256,177,184942,5,0,1:0:0:0:
271,185,185036,1,10,1:2:0:0:
175,128,185130,6,0,B|153:124|153:124|126:44,1,106.25,2|4,1:1|0:2,0:0:0:0:
352,230,185317,2,0,P|374:278|392:328,1,106.25,8|2,1:2|0:2,0:0:0:0:
172,221,185505,5,0,1:0:0:0:
76,319,185599,2,0,L|92:252,1,63.7500024318696,8|0,1:1|0:0,0:0:0:0:
339,139,185786,5,10,1:2:0:0:
261,86,185880,1,0,1:0:0:0:
409,73,185974,6,0,B|460:53|445:33|493:10,1,106.25,4|0,1:0|0:0,0:0:0:0:
326,23,186161,2,0,P|406:121|465:253,1,255.000009727478,2|10,1:2|0:1,0:0:0:0:
269,373,186442,5,0,1:0:0:0:
308,274,186536,1,10,1:2:0:0:
410,306,186630,2,0,B|434:326|434:326|474:320,1,63.7500024318696,2|4,1:1|0:2,0:0:0:0:
201,291,186817,5,8,1:2:0:0:
97,308,186911,1,2,1:2:0:0:
75,290,187005,5,0,1:0:0:0:
225,305,187099,2,0,L|214:370,1,63.7500024318696,2|0,1:3|0:0,0:0:0:0:
64,204,187286,2,0,B|46:195|46:195|25:118,1,85,10|0,1:2|0:0,0:0:0:0:
261,86,187474,6,0,B|338:46|338:46|201:15|201:15|115:151,1,382.500014591218,2|8,1:3|0:2,0:0:0:0:
69,57,187849,5,10,1:1:0:0:
214,161,187942,1,0,1:0:0:0:
209,179,188036,1,10,1:2:0:0:
303,152,188130,6,0,B|349:163|349:163|361:176|361:176|423:178,1,106.25,2|4,1:1|0:2,0:0:0:0:
144,252,188317,2,0,P|83:274|25:302,1,106.25,8|2,1:2|0:2,0:0:0:0:
384,100,188505,5,0,1:0:0:0:
473,143,188599,2,0,L|497:212,1,63.7500024318696,8|0,1:1|0:0,0:0:0:0:
249,343,188786,5,10,1:2:0:0:
267,261,188880,1,0,1:0:0:0:
424,336,188974,6,0,P|373:323|306:312,1,85,4|0,1:0|0:0,0:0:0:0:
78,174,189161,2,0,P|129:161|196:150,1,85,2|8,1:2|0:2,0:0:0:0:
352,219,189349,5,10,1:1:0:0:
249,343,189442,2,0,B|206:364|206:364|258:182,1,212.5,0|2,1:0|0:1,0:0:0:0:
488,56,189724,6,0,B|511:31|511:31|418:87,1,127.500004863739,4|8,1:2|0:2,0:0:0:0:
85,30,189911,2,0,B|62:5|62:5|155:61,1,127.500004863739,2|0,1:2|0:0,0:0:0:0:
395,163,190099,6,0,B|365:98|365:98|350:86|350:86|320:13|320:13|209:76|209:76|191:151|191:151|285:101,1,446.250004255772,2|0,1:3|0:0,0:0:0:0:
275,219,190474,6,0,B|260:280|260:280|262:286|262:286|246:351,1,127.500004863739,2|0,1:3|0:0,0:0:0:0:
465,266,190661,2,0,B|515:313|515:313|397:341|397:341|346:249,1,255.000009727478,2|10,1:2|0:1,0:0:0:0:
166,238,190942,5,0,1:0:0:0:
161,251,191036,1,10,1:2:0:0:
82,334,191130,6,0,B|59:344|59:344|31:244,1,106.25,2|4,1:1|0:2,0:0:0:0:
161,53,191317,2,0,P|142:118|130:163,1,106.25,8|2,1:2|0:2,0:0:0:0:
1,136,191505,5,0,1:0:0:0:
42,5,191599,2,0,L|61:73,1,63.7500024318696,8|0,1:1|0:0,0:0:0:0:
233,146,191786,5,10,1:2:0:0:
355,126,191880,1,0,1:0:0:0:
478,99,191974,6,0,B|504:74|504:74|496:54|496:54|443:95,1,106.25,4|0,1:0|0:0,0:0:0:0:
293,255,192161,2,0,B|237:331|237:331|280:201,1,212.5,2|10,1:2|0:1,0:0:0:0:
388,18,192442,5,0,1:0:0:0:
291,3,192536,1,10,1:2:0:0:
231,79,192630,2,0,B|233:114|233:114|259:139,1,63.7500024318696,2|4,1:1|0:2,0:0:0:0:
412,302,192817,5,8,1:2:0:0:
452,195,192911,1,2,1:2:0:0:
429,169,193005,5,0,1:0:0:0:
443,293,193099,2,0,L|456:363,1,63.7500024318696,2|0,1:3|0:0,0:0:0:0:
347,188,193286,2,0,B|335:164|335:164|350:97,1,85,10|0,1:2|0:0,0:0:0:0:
512,251,193474,6,0,L|91:335,1,382.500014591218,2|0,1:3|0:0,0:0:0:0:
54,168,193849,6,0,B|2:162|2:162|56:131|56:131|73:82|73:82|159:130|159:130|197:125|197:125|313:193|313:193|219:212,1,510,4|0,1:2|0:0,0:0:0:0:
421,48,194224,6,0,B|507:54|507:54|424:22|424:22|374:93|374:93|325:100,1,297.500002837181,4|0,1:2|0:0,0:0:0:0:
171,41,194505,1,0,1:0:0:0:
184,9,194599,6,0,B|236:1|236:1|278:43,1,106.25,4|0,1:2|0:0,0:0:0:0:
409,337,194786,6,0,B|371:299|371:299|379:247,1,106.25,0|0,1:0|0:0,0:0:0:0:
436,81,194974,6,0,B|505:65|505:65|492:7|405:4|356:52|381:113|412:187|464:183|526:123,1,382.500014591218,4|0,1:2|0:0,0:0:0:0:
326,118,195349,6,0,B|252:103|197:157|221:209|275:187|319:221|330:247|331:298|245:316|163:260,1,340,4|0,1:2|0:0,0:0:0:0:
119,354,195724,6,0,B|139:241|139:241|69:279,1,170,4|0,1:2|0:0,0:0:0:0:
66,262,195911,2,0,B|32:218|32:218|6:330,1,170,0|0,3:0|0:0,0:0:0:0:
56,36,196099,6,0,P|172:136|489:316,1,510,2|0,1:0|0:0,0:0:0:0:
503,241,196474,6,0,P|366:266|254:299,1,255.000009727478,4|2,1:0|0:2,0:0:0:0:
255,298,196755,1,8,0:2:0:0:
144,339,196849,2,0,P|132:301|120:270,1,63.7500024318696,0|0,1:0|3:0,0:0:0:0:
81,174,197036,5,8,0:2:0:0:
196,219,197130,2,0,P|203:195|211:178,2,42.5,2|0|0,0:2|0:0|1:0,0:0:0:0:
29,288,197317,2,0,P|22:312|14:329,2,42.5,4|0|0,3:2|0:0|0:0,0:0:0:0:
60,92,197505,5,0,3:0:0:0:
159,173,197599,1,8,1:2:0:0:
183,163,197692,1,0,0:0:0:0:
233,103,197786,2,0,B|253:103|253:103|270:120|290:133,1,63.7500024318696,6|0,3:2|0:0,0:0:0:0:
365,142,197974,6,0,P|377:191|329:223,1,106.25,4|0,1:0|3:0,0:0:0:0:
316,368,198161,2,0,P|267:353|263:296,1,106.25,2|8,3:2|3:2,0:0:0:0:
289,233,198349,5,0,1:0:0:0:
279,203,198442,1,0,3:0:0:0:
377,282,198536,1,8,0:2:0:0:
450,216,198630,6,0,P|457:189|464:164,2,42.5,2|0|0,0:2|0:0|1:0,0:0:0:0:
257,127,198817,2,0,P|250:154|243:179,2,42.5,4|0|0,3:2|0:0|0:0,0:0:0:0:
409,114,199005,5,0,3:0:0:0:
342,203,199099,2,0,P|356:234|368:277,1,63.7500024318696,8|2,1:2|0:2,0:0:0:0:
173,86,199286,2,0,P|159:117|147:160,1,63.7500024318696,6|2,3:2|0:2,0:0:0:0:
29,331,199474,6,0,P|132:261|254:200,1,255.000009727478,4|2,1:0|0:2,0:0:0:0:
248,202,199755,1,8,0:2:0:0:
282,370,199849,2,0,P|258:341|242:316,1,63.7500024318696,0|0,1:0|3:0,0:0:0:0:
394,279,200036,5,8,0:2:0:0:
244,320,200130,2,0,P|253:298|260:275,2,42.5,2|0|0,0:2|0:0|1:0,0:0:0:0:
337,204,200317,2,0,P|328:182|321:159,2,42.5,4|0|0,3:2|0:0|0:0,0:0:0:0:
477,344,200505,5,0,3:0:0:0:
403,309,200599,1,8,1:2:0:0:
394,279,200692,1,0,0:0:0:0:
463,202,200786,1,6,3:2:0:0:
472,172,200879,1,0,0:0:0:0:
399,110,200974,6,0,B|379:92|379:92|340:103|299:109|299:109|292:127,1,127.500004863739,4|0,1:2|0:0,0:0:0:0:
51,253,201161,5,8,0:3:0:0:
167,346,201255,1,8,0:3:0:0:
129,233,201348,1,4,0:3:0:0:
235,228,201442,1,4,0:3:0:0:
170,174,201536,1,0,3:0:0:0:
216,146,201629,1,0,3:0:0:0:
107,108,201724,6,0,P|246:140|362:162,1,255.000009727478,4|0,1:2|0:0,0:0:0:0:
356,161,202005,1,0,3:0:0:0:
215,247,202099,6,0,P|295:154|394:54,1,255.000009727478,4|0,1:2|3:0,0:0:0:0:
387,59,202380,1,0,3:0:0:0:
512,302,202474,6,0,P|376:313|246:341,1,255.000009727478,4|2,1:0|0:2,0:0:0:0:
260,337,202849,5,8,1:0:0:0:
181,310,202942,1,0,3:0:0:0:
106,355,203036,2,0,P|85:311|62:282,1,63.7500024318696,8|2,0:2|0:2,0:0:0:0:
189,139,203224,5,8,1:0:0:0:
222,209,203317,2,0,P|194:249|180:283,1,63.7500024318696,4|0,3:2|0:0,0:0:0:0:
13,220,203505,5,0,3:0:0:0:
47,148,203599,2,0,P|80:161|119:170,1,63.7500024318696,8|0,1:1|0:0,0:0:0:0:
331,223,203786,2,0,P|364:236|403:245,1,63.7500024318696,6|0,3:2|0:0,0:0:0:0:
156,243,203974,6,0,B|163:225|163:225|198:211|243:182,1,106.25,4|0,1:0|3:0,0:0:0:0:
291,81,204161,2,0,B|298:99|298:99|333:113|378:142,1,106.25,2|8,3:2|3:2,0:0:0:0:
451,182,204349,5,8,1:0:0:0:
490,102,204442,1,0,3:0:0:0:
469,206,204536,2,0,P|439:225|411:251,1,63.7500024318696,8|2,0:2|0:2,0:0:0:0:
331,321,204723,5,8,1:0:0:0:
245,344,204817,1,4,3:2:0:0:
223,261,204911,2,0,P|215:227|200:189,1,63.7500024318696,0|0,0:0|3:0,0:0:0:0:
117,180,205099,5,8,1:1:0:0:
32,265,205192,1,0,0:0:0:0:
21,190,205286,1,6,3:2:0:0:
114,289,205380,1,0,0:0:0:0:
154,196,205474,6,0,B|208:185|208:185|215:188|215:188|291:175,1,127.500004863739,4|0,1:0|0:0,0:0:0:0:
216,54,205661,2,0,B|162:43|162:43|155:46|155:46|79:33,1,127.500004863739,2|8,0:2|0:2,0:0:0:0:
327,116,205849,1,8,1:0:0:0:
427,90,205942,1,0,3:0:0:0:
376,186,206037,1,8,0:0:0:0:
397,114,206130,1,2,0:2:0:0:
453,170,206224,6,0,P|463:198|476:222,4,53.125,8|0|4|0|8,1:0|0:0|3:2|0:0|1:0,0:0:0:0:
362,352,206505,5,0,3:0:0:0:
319,251,206599,2,0,P|309:223|296:199,4,53.125,8|0|0|0|6,1:1|0:0|0:0|0:0|3:2,0:0:0:0:
408,274,206881,5,0,0:0:0:0:
252,338,206974,2,0,B|219:326|219:326|168:344|168:344|168:353|168:353|161:346|161:346|77:375|77:375|9:265|9:265|70:297,1,382.500014591218,4|0,1:2|0:0,0:0:0:0:
150,261,207349,6,0,P|138:232|119:216,1,53.125,2|0,0:2|0:0,0:0:0:0:
179,229,207442,6,0,P|154:209|129:205,1,53.125,2|0,0:2|0:0,0:0:0:0:
194,184,207536,6,0,P|162:179|139:188,1,53.125,2|0,0:2|0:0,0:0:0:0:
180,142,207629,6,0,P|151:154|135:173,1,53.125,2|0,0:2|0:0,0:0:0:0:
78,111,207724,6,0,B|33:37|33:37|245:125,1,297.500002837181,4|0,0:2|0:0,0:0:0:0:
465,241,208005,2,0,B|500:103|500:103|420:68|420:68|431:141,1,297.500002837181,4|0,0:2|0:0,0:0:0:0:
402,328,208286,2,0,B|329:305|329:305|273:354,1,148.750001418591,4|0,0:2|0:0,0:0:0:0:
274,352,208474,6,0,B|191:351|191:351|160:370|160:370|19:325|19:325|129:227|129:227|201:286,1,446.250004255772,4|0,1:0|0:0,0:0:0:0:
232,253,208849,5,0,1:0:0:0:
264,259,208942,1,0,3:0:0:0:
270,110,209036,2,0,B|217:149|217:149|233:262,1,170,2|0,0:1|1:0,0:0:0:0:
152,96,209317,6,0,L|107:68,2,42.5,2|0|0,3:1|0:0|0:0,0:0:0:0:
101,292,209505,2,0,L|79:351,2,42.5,2|0|0,3:1|0:0|1:0,0:0:0:0:
149,175,209692,1,0,0:0:0:0:
23,190,209786,2,0,P|85:182|164:174,1,127.5,2|0,3:2|0:0,0:0:0:0:
149,175,209974,6,0,B|187:203|187:203|181:250,1,85,4|0,1:0|0:0,0:0:0:0:
242,304,210161,1,2,0:2:0:0:
341,188,210255,1,2,0:1:0:0:
331,283,210349,5,0,1:0:0:0:
331,283,210442,1,0,3:0:0:0:
331,283,210536,2,0,B|323:192|323:192|314:187|314:187|306:86,1,191.250007295609,2|0,0:1|0:0,0:0:0:0:
316,80,210724,1,0,1:0:0:0:
212,61,210817,2,0,P|187:72|166:80,2,42.5,2|0|0,3:1|0:0|0:0,0:0:0:0:
403,169,211005,2,0,P|445:154|492:139,1,85,2|0,3:1|1:0,0:0:0:0:
124,262,211286,5,2,3:1:0:0:
51,216,211380,1,0,0:0:0:0:
81,335,211474,2,0,B|185:362|185:362|232:202,1,255.000009727478,4|2,1:0|0:2,0:0:0:0:
227,221,211849,5,0,1:0:0:0:
324,212,211942,1,0,3:0:0:0:
284,85,212036,2,0,B|266:34|266:34|382:50|382:50|356:144,1,255.000009727478,2|0,0:1|1:0,0:0:0:0:
324,212,212317,2,0,L|309:261,2,42.5,2|0|0,3:1|0:0|0:0,0:0:0:0:
191,119,212505,1,2,3:1:0:0:
147,186,212599,2,0,P|78:166|92:69,1,170,0|2,1:0|3:2,0:0:0:0:
76,69,212974,6,0,B|128:80|128:80|139:97|139:97|203:110,1,127.500004863739,4|0,1:2|0:0,0:0:0:0:
349,230,213161,5,8,0:3:0:0:
406,289,213255,1,8,0:3:0:0:
457,223,213349,5,4,0:3:0:0:
408,304,213443,1,4,0:3:0:0:
349,230,213536,5,0,3:0:0:0:
409,317,213630,1,0,3:0:0:0:
457,223,213724,6,0,B|477:139|477:139|356:157|356:157|328:199|328:199|254:210|254:210|212:161,1,382.500014591218,4|0,1:2|3:0,0:0:0:0:
186,105,214099,5,4,1:2:0:0:
176,90,214192,1,0,3:0:0:0:
166,226,214286,5,0,3:0:0:0:
176,241,214379,1,0,3:0:0:0:
113,134,214474,6,0,B|32:91|32:91|8:207|8:207|73:233|73:233|94:338,1,382.500014591218,4|0,1:0|0:0,0:0:0:0:
195,349,214849,5,0,1:0:0:0:
205,313,214942,1,0,3:0:0:0:
357,338,215036,2,0,B|301:318|301:318|188:351,1,170,2|0,0:1|1:0,0:0:0:0:
80,312,215317,6,0,L|20:324,2,42.5,2|0|0,3:1|0:0|0:0,0:0:0:0:
236,202,215505,2,0,L|217:155,2,42.5,2|0|0,3:1|0:0|1:0,0:0:0:0:
357,338,215692,1,0,0:0:0:0:
420,235,215786,2,0,P|482:286|456:338,1,127.5,2|0,3:2|0:0,0:0:0:0:
472,322,215974,6,0,P|478:284|504:234,1,85,4|0,1:0|0:0,0:0:0:0:
408,126,216161,1,2,0:2:0:0:
445,61,216255,1,2,0:1:0:0:
408,126,216349,2,0,B|373:167|373:167|234:151,1,170,0|2,1:0|0:1,0:0:0:0:
153,137,216630,2,0,L|95:130,1,42.5,2|0,0:2|1:0,0:0:0:0:
165,36,216817,6,0,B|234:29|234:29|260:100,1,127.500004863739,2|0,3:1|0:0,0:0:0:0:
246,224,217005,2,0,B|193:265|193:265|122:232,1,127.500004863739,2|0,3:1|1:0,0:0:0:0:
85,128,217192,1,0,0:0:0:0:
207,147,217286,5,2,3:1:0:0:
207,147,217380,1,0,0:0:0:0:
207,147,217474,2,0,B|275:156|275:156|349:74|349:74|439:90,1,255.000009727478,4|2,1:0|0:2,0:0:0:0:
423,87,217849,5,0,1:0:0:0:
466,151,217942,1,0,3:0:0:0:
369,177,218036,2,0,P|358:232|429:277,1,127.500004863739,2|2,0:1|0:2,0:0:0:0:
265,344,218224,5,0,1:0:0:0:
406,276,218317,2,0,P|329:255|283:270,1,127.500004863739,2|0,3:1|0:0,0:0:0:0:
265,344,218505,1,2,3:1:0:0:
228,224,218599,6,0,B|212:203|193:158|193:158|167:225|149:247|149:247|171:288|194:296|194:296|178:331|182:360|182:360|134:332|81:348|81:348|112:311,1,446.250004255772,0|0,1:0|0:0,0:0:0:0:
103,321,218974,6,0,P|101:259|86:172,1,127.500004863739,4|0,1:0|0:0,0:0:0:0:
91,194,219349,6,0,P|93:256|108:343,1,127.500004863739
102,320,219724,6,0,P|106:283|109:255,1,63.7500024318696
175,168,219911,2,0,P|179:205|182:233,1,63.7500024318696
249,305,220099,5,2,0:2:0:0:
246,338,220192,1,2,0:2:0:0:
305,205,220286,5,2,0:2:0:0:
302,172,220379,1,2,0:2:0:0:
366,308,220474,6,0,B|365:352|365:352|452:376|452:376|496:298|496:298|395:171,1,382.500014591218,4|0,1:0|0:0,0:0:0:0:
380,181,220849,5,0,1:0:0:0:
405,64,220942,1,0,3:0:0:0:
405,64,221036,1,0,0:0:0:0:
512,106,221130,6,0,P|479:115|436:130,1,63.7500024318696,2|0,0:3|1:0,0:0:0:0:
327,44,221317,2,0,P|294:35|251:20,1,63.7500024318696,4|0,3:2|0:0,0:0:0:0:
142,100,221505,1,0,3:0:0:0:
275,106,221599,6,0,B|216:131|216:131|206:165|206:165|127:194,1,170,2|6,1:3|3:2,0:0:0:0:
113,199,221880,1,0,0:0:0:0:
23,324,221974,6,0,L|152:288,1,127.5,4|0,1:0|0:0,0:0:0:0:
159,311,222161,2,0,L|306:333,1,127.5,2|0,3:2|0:0,0:0:0:0:
348,294,222349,2,0,B|370:258|370:258|319:283,1,85,0|0,1:0|3:0,0:0:0:0:
275,135,222536,5,0,0:0:0:0:
332,186,222630,2,0,B|355:162|355:162|343:96,1,85,2|0,0:3|1:0,0:0:0:0:
218,83,222817,2,0,B|195:107|195:107|207:173,1,85,4|0,3:2|0:0,0:0:0:0:
424,206,223005,1,0,3:0:0:0:
456,88,223099,6,0,B|415:99|415:99|296:43,1,170,2|6,1:3|3:2,0:0:0:0:
276,33,223380,1,0,0:0:0:0:
131,78,223474,6,0,B|165:140|165:140|163:163|163:163|205:245,2,170,4|2|0,1:0|0:2|1:0,0:0:0:0:
127,297,223942,1,0,3:0:0:0:
143,290,224036,1,0,0:0:0:0:
287,251,224130,6,0,B|313:249|313:249|243:288,1,85,2|0,0:3|1:0,0:0:0:0:
78,187,224317,2,0,B|52:185|52:185|122:224,1,85,4|0,3:2|0:0,0:0:0:0:
316,337,224505,1,0,3:0:0:0:
265,178,224599,6,0,P|251:255|220:365,1,170,2|6,1:3|3:2,0:0:0:0:
213,355,224880,1,0,0:0:0:0:
361,245,224974,6,0,B|303:117|249:193|205:28,1,255.000009727478,4|8,1:2|0:3,0:0:0:0:
392,131,225255,1,8,0:3:0:0:
442,36,225349,5,4,0:3:0:0:
430,18,225442,1,4,0:3:0:0:
312,68,225536,5,0,3:0:0:0:
318,48,225630,1,0,3:0:0:0:
422,153,225724,6,0,B|385:135|352:137|352:137|319:174|257:196|257:196|167:178,1,255.000009727478,4|0,1:2|0:0,0:0:0:0:
19,19,226099,5,0,3:0:0:0:
30,26,226192,1,0,3:0:0:0:
42,31,226286,1,0,3:0:0:0:
51,37,226380,1,0,3:0:0:0:
188,54,226474,6,0,B|224:52|224:52|62:124|62:124|110:129,1,255.000009727478,4|2,1:0|0:2,0:0:0:0:
128,136,226849,5,0,1:0:0:0:
56,280,226942,2,0,B|37:242|37:242|57:189,1,85,0|0,3:0|0:0,0:0:0:0:
260,315,227130,5,2,0:3:0:0:
209,252,227224,2,0,P|166:235|110:228,2,85,0|4|0,1:0|3:2|0:0,0:0:0:0:
183,363,227505,1,0,3:0:0:0:
332,265,227599,6,0,B|402:248|402:248|422:229|422:229|508:208,1,170,2|6,1:3|3:2,0:0:0:0:
438,24,227974,6,0,B|402:33|402:33|376:147,1,127.5,4|0,1:0|0:0,0:0:0:0:
401,212,228161,2,0,B|411:176|411:176|325:96,1,127.5,2|0,3:2|0:0,0:0:0:0:
261,104,228349,2,0,L|353:90,1,85,0|0,1:0|3:0,0:0:0:0:
469,114,228536,5,0,0:0:0:0:
258,18,228630,2,0,P|206:48|154:69,2,85,2|0|4,0:3|1:0|3:2,0:0:0:0:
82,76,228911,5,0,0:0:0:0:
72,54,229005,1,0,3:0:0:0:
159,142,229099,2,0,B|147:179|147:179|142:183|142:183|126:238,1,85,2|0,1:3|0:0,0:0:0:0:
248,352,229286,2,0,B|270:359|270:359|228:266,1,85,6|0,3:2|0:0,0:0:0:0:
34,240,229474,6,0,B|77:216|77:216|169:330,2,170,4|2|0,1:0|0:2|1:0,0:0:0:0:
233,194,229942,5,0,3:0:0:0:
238,174,230036,1,0,0:0:0:0:
154,107,230130,2,0,B|122:128|122:128|117:140|117:140|66:134,1,85,2|0,0:3|1:0,0:0:0:0:
319,269,230317,2,0,B|354:276|354:276|365:300|365:300|392:314,1,85,4|0,3:2|0:0,0:0:0:0:
272,164,230505,5,0,3:0:0:0:
139,278,230599,2,0,P|186:246|219:230,1,85,2|0,1:3|0:0,0:0:0:0:
435,101,230786,2,0,P|388:133|355:149,1,85,6|0,3:2|0:0,0:0:0:0:
109,31,230974,6,0,B|134:15|134:15|169:27|208:31|208:31|220:55,1,127.500004863739,4|0,1:2|0:0,0:0:0:0:
432,200,231161,5,8,0:3:0:0:
395,309,231255,1,8,0:3:0:0:
315,234,231349,1,4,0:3:0:0:
275,291,231442,1,4,0:3:0:0:
205,213,231536,1,0,3:0:0:0:
183,222,231630,1,0,3:0:0:0:
82,360,231724,6,0,B|101:334|101:334|148:335|194:302,1,127.500004863739,4|0,1:2|0:0,0:0:0:0:
349,37,231911,2,0,B|284:73|320:97|260:129,1,127.500004863739,4|0,1:2|0:0,0:0:0:0:
40,179,232099,6,0,B|-9:115|-9:115|175:233|175:233|283:193,1,382.500014591218,4|0,1:2|0:0,0:0:0:0:
494,287,232474,6,0,B|478:311|478:311|406:264|406:264|346:295,1,127.500004863739,4|0,1:2|0:0,0:0:0:0:
423,115,233224,6,0,B|499:109|499:109|315:210,1,255.000009727478,4|0,1:2|0:0,0:0:0:0:
423,115,233505,6,0,B|499:109|499:109|315:210,1,255.000009727478,4|0,1:2|0:0,0:0:0:0:
423,115,233786,6,0,B|499:109|499:109|315:210,1,255.000009727478,4|0,1:2|0:0,0:0:0:0:
423,115,234067,6,0,B|499:109|499:109|315:210,1,255.000009727478,4|0,1:2|0:0,0:0:0:0:
423,115,234349,6,0,B|499:109|499:109|315:210,1,255.000009727478,4|0,1:2|0:0,0:0:0:0:
423,115,234630,6,0,B|499:109|499:109|315:210,1,255.000009727478,4|0,1:2|0:0,0:0:0:0:
423,115,234911,6,0,B|499:109|499:109|315:210,1,255.000009727478,4|0,1:2|0:0,0:0:0:0:
423,115,235192,6,0,B|499:109|499:109|315:210,1,255.000009727478,4|0,1:2|0:0,0:0:0:0:
