osu file format v14

[General]
AudioFilename: audio.mp3
AudioLeadIn: 0
PreviewTime: 83649
Countdown: 0
SampleSet: Soft
StackLeniency: 0.3
Mode: 0
LetterboxInBreaks: 0
UseSkinSprites: 1
WidescreenStoryboard: 1

[Editor]
Bookmarks: 10931,21366,31801,42236,94410
DistanceSpacing: 0.7
BeatDivisor: 4
GridSize: 8
TimelineZoom: 1.1

[Metadata]
Title:Cybernecia Catharsis
TitleUnicode:Cybernecia Catharsis
Artist:Tanchiky
ArtistUnicode:Tanchiky
Creator:-Sylvari
Version:Future
Source:Arcaea
Tags:My Hidden Sucks Rolniczy Minorsonek artcore instrumental
BeatmapID:1745785
BeatmapSetID:833417

[Difficulty]
HPDrainRate:5
CircleSize:3.5
OverallDifficulty:7
ApproachRate:8.5
SliderMultiplier:1.8
SliderTickRate:1

[Events]
//Background and Video events
0,0,"1418695119541.png",0,0
//Break Periods
2,65714,72236
//Storyboard Layer 0 (Background)
//Storyboard Layer 1 (Fail)
//Storyboard Layer 2 (Pass)
Sprite,Pass,Centre,"sb\fonts\Sylvari.png",0,0 M,0,497,,172.75,347 F,0,497,,0 S,0,497,,0.384 F,0,65551,65714,0,1 F,0,65714,70931,1 F,0,70931,71094,1,0 F,0,71094,,0
//Storyboard Layer 3 (Foreground)
//Storyboard Sound Samples

[TimingPoints]
497,326.086956521739,4,2,1,40,1,0
9627,-100,4,2,1,50,0,0
10279,-100,4,2,1,60,0,0
10605,-100,4,2,1,70,0,0
10931,-80,4,2,1,85,0,0
20877,-133.333333333333,4,2,1,85,0,0
21040,-133.333333333333,4,2,1,85,0,0
21366,-80,4,2,1,85,0,0
40931,-100,4,2,1,85,0,0
62453,-100,4,2,1,70,0,0
63105,-100,4,2,1,50,0,0
65714,-100,4,2,1,40,0,0
72888,-100,4,2,1,50,0,0
73540,-100,4,2,1,60,0,0
83975,-76.9230769230769,4,2,1,85,0,1
91801,-111.111111111111,4,2,1,85,0,1
92453,-76.9230769230769,4,2,1,85,0,1
94410,-66.6666666666667,4,2,1,85,0,1
104518,-133.333333333333,4,2,1,85,0,0
104844,-76.9230769230769,4,2,1,85,0,1
106801,-100,4,2,1,85,0,0
107453,-76.9230769230769,4,2,1,85,0,1
109410,-100,4,2,1,85,0,0
110062,-76.9230769230769,4,2,1,85,0,1
112018,-100,4,2,1,85,0,0
112670,-76.9230769230769,4,2,1,85,0,1
114627,-100,4,2,1,70,0,0
115279,-100,4,2,1,50,0,0

[Colours]
Combo1 : 141,40,35
Combo2 : 71,114,139
Combo3 : 222,103,103
Combo4 : 108,95,231

[HitObjects]
39,351,10605,5,8,1:2:0:0:
156,238,10931,6,0,P|167:184|147:132,1,112.5,4|0,1:2|0:0,0:0:0:0:
76,198,11257,1,8,0:0:0:0:
256,203,11420,1,0,0:0:0:0:
163,92,11583,5,0,0:0:0:0:
256,203,11746,1,0,1:0:0:0:
163,92,11910,1,8,0:0:0:0:
302,56,12073,1,0,0:0:0:0:
156,238,12236,6,0,P|155:293|189:336,1,112.5,0|2,0:0|1:2,0:0:0:0:
290,269,12562,1,10,0:0:0:0:
263,253,12643,1,0,0:0:0:0:
234,260,12725,1,2,1:2:0:0:
335,368,12888,5,2,3:2:0:0:
376,339,12969,1,0,3:0:0:0:
396,292,13051,1,2,3:2:0:0:
392,241,13132,1,0,3:0:0:0:
375,192,13214,2,0,L|399:142,1,56.25,10|0,3:2|0:0,0:0:0:0:
311,112,13377,2,0,L|335:62,1,56.25,2|0,1:2|0:0,0:0:0:0:
225,153,13540,6,0,P|227:209|262:252,1,112.5,6|0,1:2|0:0,0:0:0:0:
155,75,13866,1,8,0:0:0:0:
46,250,14029,2,0,P|80:207|83:151,1,112.5,2|0,0:0|0:0,0:0:0:0:
155,303,14355,1,0,1:0:0:0:
56,361,14518,1,8,0:0:0:0:
259,359,14681,1,0,0:0:0:0:
155,303,14844,5,0,1:0:0:0:
166,292,14926,1,0,0:0:0:0:
180,277,15007,1,2,1:2:0:0:
243,196,15170,5,10,0:0:0:0:
398,259,15333,1,2,1:2:0:0:
259,359,15496,1,10,0:0:0:0:
375,101,15660,1,2,1:2:0:0:
318,228,15823,1,10,0:0:0:0:
496,93,16149,6,0,P|446:69|391:72,1,112.5,4|0,1:2|0:0,0:0:0:0:
296,138,16475,2,0,L|312:77,1,56.25,0|0,3:0|3:0,0:0:0:0:
202,169,16638,2,0,L|218:108,1,56.25,0|0,3:0|3:0,0:0:0:0:
108,200,16801,6,0,L|75:317,1,112.5,8|0,0:0|0:0,0:0:0:0:
152,334,17127,2,0,B|195:371|195:371|250:378,1,112.5,0|0,0:0|0:0,0:0:0:0:
320,224,17453,6,0,P|298:275|309:329,1,112.5,0|2,1:0|0:0,0:0:0:0:
411,161,17779,1,2,0:0:0:0:
407,277,17942,1,2,1:2:0:0:
488,220,18105,5,10,0:0:0:0:
507,182,18186,1,0,0:0:0:0:
508,140,18268,1,2,3:2:0:0:
491,102,18349,1,0,3:0:0:0:
459,75,18431,2,0,P|432:66|404:65,1,56.25,2|0,1:2|3:0,0:0:0:0:
300,87,18594,2,0,P|271:86|245:76,1,56.25,2|0,1:2|3:0,0:0:0:0:
190,0,18757,6,0,P|211:51|203:106,1,112.5,4|0,1:2|0:0,0:0:0:0:
94,153,19083,1,8,0:0:0:0:
74,112,19164,1,0,3:0:0:0:
74,67,19246,1,0,3:0:0:0:
68,309,19410,2,0,P|97:262|148:241,1,112.5,4|0,1:2|1:0,0:0:0:0:
291,335,19736,1,8,0:0:0:0:
238,353,19817,1,0,0:0:0:0:
184,342,19899,1,0,0:0:0:0:
414,331,20062,6,0,P|384:274|396:210,1,112.5,4|0,1:2|1:0,0:0:0:0:
329,383,20388,2,0,P|325:328|350:279,1,112.5,8|0,0:0|1:0,0:0:0:0:
468,260,20714,5,12,0:0:0:0:
345,161,20877,1,0,3:0:0:0:
264,327,21040,5,2,0:0:0:0:
280,309,21121,1,2,0:0:0:0:
297,293,21203,1,2,0:0:0:0:
315,277,21285,1,2,0:0:0:0:
388,227,21366,6,0,L|369:337,1,112.5,4|0,1:2|0:0,0:0:0:0:
189,286,21692,1,8,0:0:0:0:
279,155,21855,1,0,0:0:0:0:
76,52,22018,5,0,0:0:0:0:
229,2,22181,1,0,1:0:0:0:
126,205,22344,1,8,0:0:0:0:
279,155,22507,1,0,0:0:0:0:
99,127,22670,6,0,P|55:160|44:213,1,112.5,0|2,0:0|1:2,0:0:0:0:
131,260,22996,1,10,0:0:0:0:
133,232,23077,1,0,0:0:0:0:
126,205,23159,1,2,1:2:0:0:
53,300,23323,5,2,3:2:0:0:
78,332,23404,1,0,3:0:0:0:
117,349,23486,1,2,1:2:0:0:
158,345,23567,1,0,1:0:0:0:
193,321,23649,2,0,L|246:299,1,56.25,10|0,0:2|3:0,0:0:0:0:
232,221,23812,2,0,L|284:198,1,56.25,2|0,1:2|3:0,0:0:0:0:
259,123,23975,6,0,B|311:100|311:100|349:49,1,112.5,6|0,1:2|0:0,0:0:0:0:
241,18,24301,1,8,0:0:0:0:
331,125,24464,2,0,B|376:158|376:158|440:165,1,112.5,2|0,1:2|0:0,0:0:0:0:
415,72,24790,5,0,1:0:0:0:
341,229,24953,1,8,0:0:0:0:
432,164,25116,1,0,0:0:0:0:
381,323,25279,6,0,P|323:331|273:303,1,112.5,0|2,1:0|1:2,0:0:0:0:
241,204,25605,1,10,0:0:0:0:
457,257,25768,1,2,1:2:0:0:
388,71,25931,5,10,0:0:0:0:
329,287,26094,1,2,1:2:0:0:
360,178,26257,2,0,L|328:289,1,112.5,10|0,0:0|0:0,0:0:0:0:
201,355,26583,6,0,L|232:246,1,112.5,6|0,1:0|0:0,0:0:0:0:
259,162,26910,1,8,0:0:0:0:
266,134,26991,1,0,3:0:0:0:
274,107,27073,1,0,3:0:0:0:
282,80,27154,1,0,3:0:0:0:
290,52,27236,6,0,L|258:163,1,112.5,6|0,1:2|0:0,0:0:0:0:
131,233,27562,1,8,0:0:0:0:
123,260,27643,1,0,3:0:0:0:
115,287,27725,1,0,3:0:0:0:
107,314,27806,1,0,3:0:0:0:
99,342,27888,6,0,L|131:231,1,112.5,6|0,1:0|0:0,0:0:0:0:
157,145,28214,1,8,0:0:0:0:
165,118,28295,1,0,3:0:0:0:
173,91,28377,1,0,3:0:0:0:
181,64,28458,1,0,3:0:0:0:
189,36,28540,6,0,L|157:147,1,112.5,6|0,1:2|0:0,0:0:0:0:
37,216,28866,1,8,0:0:0:0:
29,243,28947,1,0,0:0:0:0:
21,270,29029,1,0,0:0:0:0:
13,297,29110,1,0,0:0:0:0:
5,325,29192,6,0,L|37:214,1,112.5,6|0,1:0|0:0,0:0:0:0:
189,36,29518,2,0,L|157:144,1,112.5,6|0,1:2|3:0,0:0:0:0:
99,342,29844,6,0,L|130:233,1,112.5,6|0,1:1|0:0,0:0:0:0:
258,160,30170,2,0,L|290:52,1,112.5,6|0,1:2|0:0,0:0:0:0:
200,353,30496,6,0,L|231:244,1,112.5,6|0,1:1|0:0,0:0:0:0:
355,184,30823,2,0,L|387:76,1,112.5,6|0,1:2|0:0,0:0:0:0:
330,266,31149,6,0,L|299:375,1,112.5,6|0,1:1|0:0,0:0:0:0:
449,203,31475,1,10,0:0:0:0:
448,208,31556,1,2,0:0:0:0:
448,213,31638,1,2,0:0:0:0:
447,218,31719,1,2,0:0:0:0:
446,223,31801,6,0,P|432:282|392:337,1,112.5,6|0,1:2|0:0,0:0:0:0:
359,161,32127,2,0,B|359:103|359:103|312:48,1,112.5,8|0,1:2|0:0,0:0:0:0:
219,83,32453,1,2,1:2:0:0:
199,255,32616,1,2,0:0:0:0:
232,83,32779,1,10,1:2:0:0:
189,254,32942,1,2,0:0:0:0:
106,50,33105,6,0,P|58:77|36:127,1,112.5,2|0,1:2|0:0,0:0:0:0:
287,231,33431,2,0,P|335:203|357:153,1,112.5,10|0,1:2|0:0,0:0:0:0:
283,54,33757,1,2,1:2:0:0:
114,223,33920,1,2,0:0:0:0:
283,45,34083,1,10,1:2:0:0:
114,212,34246,1,2,0:0:0:0:
283,38,34410,6,0,P|348:20|402:35,1,112.5,2|0,1:2|0:0,0:0:0:0:
147,164,34736,2,0,P|147:220|164:273,1,112.5,8|0,1:2|0:0,0:0:0:0:
468,144,35062,1,2,1:2:0:0:
269,197,35225,1,2,0:0:0:0:
468,135,35388,1,10,1:2:0:0:
270,207,35551,1,2,0:0:0:0:
432,345,35714,6,0,L|399:237,1,112.5,2|0,1:2|0:0,0:0:0:0:
329,93,36040,1,8,1:2:0:0:
269,197,36203,1,2,0:0:0:0:
270,222,36284,1,2,0:0:0:0:
271,247,36366,2,0,P|258:303|212:340,1,112.5,2|0,1:2|0:0,0:0:0:0:
110,106,36692,2,0,P|123:50|169:13,1,112.5,10|0,1:2|0:0,0:0:0:0:
349,161,37018,5,2,1:2:0:0:
274,57,37181,1,2,0:0:0:0:
395,97,37344,1,10,1:2:0:0:
274,136,37507,1,2,0:0:0:0:
348,33,37670,2,0,P|394:17|459:50,1,112.5,2|0,1:2|0:0,0:0:0:0:
281,216,37996,2,0,P|244:213|198:156,1,112.5,10|0,1:2|0:0,0:0:0:0:
69,124,38323,5,2,1:2:0:0:
144,228,38486,1,2,0:0:0:0:
23,188,38649,1,10,1:2:0:0:
144,149,38812,1,2,0:0:0:0:
69,252,38975,2,0,P|90:289|171:303,1,112.5,2|0,1:2|0:0,0:0:0:0:
218,108,39301,2,0,P|196:82|111:70,1,112.5,10|0,1:2|0:0,0:0:0:0:
255,194,39627,6,0,L|237:259,1,56.25,2|0,1:0|0:0,0:0:0:0:
273,321,39790,1,2,0:0:0:0:
422,211,39953,2,0,L|442:148,1,56.25,10|0,1:2|0:0,0:0:0:0:
400,89,40116,1,2,0:0:0:0:
371,289,40279,5,2,1:0:0:0:
321,135,40442,1,2,0:0:0:0:
461,295,40605,1,10,1:2:0:0:
242,110,40768,1,2,0:0:0:0:
413,365,40931,6,0,P|365:375|320:358,1,90,2|2,1:0|0:0,0:0:0:0:
199,32,41257,2,0,P|241:20|285:31,1,90,10|0,1:2|0:0,0:0:0:0:
115,316,41583,6,0,L|154:204,1,90,6|0,1:2|0:0,0:0:0:0:
56,15,41910,2,0,L|26:99,1,90,6|0,1:1|0:0,0:0:0:0:
145,232,42236,6,0,P|187:248|232:251,1,90,6|0,1:2|0:0,0:0:0:0:
343,101,42562,2,0,P|301:85|256:82,1,90,8|0,1:2|0:0,0:0:0:0:
319,325,42888,2,0,B|330:345|311:372|311:372|287:348|306:311|306:311|330:276|328:234,1,180,2|8,1:0|1:2,0:0:0:0:
226,288,43377,1,2,0:0:0:0:
226,287,43540,6,0,P|215:331|219:376,1,90,2|2,1:0|0:0,0:0:0:0:
427,154,43866,2,0,P|437:110|433:65,1,90,10|0,1:2|0:0,0:0:0:0:
193,102,44192,2,0,B|121:94|64:132|64:132|81:150|111:145,1,180,2|8,1:0|1:2,0:0:0:0:
161,23,44681,1,2,0:0:0:0:
160,23,44844,6,0,P|116:26|72:39,1,90,2|0,1:0|0:0,0:0:0:0:
111,293,45170,2,0,P|155:289|199:276,1,90,8|2,1:2|0:0,0:0:0:0:
260,122,45496,1,2,1:2:0:0:
156,207,45660,1,2,0:0:0:0:
380,182,45823,1,10,1:2:0:0:
258,89,45986,1,2,0:0:0:0:
280,314,46149,5,2,1:0:0:0:
226,165,46312,1,2,0:0:0:0:
325,357,46475,2,0,P|281:347|237:354,1,90,10|0,1:2|0:0,0:0:0:0:
95,262,46801,2,0,P|71:204|88:162,1,90,2|0,1:0|0:0,0:0:0:0:
438,126,47127,2,0,P|462:184|445:226,1,90,8|2,1:2|0:0,0:0:0:0:
274,74,47453,5,6,1:2:0:0:
254,297,47616,1,2,0:0:0:0:
274,74,47779,1,10,1:2:0:0:
254,297,47942,1,2,0:0:0:0:
166,29,48105,2,0,L|166:119,1,90,2|0,1:0|0:0,0:0:0:0:
352,113,48431,5,10,1:2:0:0:
179,255,48594,1,2,0:0:0:0:
352,113,48757,1,6,1:0:0:0:
179,255,48920,1,2,0:0:0:0:
469,285,49083,2,0,L|379:285,1,90,10|0,1:2|0:0,0:0:0:0:
152,175,49410,5,2,1:0:0:0:
375,196,49573,1,0,0:0:0:0:
152,175,49736,1,10,1:2:0:0:
375,196,49899,1,2,0:0:0:0:
91,81,50062,1,6,1:2:0:0:
256,192,50143,12,10,52344,1:2:0:0:
258,147,52671,5,4,1:2:0:0:
256,192,52752,1,0,0:0:0:0:
271,234,52834,1,0,0:0:0:0:
378,327,52996,1,8,0:0:0:0:
409,183,53160,2,0,P|420:137|409:87,2,90,4|0|8,1:0|3:0|0:0,0:0:0:0:
271,234,53649,5,4,1:2:0:0:
256,192,53730,1,0,0:0:0:0:
258,147,53812,1,0,3:0:0:0:
190,78,53975,1,8,0:0:0:0:
153,180,54138,5,4,1:0:0:0:
186,210,54220,1,0,0:0:0:0:
226,229,54301,1,0,3:0:0:0:
271,234,54383,1,0,3:0:0:0:
315,232,54464,1,8,0:0:0:0:
438,293,54627,5,6,1:2:0:0:
438,154,54790,1,2,0:0:0:0:
438,293,54953,5,2,1:0:0:0:
438,154,55116,1,2,0:0:0:0:
315,232,55279,5,4,1:2:0:0:
271,234,55361,1,0,0:0:0:0:
226,229,55442,1,0,0:0:0:0:
204,89,55605,1,8,0:0:0:0:
104,196,55768,2,0,L|18:262,2,90,4|0|8,1:0|3:0|0:0,0:0:0:0:
226,229,56257,5,4,1:2:0:0:
271,234,56339,1,0,0:0:0:0:
315,232,56420,1,0,3:0:0:0:
320,81,56583,1,8,0:0:0:0:
226,139,56746,5,4,1:0:0:0:
226,184,56827,1,0,0:0:0:0:
226,229,56909,1,0,3:0:0:0:
226,274,56990,1,0,3:0:0:0:
226,319,57072,1,8,0:0:0:0:
122,373,57235,5,6,1:2:0:0:
122,373,57561,5,2,1:0:0:0:
136,223,57888,5,6,1:2:0:0:
167,191,57969,1,0,0:0:0:0:
199,159,58051,1,0,0:0:0:0:
165,56,58213,1,8,0:0:0:0:
283,77,58377,2,0,L|365:37,2,90,4|0|8,1:0|3:0|0:0,0:0:0:0:
199,159,58866,5,4,1:2:0:0:
167,191,58948,1,0,0:0:0:0:
136,223,59029,1,0,3:0:0:0:
36,207,59192,1,8,0:0:0:0:
135,159,59355,5,4,1:0:0:0:
167,191,59436,1,0,0:0:0:0:
199,223,59518,1,0,3:0:0:0:
231,255,59599,1,0,3:0:0:0:
263,286,59681,1,8,0:0:0:0:
361,314,59844,5,6,1:2:0:0:
310,188,60007,1,2,0:0:0:0:
361,314,60170,5,2,1:0:0:0:
310,188,60333,1,2,0:0:0:0:
443,209,60496,5,4,1:2:0:0:
457,167,60577,1,0,0:0:0:0:
472,124,60659,1,0,0:0:0:0:
349,25,60823,1,8,0:0:0:0:
310,188,60986,2,0,L|241:253,2,90,4|0|8,1:0|3:0|0:0,0:0:0:0:
443,209,61475,5,4,1:2:0:0:
457,167,61556,1,0,0:0:0:0:
472,124,61638,1,0,3:0:0:0:
349,25,61801,1,8,0:0:0:0:
247,138,61963,5,4,1:0:0:0:
213,168,62044,1,0,0:0:0:0:
180,199,62126,1,0,3:0:0:0:
147,230,62207,1,0,3:0:0:0:
115,261,62289,1,8,0:0:0:0:
87,384,62452,5,2,1:0:0:0:
87,384,62778,5,2,1:0:0:0:
0,253,63105,5,6,1:2:0:0:
272,310,73540,6,0,P|257:374|241:310,1,180,6|0,1:2|3:0,0:0:0:0:
393,253,74029,2,0,P|427:308|371:274,1,180,2|0,0:0|0:0,0:0:0:0:
300,205,74519,2,0,P|271:189|289:218,1,90,2|0,3:2|0:0,0:0:0:0:
240,310,74844,6,0,P|255:374|271:310,1,180,2|0,3:2|3:0,0:0:0:0:
119,253,75333,2,0,P|84:308|140:274,1,180,2|0,0:0|0:0,0:0:0:0:
211,205,75823,2,0,P|240:189|223:218,1,90,2|0,3:2|0:0,0:0:0:0:
256,192,76149,12,2,78431,3:2:0:0:
255,303,78757,5,6,1:2:0:0:
329,190,78920,1,2,1:0:0:0:
255,81,79083,2,0,L|225:130,1,45,2|0,1:0|0:0,0:0:0:0:
114,154,79246,2,0,L|144:203,1,45,2|0,1:0|0:0,0:0:0:0:
156,296,79410,6,0,P|104:296|51:258,1,90,2|0,1:0|1:0,0:0:0:0:
25,152,79736,1,2,1:0:0:0:
124,61,79899,1,2,1:0:0:0:
228,146,80062,2,0,L|283:166,1,45,6|0,1:0|0:0,0:0:0:0:
331,86,80225,2,0,L|388:75,1,45,2|0,1:0|0:0,0:0:0:0:
445,145,80388,6,0,L|460:187,1,45,2|0,1:0|0:0,0:0:0:0:
377,292,80551,1,2,1:0:0:0:
228,146,80714,2,0,L|212:188,1,45,2|0,1:0|0:0,0:0:0:0:
295,293,80877,1,2,1:0:0:0:
338,117,81040,2,0,L|338:179,1,45,2|0,1:0|0:0,0:0:0:0:
336,360,81203,1,2,1:0:0:0:
178,280,81366,5,6,1:2:0:0:
137,261,81448,1,0,1:0:0:0:
92,263,81529,1,0,1:0:0:0:
52,283,81611,1,0,1:0:0:0:
33,326,81692,5,0,1:0:0:0:
69,293,81773,1,0,1:0:0:0:
90,248,81855,1,0,1:0:0:0:
92,199,81936,1,0,1:0:0:0:
75,153,82018,5,4,1:0:0:0:
70,100,82099,1,0,1:0:0:0:
101,57,82181,1,0,1:0:0:0:
152,46,82262,1,0,1:0:0:0:
198,72,82344,5,0,1:0:0:0:
248,102,82425,1,0,1:0:0:0:
305,113,82507,1,0,1:0:0:0:
363,104,82588,1,0,1:0:0:0:
413,75,82670,6,0,L|445:39,7,45,4|0|0|0|4|0|0|0,1:2|1:0|1:0|1:0|1:0|1:0|1:0|1:0,0:0:0:0:
456,156,83323,2,0,L|449:190,6,22.5,6|0|0|0|0|0|0,1:2|1:0|1:0|1:0|1:0|1:0|1:0,0:0:0:0:
380,223,83649,2,0,L|383:244,8,15,10|0|0|0|0|0|0|0|0,0:0|0:0|0:0|3:0|0:0|0:0|3:0|0:0|0:0,0:0:0:0:
312,281,83975,6,0,P|257:306|94:196,1,233.999989288331,6|10,1:2|1:2,0:0:0:0:
380,223,84464,1,2,0:0:0:0:
379,222,84627,2,0,P|401:276|387:332,1,116.999994644165,2|0,1:0|0:0,0:0:0:0:
258,192,84953,1,10,1:2:0:0:
89,192,85116,1,2,0:0:0:0:
175,275,85279,5,2,1:0:0:0:
175,109,85442,1,0,0:0:0:0:
340,190,85605,1,10,1:2:0:0:
174,190,85768,1,0,0:0:0:0:
261,111,85931,5,2,1:0:0:0:
261,277,86094,1,0,0:0:0:0:
174,190,86257,1,10,1:2:0:0:
340,190,86420,1,0,0:0:0:0:
174,87,86583,6,0,P|260:22|347:87,1,233.999989288331,2|8,1:0|1:2,0:0:0:0:
258,192,87073,1,2,0:0:0:0:
412,154,87236,2,0,P|419:218|384:260,1,116.999994644165,2|2,1:0|0:0,0:0:0:0:
99,229,87562,2,0,P|92:165|127:123,1,116.999994644165,10|2,1:2|0:0,0:0:0:0:
233,306,87888,6,0,L|258:192,1,116.999994644165,2|0,1:0|0:0,0:0:0:0:
282,77,88214,2,0,L|258:192,1,116.999994644165,10|0,1:2|0:0,0:0:0:0:
144,167,88540,2,0,L|378:217,1,233.999989288331,2|8,1:0|1:2,0:0:0:0:
103,247,89192,6,0,P|56:148|140:78,1,233.999989288331,6|8,1:2|1:2,0:0:0:0:
195,21,89681,1,2,0:0:0:0:
174,74,89762,1,2,0:0:0:0:
193,126,89844,2,0,P|229:172|283:195,1,116.999994644165,2|0,1:0|0:0,0:0:0:0:
344,99,90170,2,0,B|349:40|349:40|301:72,1,116.999994644165,10|0,1:2|0:0,0:0:0:0:
456,219,90496,6,0,P|417:197|450:230,1,116.999994644165,6|0,1:0|0:0,0:0:0:0:
380,343,90823,2,0,P|419:365|386:332,1,116.999994644165,10|0,1:2|0:0,0:0:0:0:
249,293,91149,2,0,P|264:226|283:291,1,175.499991966248,2|0,1:0|0:0,0:0:0:0:
167,315,91475,2,0,P|155:282|155:247,1,58.4999973220826,10|0,1:2|0:0,0:0:0:0:
72,211,91638,2,0,P|94:184|124:166,1,58.4999973220826,2|0,0:0|0:0,0:0:0:0:
123,66,91801,6,0,B|166:56|183:116|236:133|287:117|302:54|352:75,1,242.999992584229,6|0,1:2|0:0,0:0:0:0:
294,177,92453,2,0,P|231:189|177:176,1,116.999994644165,4|0,1:0|0:0,0:0:0:0:
231,335,92779,2,0,L|175:321,1,58.4999973220826,10|0,1:2|0:0,0:0:0:0:
296,269,92942,2,0,L|357:285,1,58.4999973220826,2|0,0:0|0:0,0:0:0:0:
417,358,93105,5,6,1:2:0:0:
417,358,93431,1,6,1:0:0:0:
480,283,93757,1,6,1:2:0:0:
480,283,94083,2,0,L|491:222,1,58.4999973220826,6|0,1:0|0:0,0:0:0:0:
419,179,94246,2,0,L|430:118,1,58.4999973220826,2|0,0:0|0:0,0:0:0:0:
358,75,94410,6,0,P|228:52|125:133,1,270.000010299683,6|10,1:2|1:2,0:0:0:0:
152,306,94899,1,2,0:0:0:0:
185,189,95062,2,0,P|174:254|200:315,1,135.000005149842,2|0,1:0|0:0,0:0:0:0:
338,156,95388,1,10,1:2:0:0:
288,241,95551,1,2,0:0:0:0:
415,143,95714,5,2,1:0:0:0:
249,238,95877,1,0,0:0:0:0:
380,273,96040,1,10,1:2:0:0:
284,108,96203,1,0,0:0:0:0:
461,229,96366,5,2,1:0:0:0:
205,159,96529,1,0,0:0:0:0:
299,321,96692,1,10,1:2:0:0:
367,66,96855,1,0,0:0:0:0:
210,245,97018,6,0,P|115:169|189:72,1,270.000010299683,2|8,1:0|1:2,0:0:0:0:
324,225,97507,1,2,0:0:0:0:
205,159,97670,1,2,1:0:0:0:
321,90,97833,1,2,0:0:0:0:
444,149,97996,5,10,1:2:0:0:
321,61,98160,1,2,0:0:0:0:
325,260,98323,2,0,P|342:328|405:364,1,135.000005149842,2|0,1:0|0:0,0:0:0:0:
208,200,98649,2,0,P|140:180|77:217,1,135.000005149842,10|0,1:2|0:0,0:0:0:0:
321,127,98975,2,0,B|393:104|373:18|373:18|282:23|281:97,1,270.000010299683,2|8,1:0|1:2,0:0:0:0:
490,329,99627,6,0,P|478:248|321:267,1,270.000010299683,6|8,1:2|1:2,0:0:0:0:
405,300,100116,1,2,0:0:0:0:
442,180,100279,2,0,P|444:246|405:300,1,135.000005149842,2|0,1:0|0:0,0:0:0:0:
230,296,100605,2,0,P|228:229|267:176,1,135.000005149842,10|0,1:2|0:0,0:0:0:0:
407,40,100931,6,0,P|368:78|378:31,1,135.000005149842,6|0,1:0|0:0,0:0:0:0:
189,63,101257,2,2,P|224:115|248:59,1,135.000005149842,10|0,1:2|0:0,0:0:0:0:
116,230,101583,2,0,P|92:142|80:246,1,270.000010299683,2|10,1:0|1:2,0:0:0:0:
199,268,102073,1,0,0:0:0:0:
213,216,102154,1,2,0:0:0:0:
212,161,102236,6,0,P|177:99|121:65,1,135.000005149842,6|0,1:2|0:0,0:0:0:0:
213,216,102562,2,0,B|311:226|311:226|283:200,1,135.000005149842,8|0,1:2|0:0,0:0:0:0:
156,195,102888,2,0,P|119:256|118:321,1,135.000005149842,4|0,1:0|0:0,0:0:0:0:
346,313,103214,5,10,1:2:0:0:
312,317,103295,1,0,0:0:0:0:
279,322,103377,1,0,0:0:0:0:
245,326,103458,1,2,0:0:0:0:
212,331,103540,6,0,L|281:321,1,67.5000025749208,6|0,1:2|0:0,0:0:0:0:
301,227,103703,2,0,L|312:158,1,67.5000025749208,0|0,1:0|0:0,0:0:0:0:
249,99,103866,2,0,L|187:67,1,67.5000025749208,4|0,3:1|0:0,0:0:0:0:
125,127,104029,2,0,L|75:175,1,67.5000025749208,0|0,1:0|0:0,0:0:0:0:
72,255,104192,1,6,1:2:0:0:
79,270,104273,1,0,1:0:0:0:
87,285,104355,1,0,1:0:0:0:
94,300,104436,1,0,1:0:0:0:
102,315,104518,6,0,L|71:254,1,67.5000025749208,8|0,1:2|0:0,0:0:0:0:
125,127,104844,6,0,P|183:132|237:190,1,116.999994644165,4|0,1:2|0:0,0:0:0:0:
244,283,105170,1,8,0:0:0:0:
149,223,105333,1,4,1:0:0:0:
315,202,105496,1,0,3:0:0:0:
343,196,105577,1,0,3:0:0:0:
372,191,105659,1,8,0:0:0:0:
312,85,105823,6,0,L|315:220,1,116.999994644165,4|0,1:2|3:0,0:0:0:0:
360,291,106149,1,8,0:0:0:0:
231,334,106312,1,4,1:0:0:0:
250,312,106393,1,0,0:0:0:0:
269,290,106475,1,0,3:0:0:0:
408,361,106638,1,8,0:0:0:0:
401,205,106801,5,6,1:2:0:0:
408,361,106964,1,2,0:0:0:0:
401,205,107127,5,2,1:0:0:0:
408,361,107290,1,2,0:0:0:0:
311,79,107453,6,0,P|253:84|199:142,1,116.999994644165,4|0,1:2|0:0,0:0:0:0:
294,290,107779,1,8,0:0:0:0:
195,210,107942,1,4,1:0:0:0:
326,166,108105,1,0,3:0:0:0:
354,160,108186,1,0,3:0:0:0:
383,155,108268,1,8,0:0:0:0:
195,210,108432,6,0,L|192:345,1,116.999994644165,4|0,1:2|0:0,0:0:0:0:
119,150,108758,1,8,0:0:0:0:
233,254,108921,1,4,1:0:0:0:
214,232,109002,1,0,0:0:0:0:
195,210,109084,1,0,3:0:0:0:
106,250,109247,1,8,0:0:0:0:
208,104,109410,5,6,1:2:0:0:
208,104,109736,5,2,1:0:0:0:
272,308,110062,6,0,P|330:303|384:245,1,116.999994644165,6|0,1:2|0:0,0:0:0:0:
386,116,110388,1,8,0:0:0:0:
286,211,110551,1,4,1:0:0:0:
452,240,110714,1,0,3:0:0:0:
462,266,110795,1,0,3:0:0:0:
473,292,110877,1,8,0:0:0:0:
283,327,111041,6,0,L|286:192,1,116.999994644165,4|0,1:2|0:0,0:0:0:0:
367,66,111367,1,8,0:0:0:0:
248,112,111530,1,4,1:0:0:0:
229,90,111612,1,0,0:0:0:0:
210,68,111693,1,0,3:0:0:0:
101,130,111855,1,8,0:0:0:0:
248,112,112019,5,6,1:2:0:0:
68,135,112181,1,2,0:0:0:0:
248,112,112344,5,2,1:0:0:0:
68,135,112506,1,2,0:0:0:0:
240,308,112670,6,0,P|182:303|128:245,1,116.999994644165,4|0,1:2|0:0,0:0:0:0:
68,135,112996,1,8,0:0:0:0:
226,210,113159,1,4,1:0:0:0:
228,47,113322,1,0,3:0:0:0:
218,73,113403,1,0,3:0:0:0:
207,99,113485,1,8,0:0:0:0:
314,188,113649,6,0,L|317:305,1,116.999994644165,4|0,1:2|3:0,0:0:0:0:
411,130,113975,1,8,0:0:0:0:
487,219,114138,1,4,1:0:0:0:
489,247,114220,1,0,0:0:0:0:
491,276,114301,1,0,3:0:0:0:
418,371,114464,1,8,0:0:0:0:
316,304,114627,5,2,1:0:0:0:
316,304,114953,5,2,1:0:0:0:
165,99,115279,5,6,1:2:0:0:
