osu file format v14

[General]
AudioFilename: audio.mp3
AudioLeadIn: 0
PreviewTime: 74442
Countdown: 0
SampleSet: Soft
StackLeniency: 0.2
Mode: 0
LetterboxInBreaks: 0
WidescreenStoryboard: 0

[Editor]
Bookmarks: 140099
DistanceSpacing: 0.2
BeatDivisor: 4
GridSize: 32
TimelineZoom: 1.6

[Metadata]
Title:Bridge
TitleUnicode:Bridge
Artist:Tanchiky
ArtistUnicode:Tanchiky
Creator:Akali
Version:i like dubstep
Source:
Tags:chiky tan c92 driven destructure drumstep dnb
BeatmapID:1403900
BeatmapSetID:663249

[Difficulty]
HPDrainRate:6
CircleSize:4
OverallDifficulty:9.4
ApproachRate:9.8
SliderMultiplier:2.4
SliderTickRate:1

[Events]
//Background and Video events
0,0,"Konachan.com - 244351 sample.jpg",0,0
//Break Periods
2,23451,24121
2,26132,26964
2,28814,29646
//Storyboard Layer 0 (Background)
//Storyboard Layer 1 (Fail)
//Storyboard Layer 2 (Pass)
//Storyboard Layer 3 (Foreground)
//Storyboard Sound Samples

[TimingPoints]
658,335.195530726257,4,2,1,60,1,0
27976,-147.710487444609,4,2,1,60,0,0
28060,-147.710487444609,4,2,1,5,0,0
28479,-147.710487444609,4,2,1,60,0,0
32166,-125,4,2,1,80,0,0
53199,-125,4,2,1,5,0,0
53283,-125,4,2,1,80,0,0
54289,-125,4,2,1,60,0,0
65015,-100,4,2,1,80,0,0
65266,-100,4,2,1,6,0,0
65350,-100,4,2,1,80,0,0
66607,-100,4,2,1,5,0,0
66691,-100,4,2,1,80,0,0
67948,-100,4,2,1,5,0,0
68032,-100,4,2,1,80,0,0
69037,-80,4,2,1,80,0,0
69289,-80,4,2,1,5,0,0
69373,-80,4,2,1,80,0,0
69708,-100,4,2,1,80,0,0
70378,-75.0187546886722,4,2,1,80,0,0
71551,-100,4,2,1,80,0,0
71719,-75.187969924812,4,2,1,80,0,0
72138,-100,4,2,1,80,0,0
75406,-1000,4,2,1,80,0,0
75490,-1000,4,2,1,5,0,0
75741,-59.6302921884317,4,2,1,80,0,0
76160,-59.6302921884317,4,2,1,5,0,0
76244,-125,4,2,1,80,0,0
76495,-125,4,2,1,5,0,0
76579,-100,4,2,1,80,0,0
77082,-42.863266180883,4,2,1,80,0,0
77333,-33.3333333333333,4,2,1,80,0,0
77501,-33.3333333333333,4,2,1,5,0,0
77585,-100,4,2,1,80,0,0
78423,-59.6302921884317,4,2,1,80,0,0
78926,-125,4,2,1,80,0,0
79177,-125,4,2,1,5,0,0
79261,-100,4,2,1,80,0,0
79764,-33.3333333333333,4,2,1,80,0,0
80266,-100,4,2,1,80,0,0
81104,-59.6302921884317,4,2,1,80,0,0
81607,-125,4,2,1,80,0,0
81859,-125,4,2,1,5,0,0
81942,-100,4,2,1,80,0,0
82445,-42.863266180883,4,2,1,80,0,0
82697,-33.3333333333333,4,2,1,80,0,0
82864,-33.3333333333333,4,2,1,5,0,0
82948,-100,4,2,1,80,0,0
83786,-59.6302921884317,4,2,1,80,0,0
84289,-100,4,2,1,80,0,0
84456,-59.6302921884317,4,2,1,80,0,0
84959,-100,4,2,1,80,0,0
85127,-42.863266180883,4,2,1,80,0,0
85797,-42.863266180883,4,2,1,5,0,0
85881,-100,4,2,1,80,0,0
86468,-66.6666666666667,4,2,1,80,0,0
86719,-66.6666666666667,4,2,1,5,0,0
86803,-59.6302921884317,4,2,1,80,0,0
86970,-75.187969924812,4,2,1,80,0,0
87222,-75.187969924812,4,2,1,5,0,0
87306,-59.6302921884317,4,2,1,80,0,0
87473,-100,4,2,1,80,0,0
87808,-42.863266180883,4,2,1,80,0,0
88144,-59.6302921884317,4,2,1,80,0,0
88646,-75.187969924812,4,2,1,80,0,0
89652,-100,4,2,1,80,0,0
89903,-100,4,2,1,6,0,0
89987,-100,4,2,1,80,0,0
90490,-42.863266180883,4,2,1,80,0,0
90825,-75.187969924812,4,2,1,80,0,0
91831,-59.6302921884317,4,2,1,80,0,0
92333,-75.0187546886722,4,2,1,80,0,0
92585,-75.0187546886722,4,2,1,5,0,0
92669,-75.0187546886722,4,2,1,80,0,0
92836,-100,4,2,1,80,0,0
93171,-59.6302921884317,4,2,1,80,0,0
94009,-75.187969924812,4,2,1,80,0,0
94512,-59.6302921884317,4,2,1,80,0,0
95015,-100,4,2,1,80,0,0
95183,-59.6302921884317,4,2,1,80,0,0
95685,-100,4,2,1,80,0,0
95853,-42.863266180883,4,2,1,80,0,0
96021,-42.863266180883,4,2,1,5,0,0
96104,-42.863266180883,4,2,1,80,0,0
96272,-42.863266180883,4,2,1,5,0,0
96356,-100,4,2,1,80,0,0
96607,-100,4,2,1,5,0,0
96691,-100,4,2,1,80,0,0
97194,-59.6302921884317,4,2,1,80,0,0
97697,-75.0187546886722,4,2,1,80,0,0
98535,-59.6302921884317,4,2,1,80,0,0
98870,-59.6302921884317,4,2,1,80,0,0
99037,-100,4,2,1,80,0,0
99875,-59.6054121714252,4,2,1,80,0,0
100378,-100,4,2,1,80,0,0
101216,-59.6302921884317,4,2,1,80,0,0
101887,-75.0187546886722,4,2,1,80,0,0
102557,-59.6302921884317,4,2,1,80,0,0
103060,-125,4,2,1,80,0,0
103311,-125,4,2,1,5,0,0
103395,-100,4,2,1,80,0,0
103898,-42.863266180883,4,2,1,80,0,0
104149,-33.3333333333333,4,2,1,80,0,0
104317,-33.3333333333333,4,2,1,5,0,0
104401,-100,4,2,1,80,0,0
105239,-59.6302921884317,4,2,1,80,0,0
105741,-100,4,2,1,80,0,0
105909,-59.6302921884317,4,2,1,80,0,0
106412,-100,4,2,1,80,0,0
106579,-42.863266180883,4,2,1,80,0,0
107082,-59.6302921884317,4,2,1,80,0,0
107250,-59.6302921884317,4,2,1,5,0,0
107333,-100,4,2,1,80,0,0
107920,-75.0187546886722,4,2,1,80,0,0
108423,-75.0187546886722,4,2,1,80,0,0
109261,-59.6302921884317,4,2,1,80,0,0
109931,-100,4,2,1,80,0,0
110602,-59.6302921884317,4,2,1,80,0,0
111104,-100,4,2,1,80,0,0
111942,-42.863266180883,4,2,1,80,0,0
112278,-59.6302921884317,4,2,1,80,0,0
112613,-75.0187546886722,4,2,1,80,0,0
113283,-59.6302921884317,4,2,1,80,0,0
113618,-75.0187546886722,4,2,1,80,0,0
113786,-100,4,2,1,80,0,0
114121,-75.0187546886722,4,2,1,80,0,0
114289,-100,4,2,1,80,0,0
114624,-42.863266180883,4,2,1,80,0,0
114959,-59.6302921884317,4,2,1,80,0,0
115127,-100,4,2,1,80,0,0
115965,-59.6302921884317,4,2,1,80,0,0
116468,-100,4,2,1,80,0,0
116635,-59.6302921884317,4,2,1,80,0,0
117138,-100,4,2,1,80,0,0
117306,-42.863266180883,4,2,1,80,0,0
117557,-42.863266180883,4,2,1,5,0,0
117641,-100,4,2,1,80,0,0
117725,-100,4,2,1,5,0,0
117808,-100,4,2,1,80,0,0
118646,-75.0187546886722,4,2,1,100,0,0
118898,-75.0187546886722,4,2,1,80,0,0
123004,-125,4,2,1,80,0,0
123255,-125,4,2,1,5,0,0
123339,-75.187969924812,4,2,1,80,0,0
129624,-75.187969924812,4,2,1,5,0,0
129708,-75.187969924812,4,2,1,80,0,0
130965,-75.187969924812,4,2,1,5,0,0
131049,-75.187969924812,4,2,1,80,0,0
273842,-25,4,2,1,80,0,0
273926,-1000,4,2,1,80,0,0

[HitObjects]
103,36,22110,5,2,0:0:0:0:
103,36,22278,1,2,0:0:0:0:
103,36,24792,5,2,0:0:0:0:
103,36,24960,1,2,0:0:0:0:
103,36,27473,5,2,0:0:0:0:
103,36,27641,1,2,0:0:0:0:
121,68,27976,2,0,B|114:129|114:129|136:194|136:194|123:301,1,203.099989618149,2|0,0:0|0:0,0:0:0:0:
76,325,28479,1,8,0:0:0:0:
103,36,30155,5,2,0:0:0:0:
103,36,30323,1,2,0:0:0:0:
121,68,30825,2,0,L|218:75,1,81.2399958472597,2|0,0:0|0:0,0:0:0:0:
209,69,31049,1,0,0:0:0:0:
215,64,31104,1,0,0:0:0:0:
221,59,31160,2,0,L|318:66,1,81.2399958472597
411,11,31495,5,0,0:0:0:0:
399,173,31663,1,0,0:0:0:0:
409,40,31831,1,0,0:0:0:0:
256,192,31998,5,0,0:0:0:0:
257,200,32054,1,0,0:0:0:0:
258,208,32110,1,0,0:0:0:0:
259,216,32166,2,0,L|307:212,1,48,10|0,0:0|0:0,0:0:0:0:
491,133,32333,1,2,0:3:0:0:
188,150,32501,1,8,0:0:0:0:
505,366,32836,6,0,P|477:319|415:297,1,96,6|0,0:0|0:0,0:0:0:0:
432,302,33060,1,0,0:0:0:0:
422,303,33116,1,0,0:0:0:0:
412,304,33171,1,0,0:0:0:0:
278,359,33339,1,0,0:0:0:0:
144,304,33507,1,8,0:0:0:0:
259,216,33674,1,0,0:0:0:0:
249,217,33730,1,0,0:0:0:0:
239,218,33785,1,0,0:0:0:0:
229,219,33842,1,0,0:0:0:0:
242,361,34009,1,0,0:0:0:0:
334,252,34177,5,2,0:0:0:0:
324,144,34345,1,0,0:0:0:0:
261,92,34512,1,0,0:0:0:0:
185,108,34680,1,2,0:0:0:0:
177,113,34736,1,0,0:0:0:0:
172,121,34792,1,0,0:0:0:0:
171,130,34847,2,0,L|178:246,1,96,8|0,0:0|0:0,0:0:0:0:
334,252,35183,1,0,0:0:0:0:
97,211,35350,1,0,0:0:0:0:
334,252,35518,6,0,P|381:224|403:162,1,96,2|0,0:0|0:0,0:0:0:0:
398,179,35742,1,0,0:0:0:0:
397,169,35798,1,0,0:0:0:0:
396,159,35853,1,0,0:0:0:0:
306,45,36021,1,0,0:0:0:0:
253,180,36188,1,8,0:0:0:0:
163,67,36356,1,0,0:0:0:0:
162,77,36411,1,0,0:0:0:0:
161,87,36467,1,0,0:0:0:0:
160,97,36523,1,0,0:0:0:0:
302,121,36691,1,0,0:0:0:0:
26,148,36859,6,0,L|32:256,1,96,2|0,0:0|0:0,0:0:0:0:
244,279,37194,1,2,0:0:0:0:
40,245,37361,1,2,0:0:0:0:
49,247,37417,1,0,0:0:0:0:
58,249,37473,1,0,0:0:0:0:
67,251,37529,2,0,L|162:245,1,96,8|0,0:0|0:0,0:0:0:0:
233,119,37864,1,0,0:0:0:0:
244,279,38032,1,0,0:0:0:0:
26,148,38199,6,0,P|54:101|116:79,1,96,2|0,0:0|0:0,0:0:0:0:
99,84,38423,1,0,0:0:0:0:
109,85,38479,1,0,0:0:0:0:
119,86,38534,1,0,0:0:0:0:
153,226,38702,1,0,0:0:0:0:
208,93,38870,1,8,0:0:0:0:
242,233,39037,1,0,0:0:0:0:
243,223,39093,1,0,0:0:0:0:
244,213,39148,1,0,0:0:0:0:
245,203,39205,1,0,0:0:0:0:
67,251,39373,1,0,0:0:0:0:
190,323,39540,5,0,0:0:0:0:
309,311,39708,1,0,0:0:0:0:
386,255,39875,1,0,0:0:0:0:
405,180,40043,1,2,0:0:0:0:
402,170,40099,1,0,0:0:0:0:
396,161,40155,1,0,0:0:0:0:
387,153,40211,1,8,0:0:0:0:
311,133,40378,1,0,0:0:0:0:
365,78,40546,1,0,0:0:0:0:
309,311,40713,1,0,0:0:0:0:
460,232,40881,6,0,P|479:189|470:140,1,96,2|0,0:0|0:0,0:0:0:0:
465,135,41104,1,0,0:0:0:0:
465,125,41160,1,0,0:0:0:0:
465,115,41216,1,0,0:0:0:0:
332,208,41384,1,0,0:0:0:0:
318,47,41551,1,8,0:0:0:0:
186,140,41719,1,0,0:0:0:0:
195,140,41775,1,0,0:0:0:0:
205,141,41831,1,0,0:0:0:0:
215,141,41887,1,0,0:0:0:0:
94,63,42054,1,0,0:0:0:0:
40,237,42222,6,0,L|140:225,1,96,2|0,0:0|0:0,0:0:0:0:
88,95,42557,1,2,0:0:0:0:
115,326,42725,1,2,0:0:0:0:
132,331,42780,1,0,0:0:0:0:
149,331,42836,1,0,0:0:0:0:
165,326,42892,1,0,0:0:0:0:
215,141,43060,1,2,0:0:0:0:
277,368,43227,2,0,P|265:325|273:270,1,96,2|0,0:0|0:0,0:0:0:0:
374,69,43563,6,0,L|371:164,1,96,6|0,0:0|0:0,0:0:0:0:
356,176,43786,1,0,0:0:0:0:
357,195,43842,1,0,0:0:0:0:
358,214,43898,1,0,0:0:0:0:
488,309,44065,1,0,0:0:0:0:
277,368,44233,1,8,0:0:0:0:
405,331,44401,1,0,0:0:0:0:
406,312,44457,1,0,0:0:0:0:
407,293,44513,1,0,0:0:0:0:
408,274,44568,1,0,0:0:0:0:
280,237,44736,1,0,0:0:0:0:
158,281,44903,5,2,0:0:0:0:
54,251,45071,1,0,0:0:0:0:
20,182,45239,1,0,0:0:0:0:
47,110,45406,1,2,0:0:0:0:
64,119,45462,1,0,0:0:0:0:
79,133,45518,1,0,0:0:0:0:
89,149,45574,2,0,B|113:159|113:159|191:151,1,96,8|0,0:0|0:0,0:0:0:0:
409,128,45909,1,0,0:0:0:0:
212,14,46077,1,0,0:0:0:0:
305,223,46244,5,0,0:0:0:0:
353,0,46412,1,0,0:0:0:0:
354,19,46467,1,0,0:0:0:0:
355,38,46523,1,0,0:0:0:0:
356,57,46579,1,0,0:0:0:0:
182,151,46747,1,0,0:0:0:0:
409,128,46914,1,8,0:0:0:0:
212,14,47082,1,0,0:0:0:0:
213,33,47137,1,0,0:0:0:0:
214,52,47193,1,0,0:0:0:0:
215,71,47249,1,0,0:0:0:0:
442,48,47417,1,0,0:0:0:0:
349,257,47585,6,0,L|232:250,1,96,2|0,0:0|0:0,0:0:0:0:
26,274,47920,1,2,0:0:0:0:
177,259,48088,1,2,0:0:0:0:
167,258,48144,1,0,0:0:0:0:
157,257,48199,1,0,0:0:0:0:
147,256,48255,1,8,0:0:0:0:
265,381,48423,1,0,0:0:0:0:
239,121,48590,1,0,0:0:0:0:
131,359,48758,1,0,0:0:0:0:
391,331,48926,6,0,P|426:293|434:250,1,96,2|0,0:0|0:0,0:0:0:0:
424,234,49149,1,0,0:0:0:0:
443,236,49205,1,0,0:0:0:0:
462,238,49261,1,0,0:0:0:0:
331,148,49428,1,0,0:0:0:0:
475,80,49596,1,8,0:0:0:0:
315,62,49764,1,0,0:0:0:0:
334,64,49820,1,0,0:0:0:0:
353,66,49876,1,0,0:0:0:0:
372,68,49932,1,0,0:0:0:0:
354,228,50099,1,0,0:0:0:0:
225,133,50266,5,2,0:0:0:0:
101,182,50434,1,0,0:0:0:0:
26,163,50602,1,0,0:0:0:0:
80,108,50769,1,2,0:0:0:0:
92,123,50825,1,0,0:0:0:0:
100,142,50881,1,0,0:0:0:0:
103,161,50937,1,8,0:0:0:0:
76,301,51104,1,0,0:0:0:0:
225,133,51272,1,0,0:0:0:0:
178,373,51439,1,0,0:0:0:0:
393,343,51607,6,0,P|402:296|395:249,1,96,2|0,0:0|0:0,0:0:0:0:
370,227,51831,1,0,0:0:0:0:
360,229,51887,1,0,0:0:0:0:
350,231,51942,1,0,0:0:0:0:
511,266,52110,1,0,0:0:0:0:
461,110,52278,1,8,0:0:0:0:
300,145,52445,1,0,0:0:0:0:
310,147,52500,1,0,0:0:0:0:
320,149,52556,1,0,0:0:0:0:
330,151,52613,1,0,0:0:0:0:
141,118,52780,1,0,0:0:0:0:
207,299,52948,6,0,B|241:272|241:272|251:155,1,144,2|0,0:0|0:0,0:0:0:0:
242,142,53283,1,2,0:0:0:0:
52,207,53451,1,0,0:0:0:0:
350,231,53618,1,8,0:0:0:0:
135,88,53786,1,0,0:0:0:0:
137,98,53841,1,0,0:0:0:0:
139,108,53897,1,0,0:0:0:0:
141,118,53954,1,0,0:0:0:0:
176,289,54121,1,0,0:0:0:0:
350,230,54289,6,0,L|358:135,1,96,6|0,0:0|0:0,0:0:0:0:
392,100,54512,1,0,0:0:0:0:
390,119,54568,1,0,0:0:0:0:
388,138,54624,1,0,0:0:0:0:
247,170,54792,2,0,B|255:75|255:75|306:23,1,144
365,28,55127,2,0,P|365:51|357:74,1,48,2|0,0:3|0:3,0:3:0:0:
215,154,55294,2,0,L|211:201,1,48,2|0,0:3|0:3,0:3:0:0:
316,272,55462,2,0,L|320:224,1,48,2|0,0:3|0:3,0:3:0:0:
99,257,55630,5,0,0:0:0:0:
276,375,55797,1,0,0:0:0:0:
64,384,55965,1,0,0:0:0:0:
219,292,56132,2,0,B|211:202|211:202|185:179|185:179|123:184,1,144
100,139,56468,5,2,0:3:0:0:
94,157,56551,1,0,0:0:0:0:
105,239,56635,5,2,0:3:0:0:
99,257,56718,1,0,0:0:0:0:
23,226,56803,5,2,0:3:0:0:
29,208,56886,1,0,0:3:0:0:
94,157,56970,6,0,L|211:148,1,96
213,107,57194,1,0,0:0:0:0:
232,109,57250,1,0,0:0:0:0:
251,111,57306,1,0,0:0:0:0:
43,89,57473,2,0,B|16:135|16:135|23:226,1,144
94,304,57808,2,0,L|99:247,1,48,2|0,0:3|0:0,0:0:0:0:
189,149,57976,2,0,L|193:196,1,48,2|0,0:3|0:0,0:0:0:0:
278,350,58144,2,0,L|282:302,1,48,2|0,0:3|0:0,0:0:0:0:
412,231,58311,5,0,0:0:0:0:
220,212,58479,1,0,0:0:0:0:
431,336,58646,2,0,L|443:198,1,96,2|0,0:3|0:0,0:0:0:0:
412,231,58870,1,0,0:0:0:0:
431,230,58926,1,0,0:0:0:0:
449,225,58982,1,0,0:0:0:0:
346,26,59149,6,0,P|333:45|328:69,1,48
266,149,59317,2,0,P|289:150|312:143,1,48
414,156,59485,2,0,P|404:135|386:119,1,48
220,212,59652,6,0,P|265:225|317:220,1,96
352,202,59875,1,0,0:0:0:0:
349,221,59931,1,0,0:0:0:0:
346,240,59987,1,0,0:0:0:0:
147,359,60155,2,0,B|133:291|133:291|147:194,1,144
203,167,60490,2,0,P|215:188|220:212,1,48
53,294,60658,2,0,L|59:246,1,48
135,95,60825,2,0,L|128:142,1,48
215,286,60993,5,0,0:0:0:0:
51,167,61160,1,0,0:0:0:0:
195,47,61328,1,0,0:0:0:0:
332,218,61495,2,0,B|243:204|243:204|202:166,1,144
267,106,61831,5,2,0:3:0:0:
269,125,61914,1,0,0:0:0:0:
346,121,61998,5,2,0:3:0:0:
348,140,62081,1,0,0:0:0:0:
425,136,62166,5,2,0:3:0:0:
427,155,62249,1,0,0:0:0:0:
504,151,62333,6,0,B|508:209|508:209|496:259,1,96
454,264,62557,1,0,0:0:0:0:
456,283,62613,1,0,0:0:0:0:
458,302,62669,1,0,0:0:0:0:
296,352,62836,2,0,B|285:257|285:257|329:171,1,192
348,140,63227,1,0,0:0:0:0:
350,159,63283,1,0,0:0:0:0:
352,178,63339,2,0,L|358:241,1,48
209,367,63507,2,0,L|204:319,1,48
122,219,63674,5,8,0:0:0:0:
348,140,63842,1,0,0:0:0:0:
124,238,64009,5,8,0:0:0:0:
350,159,64177,1,0,0:0:0:0:
126,257,64345,5,8,0:0:0:0:
352,178,64513,1,0,0:0:0:0:
275,171,64680,1,0,0:0:0:0:
198,164,64847,1,0,0:0:0:0:
121,157,65015,6,0,B|128:123|138:102|171:80|215:86|215:86|199:157,1,180,2|0,0:0|0:0,0:0:0:0:
300,53,65350,2,0,L|275:171,1,120,2|0,0:0|0:0,0:0:0:0:
181,367,65685,2,0,B|184:306|184:306|210:250,1,120,2|0,0:0|0:0,0:0:0:0:
289,249,65937,1,0,0:0:0:0:
298,256,66021,2,0,B|325:272|325:272|372:277,1,60,2|0,0:0|0:0,0:0:0:0:
445,76,66188,2,0,B|418:60|418:60|371:55,1,60,2|0,0:0|0:0,0:0:0:0:
218,84,66356,6,0,P|230:152|266:74,1,180,2|0,0:0|0:0,0:0:0:0:
159,34,66691,2,0,P|132:87|133:146,1,120,2|0,0:0|0:0,0:0:0:0:
357,251,67026,2,0,L|289:256,1,60,2|0,0:0|0:0,0:0:0:0:
121,362,67194,2,0,L|189:367,1,60
295,298,67361,1,2,0:0:0:0:
276,282,67445,1,0,0:0:0:0:
251,277,67529,1,0,0:0:0:0:
226,285,67613,1,0,0:0:0:0:
270,352,67697,6,0,B|312:319|312:263|282:228|282:228|286:187,1,180,2|0,0:0|0:0,0:0:0:0:
213,170,68032,2,0,B|206:251|206:251|226:285,1,120,2|0,0:0|0:0,0:0:0:0:
451,117,68367,2,0,L|331:125,1,120,2|0,0:0|0:0,0:0:0:0:
247,17,68618,1,0,0:0:0:0:
256,26,68703,2,0,L|261:86,1,60,2|0,0:0|0:0,0:0:0:0:
131,235,68870,2,0,L|135:175,1,60,2|0,0:0|0:0,0:0:0:0:
107,34,69037,6,0,B|101:108|101:108|137:142|137:142|114:188|114:188|131:235,1,225,2|0,0:0|0:0,0:0:0:0:
293,178,69373,2,0,B|213:170|213:170|201:193|201:193|214:235,1,150,2|0,0:0|0:0,0:0:0:0:
336,313,69624,1,0,0:0:0:0:
346,306,69708,2,0,L|333:242,1,60,2|0,0:0|0:0,0:0:0:0:
371,63,69876,2,0,L|347:118,1,60
471,197,70043,5,2,0:0:0:0:
441,193,70127,1,0,0:0:0:0:
381,187,70210,5,0,0:0:0:0:
411,190,70294,1,0,0:0:0:0:
446,265,70378,6,0,P|407:273|370:262,1,79.9800017451691,10|0,0:0|0:0,0:0:0:0:
256,26,70546,1,2,0:0:0:0:
249,40,70713,1,2,0:0:0:0:
131,187,70881,5,10,0:0:0:0:
256,54,71049,1,2,0:0:0:0:
263,68,71216,1,2,0:0:0:0:
471,197,71384,5,10,0:0:0:0:
256,82,71551,2,0,L|262:153,1,60,2|0,0:0|0:0,0:0:0:0:
185,329,71719,6,0,P|176:290|188:252,1,79.9800017451691,10|0,0:0|0:0,0:0:0:0:
342,83,71887,1,10,0:0:0:0:
305,304,72054,1,2,0:0:0:0:
133,162,72222,5,10,0:0:0:0:
312,290,72389,1,2,0:0:0:0:
319,276,72557,1,2,0:0:0:0:
141,74,72725,6,0,L|146:133,1,60,10|0,0:0|0:0,0:0:0:0:
305,248,72892,2,0,L|310:188,1,60,10|0,0:0|0:0,0:0:0:0:
27,141,73060,5,8,0:0:0:0:
38,138,73144,1,0,0:0:0:0:
49,135,73227,1,0,0:0:0:0:
60,132,73311,1,0,0:0:0:0:
132,103,73395,2,0,P|137:132|133:162,1,60,8|0,0:0|0:0,0:0:0:0:
31,263,73563,2,0,P|26:292|31:321,1,60
137,284,73730,5,8,0:0:0:0:
126,287,73814,1,0,0:0:0:0:
115,290,73898,1,0,0:0:0:0:
104,293,73981,1,0,0:0:0:0:
177,323,74065,2,0,P|181:293|176:264,1,60,8|0,0:0|0:0,0:0:0:0:
132,103,74233,2,0,P|127:132|132:161,1,60
311,169,74401,5,2,0:1:0:0:
300,159,74484,1,0,0:0:0:0:
285,158,74568,1,0,0:0:0:0:
274,168,74652,1,0,0:0:0:0:
347,185,74736,5,2,0:1:0:0:
385,120,74820,1,0,0:0:0:0:
335,63,74903,1,0,0:0:0:0:
266,93,74987,1,0,0:0:0:0:
398,105,75071,5,2,0:1:0:0:
406,87,75154,1,0,0:1:0:0:
408,48,75238,5,2,0:1:0:0:
410,67,75321,1,0,0:1:0:0:
458,173,75406,6,0,L|457:186,1,12
457,183,75741,6,0,P|362:192|329:282,1,201.240004060973,6|0,0:0|0:0,0:0:0:0:
191,332,75993,2,0,B|139:347|139:347|286:364,1,201.240004060973,8|0,0:0|0:0,0:0:0:0:
427,358,76244,6,0,B|365:372|365:372|285:363,1,144,2|0,0:0|0:0,0:0:0:0:
177,260,76579,5,2,0:1:0:0:
184,296,76663,1,0,0:1:0:0:
252,253,76747,5,2,0:1:0:0:
249,218,76831,1,0,0:1:0:0:
328,245,76914,5,2,0:1:0:0:
328,281,76998,1,0,0:1:0:0:
184,296,77082,6,0,B|186:247|186:247|224:230|244:179|244:179|277:227|314:234|314:234|341:326,1,279.960001238837,2|0,0:0|0:0,0:0:0:0:
328,208,77333,2,0,P|234:90|170:226,1,360.000013732911,8|0,0:0|0:0,0:0:0:0:
70,320,77585,5,2,0:0:0:0:
104,324,77669,1,0,0:0:0:0:
108,288,77752,1,0,0:0:0:0:
74,285,77836,1,0,0:0:0:0:
13,206,77920,5,2,0:1:0:0:
47,210,78004,1,0,0:0:0:0:
78,135,78088,5,0,0:0:0:0:
81,214,78171,1,0,0:0:0:0:
108,288,78255,1,0,0:0:0:0:
165,345,78339,1,0,0:0:0:0:
247,367,78423,6,0,B|254:338|249:309|226:282|226:282|255:251|260:199|228:145,1,201.240004060973,2|0,0:0|0:0,0:0:0:0:
92,57,78674,2,0,P|84:153|157:219,1,201.240004060973,8|0,0:0|0:0,0:0:0:0:
312,154,78926,6,0,P|261:119|248:183,1,144,2|0,0:0|0:0,0:0:0:0:
372,241,79261,5,8,0:0:0:0:
377,205,79345,1,0,0:0:0:0:
468,140,79428,5,0,0:0:0:0:
454,174,79512,1,0,0:0:0:0:
312,154,79595,5,0,0:0:0:0:
307,117,79679,1,0,0:0:0:0:
343,11,79764,6,0,B|402:34|436:94|419:165|378:205|378:205|321:236|328:275|367:293|396:261|357:212,1,360.000013732911,2|0,0:0|0:0,0:0:0:0:
118,300,80015,2,0,B|149:297|149:297|191:308|191:308|229:290|229:290|267:287|267:287|285:333|333:370|397:357|434:312,1,360.000013732911,8|0,0:0|0:0,0:0:0:0:
231,147,80266,6,0,P|254:211|268:147,1,180,2|0,0:0|0:0,0:0:0:0:
177,85,80602,5,0,0:0:0:0:
189,120,80685,1,0,0:0:0:0:
307,117,80769,5,0,0:0:0:0:
317,82,80853,1,0,0:0:0:0:
244,0,80937,6,0,L|247:59,1,60,2|0,0:0|0:0,0:0:0:0:
118,300,81104,6,0,B|76:229|123:161|123:161|131:179|154:197|197:199,1,201.240004060973,6|0,0:0|0:0,0:0:0:0:
307,116,81356,2,0,P|243:53|189:122,1,201.240004060973,8|0,0:0|0:0,0:0:0:0:
261,233,81607,6,0,P|256:163|306:116,1,144
367,200,81942,5,8,0:0:0:0:
332,194,82026,1,0,0:0:0:0:
414,266,82110,5,2,0:1:0:0:
449,260,82194,1,0,0:0:0:0:
367,332,82278,5,2,0:1:0:0:
332,326,82362,1,0,0:0:0:0:
293,151,82445,6,0,B|360:137|422:187|414:266|414:266|400:220|365:199,1,279.960001238837,2|0,0:0|0:0,0:0:0:0:
236,277,82697,2,0,P|368:348|366:199,1,360.000013732911,8|0,0:0|0:0,0:0:0:0:
172,173,82948,5,2,0:0:0:0:
175,208,83032,1,0,0:0:0:0:
210,205,83116,1,0,0:0:0:0:
207,170,83200,1,0,0:0:0:0:
94,110,83283,5,0,0:0:0:0:
97,145,83367,1,0,0:0:0:0:
172,173,83451,5,0,0:0:0:0:
221,110,83535,1,0,0:0:0:0:
176,43,83618,1,0,0:0:0:0:
99,65,83702,1,0,0:0:0:0:
43,122,83786,6,0,B|48:223|48:223|96:331,1,201.240004060973,6|0,0:0|0:0,0:0:0:0:
354,273,84037,2,0,P|282:211|201:259,1,201.240004060973,8|0,0:0|0:0,0:0:0:0:
269,353,84289,2,0,L|275:294,1,60,2|0,0:0|0:0,0:0:0:0:
73,108,84456,6,0,B|78:209|78:209|126:317,1,201.240004060973,6|0,0:0|0:0,0:0:0:0:
384,259,84707,2,0,P|312:197|230:245,1,201.240004060973,8|0,0:0|0:0,0:0:0:0:
299,339,84959,2,0,L|304:279,1,60,2|0,0:0|0:0,0:0:0:0:
404,25,85127,6,0,B|430:85|382:135|382:135|422:154|422:154|373:202|384:259,1,279.960001238837,2|0,0:0|0:0,0:0:0:0:
472,301,85378,2,0,B|480:190|422:154|422:154|373:202|384:259,1,279.960001238837,2|0,0:0|0:0,0:0:0:0:
299,339,85630,6,0,P|388:280|270:252,1,279.960001238837,2|0,0:0|0:0,0:0:0:0:
122,214,85881,6,0,P|135:219|150:218,1,30,2|0,0:1|0:0,0:0:0:0:
183,273,85965,2,0,P|180:258|172:246,1,30,2|0,0:1|0:0,0:0:0:0:
203,190,86049,2,0,P|191:199|185:212,1,30,2|0,0:1|0:0,0:0:0:0:
105,203,86132,5,8,0:3:0:0:
90,292,86216,1,8,0:3:0:0:
142,365,86300,1,2,0:3:0:0:
231,380,86384,1,2,0:3:0:0:
200,296,86468,6,0,B|142:365|142:365|231:380|231:380|287:310,1,270.000010299683,2|0,0:0|0:0,0:0:0:0:
379,331,86803,2,0,P|330:336|287:310,1,100.620002030486,8|0,0:0|0:0,0:0:0:0:
317,36,86970,2,0,B|362:94|362:94|346:260,1,239.399990137024,6|0,0:0|0:0,0:0:0:0:
287,310,87306,2,0,P|268:264|281:216,1,100.620002030486,8|0,0:0|0:0,0:0:0:0:
442,85,87473,5,2,0:1:0:0:
439,121,87557,1,0,0:1:0:0:
381,224,87641,5,2,0:1:0:0:
384,188,87725,1,0,0:1:0:0:
314,109,87808,6,0,B|288:132|271:171|282:217|282:217|237:206|228:167|228:167|203:205|166:232|87:209|56:147|96:74,1,419.940001858255,2|0,0:0|0:0,0:0:0:0:
119,42,88144,2,0,P|152:78|158:128,1,100.620002030486,8|0,0:0|0:0,0:0:0:0:
46,315,88311,1,0,0:0:0:0:
40,274,88395,1,0,0:0:0:0:
55,235,88479,1,0,0:0:0:0:
87,208,88563,1,0,0:0:0:0:
127,199,88646,2,0,P|167:204|205:192,1,79.7999967123414,2|0,0:0|0:0,0:0:0:0:
374,56,88814,5,8,0:0:0:0:
314,109,88898,1,0,0:0:0:0:
288,184,88982,1,0,0:0:0:0:
302,261,89065,1,0,0:0:0:0:
352,320,89149,6,0,L|453:329,1,79.7999967123414,2|0,0:0|0:0,0:0:0:0:
127,199,89317,2,0,L|26:208,1,79.7999967123414
298,30,89484,1,8,0:0:0:0:
465,186,89652,2,0,B|406:180|406:180|355:194|355:194|288:184,1,180,2|0,0:0|0:0,0:0:0:0:
234,91,89987,5,8,0:0:0:0:
229,126,90071,1,0,0:0:0:0:
145,170,90155,5,0,0:0:0:0:
150,135,90239,1,8,0:0:0:0:
225,71,90322,5,8,0:0:0:0:
220,106,90406,1,0,0:0:0:0:
117,148,90490,6,0,B|111:79|173:49|225:71|225:71|262:108|262:108|315:94|315:94|383:120|383:120|469:103,1,419.940001858255,2|0,0:0|0:0,0:0:0:0:
472,23,90825,2,0,L|391:38,1,79.7999967123414
208,225,90993,5,2,0:0:0:0:
326,204,91076,1,2,0:0:0:0:
444,183,91160,2,0,L|459:102,1,79.7999967123414,2|0,0:0|0:0,0:0:0:0:
105,167,91328,2,0,L|90:248,1,79.7999967123414,2|0,0:0|0:0,0:0:0:0:
425,374,91495,1,0,0:0:0:0:
411,297,91579,1,0,0:0:0:0:
360,237,91663,1,0,0:0:0:0:
286,211,91747,1,0,0:0:0:0:
208,225,91831,6,0,B|211:243|227:273|263:286|263:286|289:229|289:229|344:269|344:269|371:237|370:194|352:163,1,301.860006091459,6|0,0:0|0:0,0:0:0:0:
177,239,92166,2,0,P|200:284|240:313,1,100.620002030486,8|0,0:0|0:0,0:0:0:0:
375,292,92333,6,0,B|417:226|393:141|364:112|364:112|326:141,1,239.940005235507,2|0,0:0|0:0,0:0:0:0:
208,225,92669,2,0,P|232:268|284:293,1,79.9800017451691,8|0,0:0|0:0,0:0:0:0:
449,102,92836,5,2,0:1:0:0:
431,72,92920,1,0,0:1:0:0:
315,51,93004,5,2,0:1:0:0:
285,72,93088,1,0,0:1:0:0:
254,146,93171,6,0,B|285:169|307:160|326:141|326:141|305:122|268:120|268:120|213:131|213:131|158:115|158:115|92:126,1,301.860006091459,2|0,0:0|0:0,0:0:0:0:
46,50,93507,2,0,P|18:94|18:151,1,100.620002030486,8|0,0:0|0:0,0:0:0:0:
228,327,93674,1,0,0:0:0:0:
234,286,93758,1,0,0:0:0:0:
219,247,93842,1,0,0:0:0:0:
187,220,93926,1,0,0:0:0:0:
147,211,94009,2,0,L|59:225,1,79.7999967123414,2|0,0:0|0:0,0:0:0:0:
303,352,94177,5,8,0:0:0:0:
380,336,94261,1,0,0:0:0:0:
439,283,94344,1,0,0:0:0:0:
463,208,94428,1,0,0:0:0:0:
446,131,94512,6,0,B|414:178|414:178|426:331,1,201.240004060973,2|0,0:0|0:0,0:0:0:0:
304,333,94764,1,0,0:0:0:0:
305,314,94847,1,8,0:0:0:0:
280,84,95015,2,0,L|205:90,1,60,2|0,0:0|0:0,0:0:0:0:
1,284,95183,6,0,B|48:316|48:316|201:304,1,201.240004060973,2|0,0:0|0:0,0:0:0:0:
306,295,95434,1,0,0:0:0:0:
307,276,95517,1,8,0:0:0:0:
148,164,95685,2,0,L|154:239,1,60,2|0,0:0|0:0,0:0:0:0:
63,386,95853,6,0,B|6:352|6:352|1:284|1:284|53:241|53:241|46:114,1,279.960001238837,2|0,0:0|0:0,0:0:0:0:
178,80,96104,2,2,B|248:141|248:141|254:234|254:234|169:330,1,279.960001238837,2|2,0:1|0:1,0:1:0:0:
148,164,96356,6,2,P|87:205|164:203,1,180,2|2,0:1|0:1,0:1:0:0:
358,179,96691,5,0,0:0:0:0:
336,181,96775,1,0,0:0:0:0:
418,221,96859,5,8,0:3:0:0:
412,130,96942,1,8,0:3:0:0:
321,136,97026,1,2,0:3:0:0:
327,227,97110,1,2,0:3:0:0:
377,302,97194,6,0,P|270:218|198:329,1,301.860006091459,6|0,0:0|0:0,0:0:0:0:
286,308,97529,1,8,0:3:0:0:
412,130,97697,1,0,0:0:0:0:
363,67,97780,1,0,0:0:0:0:
283,56,97864,2,0,L|274:140,1,79.9800017451691
377,301,98032,2,0,P|364:262|334:230,1,79.9800017451691,2|0,0:0|0:0,0:0:0:0:
195,123,98199,5,8,0:0:0:0:
190,162,98283,1,0,0:0:0:0:
105,188,98367,5,2,0:1:0:0:
110,149,98451,1,8,0:0:0:0:
122,62,98535,6,0,B|195:123|195:123|190:162|190:162|105:188|105:188|93:295,1,301.860006091459,2|0,0:0|0:0,0:0:0:0:
198,329,98870,2,0,P|225:306|182:291,1,100.620002030486
0,189,99037,5,0,0:0:0:0:
27,212,99121,1,0,0:0:0:0:
96,266,99205,2,0,L|101:206,1,60,2|0,0:0|0:0,0:0:0:0:
283,56,99373,2,0,L|277:120,1,60,2|0,0:0|0:0,0:0:0:0:
451,264,99540,1,8,0:0:0:0:
418,192,99624,1,0,0:0:0:0:
343,163,99708,1,0,0:0:0:0:
270,196,99791,1,0,0:0:0:0:
230,285,99875,6,0,B|268:305|331:293|356:244|356:244|348:298|376:353|442:361,1,301.986003252054,2|0,0:0|0:0,0:0:0:0:
451,264,100211,1,8,0:0:0:0:
277,115,100378,2,0,B|217:120|217:120|169:159|169:159|104:163,1,180
74,74,100713,2,0,L|140:69,1,60,2|0,0:0|0:0,0:0:0:0:
215,260,100881,5,8,0:0:0:0:
197,291,100965,1,0,0:0:0:0:
44,297,101048,5,0,0:0:0:0:
22,269,101132,1,8,0:0:0:0:
104,194,101216,6,0,B|177:190|177:190|215:260|215:260|257:217|257:217|345:209,1,301.860006091459,2|0,0:0|0:0,0:0:0:0:
428,238,101551,2,0,P|397:278|351:296,1,100.620002030486,8|0,0:0|0:0,0:0:0:0:
277,115,101719,1,0,0:0:0:0:
299,81,101803,1,0,0:0:0:0:
321,47,101887,2,0,L|400:40,1,79.9800017451691,2|0,0:0|0:0,0:0:0:0:
490,144,102054,2,0,L|397:152,1,79.9800017451691,2|0,0:0|0:0,0:0:0:0:
220,58,102222,5,8,0:0:0:0:
277,115,102306,1,0,0:0:0:0:
297,192,102389,1,2,0:3:0:0:
275,268,102473,1,0,0:0:0:0:
217,322,102557,6,0,B|184:277|195:232|226:206|226:206|231:126,1,201.240004060973,2|0,0:0|0:0,0:0:0:0:
143,38,102808,2,0,B|135:167|135:167|183:227,1,201.240004060973,8|0,0:0|0:0,0:0:0:0:
376,191,103060,6,0,P|344:129|276:114,1,144,2|0,0:0|0:0,0:0:0:0:
171,161,103395,5,0,0:0:0:0:
193,189,103479,1,0,0:0:0:0:
309,215,103563,5,0,0:0:0:0:
273,220,103647,1,0,0:0:0:0:
193,307,103730,5,0,0:0:0:0:
206,273,103814,1,0,0:0:0:0:
193,189,103898,6,0,B|211:219|206:273|206:273|241:232|274:220|274:220|253:202|260:136|260:136|218:192,1,279.960001238837,2|0,0:0|0:0,0:0:0:0:
170,161,104149,2,0,P|190:306|308:206,1,360.000013732911,8|0,0:0|0:0,0:0:0:0:
298,98,104401,5,2,0:1:0:0:
301,133,104484,1,0,0:1:0:0:
336,130,104568,1,2,0:1:0:0:
333,95,104651,1,0,0:1:0:0:
218,41,104736,5,2,0:1:0:0:
221,76,104819,1,0,0:1:0:0:
301,133,104903,5,2,0:1:0:0:
224,111,104987,1,0,0:1:0:0:
146,130,105071,1,2,0:1:0:0:
88,185,105155,1,0,0:1:0:0:
65,262,105239,6,0,P|137:249|146:130,1,201.240004060973,2|0,0:0|0:0,0:0:0:0:
58,26,105490,2,0,B|2:77|2:77|9:203,1,201.240004060973,8|0,0:0|0:0,0:0:0:0:
144,348,105741,2,0,L|203:344,1,60,2|0,0:0|0:0,0:0:0:0:
301,254,105909,6,0,P|270:166|176:167,1,201.240004060973,2|0,0:0|0:0,0:0:0:0:
65,262,106160,2,0,B|115:317|115:317|241:311,1,201.240004060973,8|0,0:0|0:0,0:0:0:0:
404,186,106412,2,0,L|344:189,1,60,2|0,0:0|0:0,0:0:0:0:
176,167,106579,6,0,B|208:144|249:149|270:166|270:166|309:157|309:157|351:172|387:154|387:154|466:152,1,279.960001238837
344,76,106831,6,0,B|303:69|303:69|277:76|277:76|230:64|193:66|150:86|150:86|106:73|106:73|118:123,1,279.960001238837
301,254,107082,6,0,P|270:166|176:167,1,201.240004060973,2|0,0:0|0:0,0:0:0:0:
146,241,107333,1,2,0:0:0:0:
225,229,107417,1,2,0:1:0:0:
221,264,107501,1,0,0:0:0:0:
142,276,107585,5,8,0:3:0:0:
173,354,107669,1,8,0:3:0:0:
255,362,107752,1,2,0:3:0:0:
297,289,107836,1,2,0:3:0:0:
225,229,107920,6,0,B|146:241|146:241|49:205,1,159.960003490338,6|0,0:0|0:0,0:0:0:0:
31,121,108171,1,0,0:0:0:0:
89,65,108255,2,0,L|169:53,1,79.9800017451691,8|0,0:0|0:0,0:0:0:0:
378,156,108423,1,0,0:0:0:0:
320,212,108507,1,0,0:0:0:0:
297,289,108590,2,0,P|349:286|376:268,1,79.9800017451691
457,137,108758,1,2,0:0:0:0:
169,53,108926,5,8,0:0:0:0:
246,76,109010,1,0,0:0:0:0:
301,134,109093,1,2,0:1:0:0:
320,212,109178,1,0,0:0:0:0:
295,288,109261,6,0,B|264:275|241:248|242:213|242:213|195:245|195:245|144:225|144:225|150:257|141:280|110:312,1,301.860006091459,2|0,0:0|0:0,0:0:0:0:
30,331,109596,2,0,P|31:279|58:238,1,100.620002030486,8|0,0:0|0:0,0:0:0:0:
246,76,109764,5,0,0:0:0:0:
187,131,109848,1,8,0:0:0:0:
109,149,109931,2,0,L|95:64,1,60
270,0,110099,2,0,L|279:59,1,60,2|0,0:0|0:0,0:0:0:0:
377,201,110266,5,8,0:0:0:0:
344,188,110350,1,0,0:0:0:0:
226,223,110434,5,2,0:1:0:0:
254,201,110518,1,0,0:0:0:0:
287,116,110602,6,0,B|333:136|344:188|344:188|289:215|302:272|302:272|332:316|305:386,1,301.860006091459,2|0,0:0|0:0,0:0:0:0:
225,329,110937,1,8,0:0:0:0:
459,228,111104,1,0,0:0:0:0:
465,192,111188,1,0,0:0:0:0:
471,156,111272,2,0,L|462:92,1,60
278,56,111440,2,0,L|287:116,1,60,2|0,0:0|0:0,0:0:0:0:
377,201,111607,5,8,0:0:0:0:
349,223,111691,1,0,0:0:0:0:
226,223,111775,5,8,0:0:0:0:
259,236,111859,1,0,0:0:0:0:
312,310,111942,6,0,B|279:339|217:335|186:291|186:291|136:349|136:349|103:283|103:283|49:296|11:273|-11:228,1,419.940001858255,2|0,0:0|0:0,0:0:0:0:
65,93,112278,2,0,L|75:194,1,100.620002030486,8|0,0:0|0:0,0:0:0:0:
141,50,112445,1,0,0:0:0:0:
259,236,112613,2,0,L|266:156,1,79.9800017451691,2|0,0:0|0:0,0:0:0:0:
216,6,112780,2,0,L|223:85,1,79.9800017451691,2|0,0:0|0:0,0:0:0:0:
422,276,112948,5,8,0:0:0:0:
421,194,113031,1,0,0:0:0:0:
378,123,113116,1,8,0:3:0:0:
305,83,113199,1,0,0:0:0:0:
223,85,113283,6,0,B|220:111|243:151|266:156|266:156|309:108|309:108|377:124|377:124|485:83,1,301.860006091459,2|0,0:0|0:0,0:0:0:0:
467,9,113618,2,0,L|370:44,1,79.9800017451691,8|0,0:0|0:0,0:0:0:0:
191,77,113786,6,0,P|220:161|301:196,1,180,2|0,0:0|0:0,0:0:0:0:
216,6,114121,2,0,P|172:2|129:28,1,79.9800017451691,8|0,0:0|0:0,0:0:0:0:
44,140,114289,5,2,0:1:0:0:
45,176,114373,1,0,0:0:0:0:
187,195,114456,5,2,0:1:0:0:
199,162,114540,1,0,0:0:0:0:
125,132,114624,6,0,B|105:165|45:177|45:177|100:198|105:258|105:258|132:204|187:195|187:195|142:238|159:311,1,419.940001858255,2|0,0:0|0:0,0:0:0:0:
228,364,114959,2,0,P|252:320|251:270,1,100.620002030486,8|0,0:0|0:0,0:0:0:0:
199,162,115127,5,0,0:0:0:0:
230,179,115211,1,0,0:0:0:0:
265,178,115294,1,0,0:0:0:0:
295,159,115379,1,0,0:0:0:0:
311,128,115462,2,0,L|323:49,1,60,2|0,0:0|0:0,0:0:0:0:
503,219,115630,5,8,0:0:0:0:
472,292,115713,1,0,0:0:0:0:
408,339,115797,1,2,0:1:0:0:
329,348,115881,1,0,0:0:0:0:
256,316,115965,6,0,B|306:269|306:269|529:294,1,201.240004060973,2|0,0:0|0:0,0:0:0:0:
503,219,116216,1,0,0:0:0:0:
483,212,116300,1,8,0:0:0:0:
115,173,116468,2,0,L|174:179,1,60,2|0,0:0|0:0,0:0:0:0:
256,316,116635,6,0,B|206:363|206:363|-17:338,1,201.240004060973,2|0,0:0|0:0,0:0:0:0:
8,284,116886,1,0,0:0:0:0:
28,277,116970,1,8,0:0:0:0:
368,199,117138,2,0,L|308:192,1,60
177,24,117306,6,0,P|81:144|223:82,1,419.940001858255,2|0,0:0|0:0,0:0:0:0:
97,34,117641,6,0,P|73:61|66:102,1,60
113,170,117808,5,2,0:1:0:0:
153,175,117892,1,0,0:1:0:0:
219,124,117976,5,0,0:1:0:0:
223,84,118060,1,2,0:1:0:0:
327,164,118144,5,0,0:1:0:0:
243,154,118227,1,0,0:1:0:0:
177,206,118311,1,0,0:1:0:0:
165,279,118394,1,0,0:1:0:0:
186,330,118478,1,0,0:1:0:0:
213,350,118563,1,0,0:0:0:0:
273,299,118646,6,0,B|211:298|211:298|164:323|164:323|49:317,1,159.960003490338,4|0,0:1|0:0,0:0:0:0:
45,256,118898,1,2,0:0:0:0:
58,246,118982,1,8,0:0:0:0:
278,140,119149,2,0,L|437:144,1,159.960003490338
219,4,119484,2,0,L|224:104,1,79.9800017451691
395,208,119652,2,0,P|384:170|355:143,1,79.9800017451691,8|0,0:0|0:0,0:0:0:0:
202,160,119820,1,0,0:0:0:0:
154,165,119903,1,0,0:0:0:0:
106,170,119987,6,0,B|75:353|75:353|134:311,1,239.940005235507,2|0,0:0|0:0,0:0:0:0:
186,277,120322,1,8,0:0:0:0:
0,195,120490,2,0,L|25:37,1,159.960003490338
250,155,120825,1,0,0:0:0:0:
186,277,120993,2,0,P|178:239|200:192,1,79.9800017451691,8|0,0:0|0:0,0:0:0:0:
176,38,121160,2,0,P|212:50|242:92,1,79.9800017451691
388,149,121328,6,0,P|320:186|250:155,1,159.960003490338,2|0,0:0|0:0,0:0:0:0:
316,83,121579,1,2,0:0:0:0:
317,100,121663,1,8,0:0:0:0:
327,339,121831,1,0,0:0:0:0:
418,169,121998,1,0,0:0:0:0:
186,277,122166,2,0,L|298:272,1,79.9800017451691,2|0,0:0|0:0,0:0:0:0:
490,260,122333,5,8,0:0:0:0:
478,229,122417,1,0,0:0:0:0:
363,235,122501,1,2,0:1:0:0:
353,267,122585,1,0,0:0:0:0:
443,341,122669,6,0,B|478:229|478:229|409:116,1,239.940005235507,2|0,0:0|0:0,0:0:0:0:
316,83,123004,6,0,B|320:178|320:178|358:232,1,144,8|0,0:0|0:0,0:0:0:0:
363,235,123339,1,0,0:1:0:0:
87,249,123507,1,2,0:0:0:0:
34,121,123674,2,0,P|68:139|88:174,1,79.9800017451691,8|0,0:0|0:0,0:0:0:0:
222,267,123842,2,0,P|188:287|148:287,1,79.9800017451691,8|0,0:0|0:0,0:0:0:0:
33,121,124009,6,0,P|85:62|162:46,1,159.599993424683,6|0,0:0|0:0,0:0:0:0:
233,104,124261,1,2,0:0:0:0:
232,119,124345,1,8,0:0:0:0:
147,286,124512,2,0,P|201:341|277:321,1,159.599993424683
378,64,124847,2,0,L|298:56,1,79.7999967123414,2|0,0:0|0:0,0:0:0:0:
231,134,125015,1,8,0:0:0:0:
242,180,125099,1,0,0:0:0:0:
274,214,125183,1,0,0:0:0:0:
318,227,125266,1,0,0:0:0:0:
321,142,125350,6,0,B|231:132|231:132|197:145|197:145|68:134,1,239.399990137024,2|0,0:0|0:0,0:0:0:0:
38,70,125685,1,8,0:0:0:0:
116,308,125853,2,0,L|295:323,1,159.599993424683
209,141,126188,1,2,0:0:0:0:
114,232,126356,2,0,P|104:270|116:308,1,79.7999967123414,8|0,0:0|0:0,0:0:0:0:
344,292,126523,2,0,P|353:253|342:216,1,79.7999967123414
218,27,126691,6,0,B|209:141|209:141|236:185,1,159.599993424683,2|0,0:0|0:0,0:0:0:0:
304,145,126942,1,2,0:0:0:0:
294,131,127026,1,8,0:0:0:0:
99,79,127194,2,0,B|90:193|90:193|117:237,1,159.599993424683
354,306,127529,1,2,0:0:0:0:
344,292,127613,1,2,0:0:0:0:
333,278,127697,2,0,P|374:211|450:200,1,159.599993424683,8|0,0:0|0:0,0:0:0:0:
512,25,128032,6,0,L|333:45,1,159.599993424683,2|0,0:0|0:0,0:0:0:0:
99,79,128367,2,0,L|278:99,1,159.599993424683,8|0,0:0|0:0,0:0:0:0:
512,133,128702,1,0,0:0:0:0:
333,278,128870,2,0,P|300:286|220:268,1,79.7999967123414,2|0,0:0|0:0,0:0:0:0:
49,168,129037,1,8,0:0:0:0:
95,179,129121,1,0,0:0:0:0:
129,211,129205,1,0,0:0:0:0:
142,256,129289,1,0,0:0:0:0:
88,336,129373,6,0,P|49:231|139:164,1,239.399990137024,6|0,0:0|0:0,0:0:0:0:
216,175,129708,1,8,0:0:0:0:
161,367,129875,1,0,0:0:0:0:
334,311,130043,1,0,0:0:0:0:
142,256,130211,1,8,0:0:0:0:
157,251,130294,1,0,0:0:0:0:
172,246,130378,2,0,L|248:267,1,79.7999967123414,8|0,0:0|0:0,0:0:0:0:
421,211,130546,1,0,0:0:0:0:
403,166,130630,1,0,0:0:0:0:
385,121,130713,6,0,B|304:103|304:103|233:135|233:135|151:116,1,239.399990137024,2|0,0:0|0:0,0:0:0:0:
143,39,131049,1,8,0:0:0:0:
298,74,131216,1,0,0:0:0:0:
94,166,131384,1,0,0:0:0:0:
309,218,131551,1,0,0:0:0:0:
143,39,131719,6,0,L|152:123,1,79.7999967123414
248,267,131887,2,0,L|239:351,1,79.7999967123414
0,320,132054,2,0,L|21:121,1,159.599993424683,2|0,0:0|0:0,0:0:0:0:
92,150,132306,1,2,0:0:0:0:
94,166,132389,1,8,0:0:0:0:
108,348,132557,1,0,0:0:0:0:
248,267,132725,1,0,0:0:0:0:
101,243,132892,1,2,0:0:0:0:
238,345,133060,2,0,P|278:342|309:319,1,79.7999967123414,8|0,0:0|0:0,0:0:0:0:
307,128,133227,2,0,P|290:163|295:202,1,79.7999967123414
512,320,133395,6,0,L|490:121,1,159.599993424683,2|0,0:0|0:0,0:0:0:0:
225,109,133730,1,8,0:0:0:0:
356,255,133898,1,0,0:0:0:0:
420,150,134065,1,0,0:0:0:0:
183,181,134233,1,2,0:0:0:0:
376,48,134401,5,8,0:0:0:0:
380,64,134484,1,0,0:0:0:0:
307,128,134569,5,2,0:1:0:0:
303,144,134652,1,0,0:0:0:0:
346,226,134736,6,0,B|374:299|374:299|241:313|241:313|246:274,1,239.399990137024,6|0,0:0|0:0,0:0:0:0:
257,211,135071,1,8,0:0:0:0:
453,320,135239,2,0,L|295:339,1,159.599993424683
84,256,135574,2,0,L|175:267,1,79.7999967123414
303,144,135741,5,8,0:0:0:0:
277,103,135825,1,0,0:0:0:0:
233,80,135909,1,0,0:0:0:0:
184,82,135992,1,0,0:0:0:0:
127,138,136076,6,2,B|178:128|178:128|220:141|220:141|313:107|313:107|373:128,1,239.399990137024,2|0,0:0|0:0,0:0:0:0:
425,148,136412,1,8,0:0:0:0:
233,80,136579,1,0,0:0:0:0:
257,211,136747,1,0,0:0:0:0:
325,19,136914,1,2,0:0:0:0:
108,63,137082,2,0,P|108:103|127:138,1,79.7999967123414,8|0,0:0|0:0,0:0:0:0:
331,192,137250,2,0,P|291:192|256:210,1,79.7999967123414
84,256,137417,6,0,P|186:264|241:325,1,159.599993424683,2|0,0:0|0:0,0:0:0:0:
288,360,137669,1,2,0:0:0:0:
291,344,137752,1,8,0:0:0:0:
145,200,137920,1,0,0:0:0:0:
130,375,138088,1,0,0:0:0:0:
331,192,138256,1,2,0:0:0:0:
334,176,138339,1,10,0:0:0:0:
337,160,138423,2,0,L|249:152,1,79.7999967123414,8|0,0:0|0:0,0:0:0:0:
28,70,138590,2,0,L|116:62,1,79.7999967123414
258,0,138758,5,6,0:0:0:0:
340,144,138926,1,0,0:0:0:0:
307,306,139093,1,0,0:0:0:0:
145,200,139261,2,0,P|179:222|241:214,1,79.7999967123414
484,109,139428,5,2,0:0:0:0:
221,61,139596,1,0,0:0:0:0:
76,220,139764,1,0,0:0:0:0:
81,234,139847,1,0,0:0:0:0:
89,246,139931,1,0,0:0:0:0:
100,255,140015,1,0,0:0:0:0:
145,200,140099,5,6,0:0:0:0:
