osu file format v14

[General]
AudioFilename: audio.mp3
AudioLeadIn: 0
PreviewTime: 47075
Countdown: 0
SampleSet: Soft
StackLeniency: 0.7
Mode: 0
LetterboxInBreaks: 0
WidescreenStoryboard: 0

[Editor]
Bookmarks: 200,7700,15200,22700,30200,37700,47075,50825,58325,65825,73325,80825,87387,88793
DistanceSpacing: 1.25
BeatDivisor: 4
GridSize: 32
TimelineZoom: 1.2

[Metadata]
Title:Wa! Moon! dass! cry! (TV Size)
TitleUnicode:輪!Moon!dass!cry!(TV Size)
Artist:Tanaka Nozomu, Kikuchi Akane, Saginomiya Shiori
ArtistUnicode:田中 望、菊池 茜、鷺宮しおり
Creator:Yukiyo
Version:xenon's normal
Source:女子高生の無駄づかい
Tags:Striderin japanese anime opening weird wasteful days of high school girls 赤﨑千夏 戸松遥 豊崎愛生 Akasaki Chinatsu Tomatsu Haruka Toyosaki Aki amity Xehn nextplay xenon-
BeatmapID:2095144
BeatmapSetID:999023

[Difficulty]
HPDrainRate:4
CircleSize:3.2
OverallDifficulty:4
ApproachRate:5
SliderMultiplier:1
SliderTickRate:1

[Events]
//Background and Video events
0,0,"N82ARaj.jpg",0,0
//Break Periods
//Storyboard Layer 0 (Background)
//Storyboard Layer 1 (Fail)
//Storyboard Layer 2 (Pass)
//Storyboard Layer 3 (Foreground)
//Storyboard Sound Samples

[TimingPoints]
42,468.75,4,2,1,60,1,0
42,-76.9230769230769,4,2,1,60,0,0
6780,-76.9230769230769,4,2,99,5,0,0
6838,-76.9230769230769,4,2,1,60,0,0
7014,-76.9230769230769,4,2,99,5,0,0
7073,-76.9230769230769,4,2,1,60,0,0
7249,-76.9230769230769,4,2,99,5,0,0
7307,-76.9230769230769,4,2,1,60,0,0
7483,-76.9230769230769,4,2,99,5,0,0
7542,-76.9230769230769,4,2,1,80,0,0
18967,-76.9230769230769,4,2,99,5,0,0
19026,-76.9230769230769,4,2,1,80,0,0
20374,-76.9230769230769,4,2,99,5,0,0
20432,-76.9230769230769,4,2,1,80,0,0
20608,-76.9230769230769,4,2,99,5,0,0
20667,-76.9230769230769,4,2,1,80,0,0
22483,-76.9230769230769,4,2,99,5,0,0
22542,-76.9230769230769,4,2,1,80,0,0
22893,-76.9230769230769,4,2,99,5,0,0
23010,-76.9230769230769,4,2,1,80,0,0
23362,-76.9230769230769,4,2,99,5,0,0
23479,-76.9230769230769,4,2,1,80,0,0
23831,-76.9230769230769,4,2,99,5,0,0
23948,-76.9230769230769,4,2,1,80,0,0
24299,-76.9230769230769,4,2,99,5,0,0
24417,-76.9230769230769,4,2,1,80,0,0
24768,-76.9230769230769,4,2,99,5,0,0
24885,-76.9230769230769,4,2,1,80,0,0
25237,-76.9230769230769,4,2,99,5,0,0
25354,-76.9230769230769,4,2,1,80,0,0
25706,-76.9230769230769,4,2,99,5,0,0
25823,-76.9230769230769,4,2,1,80,0,0
26174,-76.9230769230769,4,2,99,5,0,0
26292,-76.9230769230769,4,2,1,80,0,0
27874,-76.9230769230769,4,2,99,5,0,0
27932,-76.9230769230769,4,2,1,80,0,0
28811,-76.9230769230769,4,2,99,5,0,0
28869,-76.9230769230769,4,2,1,80,0,0
29983,-76.9230769230769,4,2,99,5,0,0
30042,-76.9230769230769,4,2,1,80,0,0
30862,-76.9230769230769,4,2,99,5,0,0
30979,-76.9230769230769,4,2,1,80,0,0
31331,-76.9230769230769,4,2,99,5,0,0
31448,-76.9230769230769,4,2,1,80,0,0
31799,-76.9230769230769,4,2,99,5,0,0
31917,-76.9230769230769,4,2,1,80,0,0
32268,-76.9230769230769,4,2,99,5,0,0
32385,-76.9230769230769,4,2,1,80,0,0
32737,-76.9230769230769,4,2,99,5,0,0
32854,-76.9230769230769,4,2,1,80,0,0
33206,-76.9230769230769,4,2,99,5,0,0
33323,-76.9230769230769,4,2,1,80,0,0
33674,-76.9230769230769,4,2,99,5,0,0
33792,-76.9230769230769,4,2,1,80,0,0
37542,-76.9230769230769,4,2,1,60,0,0
46917,-76.9230769230769,4,2,1,80,0,0
48264,-76.9230769230769,4,2,99,5,0,0
48323,-76.9230769230769,4,2,1,80,0,0
48499,-76.9230769230769,4,2,99,5,0,0
48557,-76.9230769230769,4,2,1,80,0,0
48733,-76.9230769230769,4,2,99,5,0,0
48792,-76.9230769230769,4,2,1,80,0,0
50608,-76.9230769230769,4,2,99,5,0,0
50667,-71.4285714285714,4,2,1,100,0,1
52483,-71.4285714285714,4,2,99,5,0,1
52542,-71.4285714285714,4,2,1,100,0,1
58108,-71.4285714285714,4,2,99,5,0,1
58167,-71.4285714285714,4,2,1,100,0,1
59983,-71.4285714285714,4,2,99,5,0,1
60042,-71.4285714285714,4,2,1,100,0,1
64905,-71.4285714285714,4,2,99,5,0,1
64963,-71.4285714285714,4,2,1,100,0,1
65139,-71.4285714285714,4,2,99,5,0,1
65198,-71.4285714285714,4,2,1,100,0,1
65374,-71.4285714285714,4,2,99,5,0,1
65432,-71.4285714285714,4,2,1,100,0,1
73108,-71.4285714285714,4,2,99,5,0,1
73167,-71.4285714285714,4,2,1,100,0,1
73342,-71.4285714285714,4,2,99,5,0,1
73401,-71.4285714285714,4,2,1,100,0,1
74983,-71.4285714285714,4,2,99,5,0,1
75042,-71.4285714285714,4,2,1,100,0,1
75217,-71.4285714285714,4,2,99,5,0,1
75276,-71.4285714285714,4,2,1,100,0,1
80608,-71.4285714285714,4,2,99,5,0,1
80667,-71.4285714285714,4,2,1,100,0,1
80842,-71.4285714285714,4,2,99,5,0,1
80901,-71.4285714285714,4,2,1,100,0,1
82483,-71.4285714285714,4,2,99,5,0,1
82542,-71.4285714285714,4,2,1,100,0,1
82717,-71.4285714285714,4,2,99,5,0,1
82776,-71.4285714285714,4,2,1,100,0,1
86233,-71.4285714285714,4,2,99,5,0,1
86292,-71.4285714285714,4,2,1,100,0,1
87229,-76.9230769230769,4,2,1,80,0,0

[Colours]
Combo1 : 114,124,163
Combo2 : 152,146,124
Combo3 : 199,147,112

[HitObjects]
116,170,42,6,0,B|108:107|108:107|110:104|110:104|102:41,2,129.999994049073,2|0|0,0:0|0:0|0:0,0:0:0:0:
181,217,1213,1,2,0:0:0:0:
423,190,1917,6,0,B|415:253|415:253|417:256|417:256|409:319,2,129.999994049073,2|0|0,0:0|0:0|0:0,0:0:0:0:
488,143,3088,2,0,L|478:63,1,64.9999970245363,2|2,0:0|0:0,0:0:0:0:
341,165,3792,6,0,B|222:150|281:231|163:216,1,194.999991073609,2|0,0:1|0:0,0:0:0:0:
104,160,4729,2,0,L|114:80,2,64.9999970245363,2|2|2,0:1|0:0|0:0,0:0:0:0:
168,309,5667,6,0,B|105:301|105:301|102:303|102:303|39:295,2,129.999994049073,2|2|2,0:1|0:1|0:1,0:0:0:0:
234,364,6838,1,0,0:0:0:0:
234,364,7073,2,0,P|266:366|305:346,1,64.9999970245363,8|2,0:0|0:0,0:0:0:0:
317,273,7542,6,0,B|352:244|352:244|339:158,2,129.999994049073,6|10|2,3:2|0:0|3:2,0:0:0:0:
245,237,8713,1,2,0:2:0:0:
245,237,8948,2,0,L|173:245,1,64.9999970245363,10|2,0:2|0:0,0:0:0:0:
116,292,9417,6,0,P|160:248|144:188,1,129.999994049073,2|10,3:2|0:0,0:0:0:0:
68,162,10120,1,2,3:2:0:0:
68,162,10354,1,2,3:2:0:0:
129,11,10823,1,10,0:0:0:0:
280,72,11292,6,0,P|203:100|194:157,2,129.999994049073,2|8|2,3:2|0:0|3:2,0:0:0:0:
333,140,12463,1,2,0:2:0:0:
333,140,12698,2,0,L|323:219,1,64.9999970245363,10|2,0:2|0:2,0:0:0:0:
399,236,13167,6,0,B|336:244|336:244|333:242|333:242|270:250,1,129.999994049073,2|8,3:2|0:0,0:0:0:0:
215,310,13870,1,2,3:2:0:0:
215,310,14104,1,2,3:2:0:0:
132,169,14573,1,10,0:2:0:0:
270,249,15042,6,0,L|289:90,1,129.999994049073,2|8,3:2|0:2,0:0:0:0:
360,87,15745,2,0,L|348:-8,1,64.9999970245363,0|0,3:2|3:2,0:0:0:0:
115,245,16917,6,0,P|177:257|181:333,1,129.999994049073,2|8,3:2|0:2,0:0:0:0:
116,358,17620,1,2,3:2:0:0:
116,358,17854,2,0,L|274:338,1,129.999994049073,2|10,3:2|0:2,0:0:0:0:
358,235,18792,6,0,L|228:219,2,129.999994049073,2|10|2,3:2|0:2|3:2,0:0:0:0:
426,189,19963,1,2,0:2:0:0:
426,189,20198,2,0,L|414:93,1,64.9999970245363,10|2,0:2|0:2,0:0:0:0:
338,108,20667,6,0,L|349:12,1,64.9999970245363,2|2,3:2|0:2,0:0:0:0:
277,0,21135,1,10,0:2:0:0:
277,0,21370,1,2,3:2:0:0:
352,231,22073,2,0,L|287:238,1,64.9999970245363,2|2,0:2|0:2,0:0:0:0:
247,309,22542,6,0,L|266:150,2,129.999994049073,0|10|2,3:2|0:2|3:2,0:0:0:0:
98,374,23948,1,10,0:2:0:0:
166,226,24417,6,0,L|146:67,1,129.999994049073,2|10,3:2|0:2,0:0:0:0:
76,62,25120,1,0,0:0:0:0:
76,62,25354,2,0,P|123:78|175:26,1,129.999994049073,2|10,3:2|0:2,0:0:0:0:
313,112,26292,6,0,P|351:63|411:76,2,129.999994049073,2|10|2,3:2|0:2|3:2,0:0:0:0:
255,169,27463,1,2,0:2:0:0:
255,169,27698,1,10,0:2:0:0:
280,329,28167,6,0,L|121:309,1,129.999994049073,2|10,3:2|0:2,0:0:0:0:
87,364,28870,1,2,3:2:0:0:
87,364,29104,2,0,P|118:325|87:258,1,129.999994049073,2|10,3:2|0:2,0:0:0:0:
58,186,29807,1,2,0:2:0:0:
58,186,30042,6,0,L|74:56,2,129.999994049073,2|10|2,3:2|0:2|3:2,0:0:0:0:
201,262,31448,1,10,0:2:0:0:
157,105,31917,6,0,L|316:85,1,129.999994049073,2|10,3:2|0:2,0:0:0:0:
321,15,32620,1,0,0:0:0:0:
321,15,32854,2,0,P|305:62|357:114,1,129.999994049073,2|10,3:2|0:2,0:0:0:0:
510,165,33792,6,0,P|449:152|412:201,2,129.999994049073,2|10|2,3:2|0:2|3:2,0:0:0:0:
429,306,35198,2,0,L|365:298,1,64.9999970245363,10|2,0:2|0:2,0:0:0:0:
311,236,35667,6,0,L|291:77,1,129.999994049073,2|10,3:2|0:2,0:0:0:0:
346,43,36370,1,0,3:2:0:0:
346,43,36604,2,0,P|307:74|240:43,1,129.999994049073,2|8,3:2|0:2,0:0:0:0:
79,23,37542,6,0,L|98:181,1,129.999994049073,0|2,3:2|0:2,0:0:0:0:
231,239,38479,2,0,P|239:285|210:322,2,97.4999955368044,2|2|2,0:2|0:2|0:2,0:0:0:0:
272,169,39417,5,2,3:2:0:0:
158,52,39885,1,2,0:2:0:0:
315,91,40354,2,0,P|361:82|398:111,2,97.4999955368044,2|2|2,0:2|0:2|0:2,0:0:0:0:
272,169,41292,6,0,P|226:173|201:259,1,129.999994049073,2|2,3:2|0:2,0:0:0:0:
51,321,42229,2,0,P|59:274|30:237,2,97.4999955368044,2|2|2,0:2|0:2|0:2,0:0:0:0:
108,379,43167,5,2,3:2:0:0:
262,329,43635,1,2,0:2:0:0:
137,224,44104,2,0,P|128:177|157:140,2,97.4999955368044,2|2|2,0:2|0:2|0:2,0:0:0:0:
203,271,45042,6,0,L|361:251,2,129.999994049073,2|2|2,3:2|0:2|0:2,0:0:0:0:
152,334,46213,1,2,0:2:0:0:
152,334,46448,1,2,0:2:0:0:
64,196,46917,5,2,3:2:0:0:
168,69,47385,1,2,3:2:0:0:
320,128,47854,2,0,L|300:286,1,129.999994049073,2|2,0:2|0:2,0:0:0:0:
362,321,48557,1,2,0:2:0:0:
362,321,48792,6,0,P|419:310|462:366,2,129.999994049073,0|0|0,3:2|0:2|0:2,0:0:0:0:
209,377,50198,1,2,0:2:0:0:
321,242,50667,6,0,B|288:226|288:226|254:233,1,69.9999978637696,6|0,3:2|0:2,0:0:0:0:
193,294,51135,1,10,0:2:0:0:
129,233,51370,2,0,L|148:74,1,139.999995727539,2|2,3:2|0:2,0:0:0:0:
219,45,52073,1,10,0:2:0:0:
56,109,52542,6,0,L|44:204,1,69.9999978637696,2|0,3:2|0:2,0:0:0:0:
0,253,53010,1,10,0:2:0:0:
49,325,53245,2,0,P|112:291|165:351,1,139.999995727539,2|2,3:2|0:2,0:0:0:0:
240,362,53948,1,10,0:2:0:0:
400,290,54417,6,0,B|444:257|444:257|434:171,1,139.999995727539,2|10,3:2|0:2,0:0:0:0:
355,135,55120,1,2,3:2:0:0:
278,177,55354,2,0,B|233:144|233:144|243:58,1,139.999995727539,2|10,3:2|0:2,0:0:0:0:
411,8,56292,6,0,P|485:30|477:103,1,139.999995727539,2|10,3:2|0:2,0:0:0:0:
416,131,56995,1,2,3:2:0:0:
475,194,57229,2,0,L|463:289,1,69.9999978637696,2|2,3:2|0:2,0:0:0:0:
395,314,57698,1,10,0:2:0:0:
332,150,58167,6,0,B|300:165|300:165|266:158,1,69.9999978637696,6|0,3:2|0:2,0:0:0:0:
204,98,58635,1,10,0:2:0:0:
140,159,58870,2,0,L|160:317,1,139.999995727539,2|2,3:2|0:2,0:0:0:0:
293,339,59573,1,10,0:2:0:0:
456,275,60042,6,0,L|467:179,1,69.9999978637696,2|0,3:2|0:2,0:0:0:0:
512,131,60510,1,10,0:2:0:0:
463,59,60745,2,0,P|400:93|347:33,1,139.999995727539,2|2,3:2|0:2,0:0:0:0:
272,22,61448,1,10,0:2:0:0:
331,186,61917,6,0,B|299:141|299:141|213:151,1,139.999995727539,2|10,3:2|0:2,0:0:0:0:
176,231,62620,1,2,3:2:0:0:
218,308,62854,2,0,B|186:352|186:352|100:342,1,139.999995727539,2|10,3:2|0:2,0:0:0:0:
44,175,63792,6,0,P|66:101|139:109,1,139.999995727539,2|10,3:2|0:2,0:0:0:0:
167,170,64495,1,2,3:2:0:0:
230,111,64729,2,0,L|326:122,1,69.9999978637696,2|2,3:2|0:2,0:0:0:0:
350,191,65198,1,10,0:2:0:0:
223,312,65667,6,0,L|318:300,1,69.9999978637696,2|0,3:2|0:0,0:0:0:0:
369,356,66135,1,10,0:2:0:0:
369,356,66370,1,2,3:2:0:0:
421,285,66604,2,0,P|403:215|473:170,1,139.999995727539,2|10,3:2|0:2,0:0:0:0:
310,62,67542,6,0,L|214:73,1,69.9999978637696,2|2,3:2|0:2,0:0:0:0:
169,23,68010,1,10,0:2:0:0:
169,23,68245,1,2,3:2:0:0:
112,89,68479,2,0,P|130:159|60:204,1,139.999995727539,2|10,3:2|0:2,0:0:0:0:
48,280,69182,1,2,0:2:0:0:
48,280,69417,6,0,B|39:211|39:211|41:208|41:208|32:139,2,139.999995727539,2|8|2,3:2|0:0|3:2,0:0:0:0:
39,366,70588,1,2,0:2:0:0:
120,334,70823,2,0,B|152:327|152:327|185:343,1,69.9999978637696,10|2,0:2|0:2,0:0:0:0:
265,378,71292,5,2,3:2:0:0:
323,213,71760,2,0,L|392:221,1,69.9999978637696,10|2,0:2|3:2,0:0:0:0:
431,300,72229,2,0,B|422:231|422:231|424:228|424:228|415:159,1,139.999995727539,2|2,0:2|0:2,0:0:0:0:
340,115,72932,1,0,0:0:0:0:
340,115,73167,6,0,P|306:120|275:104,1,69.9999978637696,6|2,3:2|0:2,0:0:0:0:
242,24,73635,1,8,0:2:0:0:
186,92,73870,2,0,B|194:158|194:158|192:161|192:161|201:230,1,139.999995727539,2|2,3:2|0:2,0:0:0:0:
277,273,74573,1,8,0:2:0:0:
354,125,75042,6,0,L|365:29,1,69.9999978637696,0|2,3:2|0:2,0:0:0:0:
430,0,75510,1,8,0:2:0:0:
478,72,75745,2,0,B|522:104|522:104|512:190,1,139.999995727539,2|2,3:2|0:2,0:0:0:0:
447,248,76448,1,8,0:2:0:0:
362,101,76917,6,0,P|297:109|273:183,1,139.999995727539,0|8,3:2|0:2,0:0:0:0:
238,253,77620,1,2,3:2:0:0:
324,241,77854,2,0,P|389:233|413:159,1,139.999995727539,0|8,3:2|0:2,0:0:0:0:
504,30,78792,6,0,L|345:10,1,139.999995727539,0|8,3:2|0:2,0:0:0:0:
292,63,79495,1,2,3:2:0:0:
348,129,79729,2,0,L|339:198,1,69.9999978637696,0|2,3:2|0:2,0:0:0:0:
327,286,80198,1,8,0:2:0:0:
185,182,80667,6,0,P|151:177|120:193,1,69.9999978637696,0|2,3:2|0:2,0:0:0:0:
77,269,81135,1,8,0:2:0:0:
33,192,81370,2,0,B|42:123|42:123|40:120|40:120|48:54,1,139.999995727539,2|2,3:2|0:2,0:0:0:0:
122,7,82073,1,8,0:2:0:0:
210,153,82542,6,0,L|221:249,1,69.9999978637696,0|2,3:2|0:2,0:0:0:0:
286,278,83010,1,8,0:2:0:0:
334,206,83245,2,0,B|378:174|378:174|368:88,1,139.999995727539,2|2,3:2|0:2,0:0:0:0:
291,45,83948,1,8,0:2:0:0:
156,156,84417,6,0,P|221:164|245:238,1,139.999995727539,0|8,3:2|0:2,0:0:0:0:
280,308,85120,1,0,3:2:0:0:
194,296,85354,2,0,P|129:288|105:214,1,139.999995727539,0|8,3:2|0:2,0:0:0:0:
240,116,86292,6,0,B|272:131|272:131|306:124,1,69.9999978637696,0|0,3:2|0:2,0:0:0:0:
314,37,86760,2,0,B|282:22|282:22|248:29,1,69.9999978637696,8|0,0:2|3:2,0:0:0:0:
168,65,87229,6,0,P|108:80|95:140,1,129.999994049073,0|0,0:2|0:2,0:0:0:0:
201,263,88167,2,0,L|193:327,2,64.9999970245363,0|0|0,0:2|0:2|0:2,0:0:0:0:
