osu file format v14

[General]
AudioFilename: audio.mp3
AudioLeadIn: 0
PreviewTime: 47481
Countdown: 0
SampleSet: Normal
StackLeniency: 0.2
Mode: 1
LetterboxInBreaks: 0
WidescreenStoryboard: 1

[Editor]
Bookmarks: 24571,30319,36068
DistanceSpacing: 0.8
BeatDivisor: 8
GridSize: 32
TimelineZoom: 1.6

[Metadata]
Title:Miracle Shopping ~Don Quijote no Thema~
TitleUnicode:Miracle Shopping ~ドン・キホーテのテーマ〜
Artist:Tanaka Maimi
ArtistUnicode:田中マイミ
Creator:iceOC
Version:Futsuu
Source:ドン・キホーテ
Tags:pop japanese donki ho-te te-ma theme mirakuru maimai milk
BeatmapID:2583388
BeatmapSetID:1242546

[Difficulty]
HPDrainRate:6
CircleSize:2
OverallDifficulty:4
ApproachRate:10
SliderMultiplier:1
SliderTickRate:1

[Events]
//Background and Video events
0,0,"DonQuijote_ShinjukuKabukicho.jpg",0,135
//Break Periods
//Storyboard Layer 0 (Background)
//Storyboard Layer 1 (Fail)
//Storyboard Layer 2 (Pass)
//Storyboard Layer 3 (Foreground)
//Storyboard Layer 4 (Overlay)
//Storyboard Sound Samples

[TimingPoints]
122,359.281437125748,4,1,0,50,1,0
47502,-100,4,1,0,60,0,0
47547,-100,4,1,0,60,0,1
70541,-100,4,1,0,60,0,0
70586,-100,4,1,0,50,0,0
93490,-100,4,1,0,60,0,0
93535,-100,4,1,0,60,0,1
116529,-100,4,1,0,60,0,0
116574,-100,4,1,0,50,0,0

[HitObjects]
256,192,1439,5,4,0:0:0:0:
256,192,1918,1,0,0:0:0:0:
256,192,2277,1,8,0:0:0:0:
256,192,2996,1,0,0:0:0:0:
256,192,3355,1,0,0:0:0:0:
256,192,3714,1,8,0:0:0:0:
256,192,4313,1,4,0:0:0:0:
256,192,4792,1,0,0:0:0:0:
256,192,5151,1,8,0:0:0:0:
256,192,5750,1,8,0:0:0:0:
256,192,6110,1,8,0:0:0:0:
256,192,6469,1,8,0:0:0:0:
256,192,6948,1,8,0:0:0:0:
256,192,7187,1,4,0:0:0:0:
256,192,7666,1,0,0:0:0:0:
256,192,8026,1,8,0:0:0:0:
256,192,8744,1,0,0:0:0:0:
256,192,9104,1,0,0:0:0:0:
256,192,9463,1,8,0:0:0:0:
256,192,10062,1,4,0:0:0:0:
256,192,10541,1,0,0:0:0:0:
256,192,10900,1,8,0:0:0:0:
256,192,11619,1,12,0:0:0:0:
256,192,12217,1,12,0:0:0:0:
256,192,12696,1,12,0:0:0:0:
256,192,13056,1,0,0:0:0:0:
256,192,13415,1,8,0:0:0:0:
256,192,13774,1,0,0:0:0:0:
256,192,14014,1,0,0:0:0:0:
256,192,14373,1,8,0:0:0:0:
256,192,14852,1,0,0:0:0:0:
256,192,15211,1,8,0:0:0:0:
256,192,15930,1,0,0:0:0:0:
256,192,16289,1,8,0:0:0:0:
256,192,16648,1,0,0:0:0:0:
256,192,16888,1,0,0:0:0:0:
256,192,17247,1,8,0:0:0:0:
256,192,17726,1,0,0:0:0:0:
256,192,18086,1,8,0:0:0:0:
256,192,18804,1,4,0:0:0:0:
256,192,19163,1,8,0:0:0:0:
256,192,19523,1,0,0:0:0:0:
256,192,19762,1,0,0:0:0:0:
256,192,20121,1,8,0:0:0:0:
256,192,20601,1,0,0:0:0:0:
256,192,20960,1,8,0:0:0:0:
256,192,21918,1,8,0:0:0:0:
256,192,22038,1,8,0:0:0:0:
256,192,22397,1,0,0:0:0:0:
256,192,22636,1,0,0:0:0:0:
256,192,22996,1,8,0:0:0:0:
256,192,23475,1,0,0:0:0:0:
256,192,24193,1,12,0:0:0:0:
256,192,24553,1,0,0:0:0:0:
256,192,24912,1,8,0:0:0:0:
256,192,25271,1,0,0:0:0:0:
256,192,25990,1,0,0:0:0:0:
256,192,26349,1,8,0:0:0:0:
256,192,26589,1,8,0:0:0:0:
256,192,26948,1,0,0:0:0:0:
256,192,27427,1,0,0:0:0:0:
256,192,27786,1,8,0:0:0:0:
256,192,28145,1,0,0:0:0:0:
256,192,28864,1,0,0:0:0:0:
256,192,29223,1,8,0:0:0:0:
256,192,29463,1,8,0:0:0:0:
256,192,29942,1,8,0:0:0:0:
256,192,30301,1,0,0:0:0:0:
256,192,30660,1,8,0:0:0:0:
256,192,31020,1,0,0:0:0:0:
256,192,31738,1,0,0:0:0:0:
256,192,32098,1,8,0:0:0:0:
256,192,32337,1,8,0:0:0:0:
256,192,32696,1,0,0:0:0:0:
256,192,33175,1,0,0:0:0:0:
256,192,33535,1,8,0:0:0:0:
256,192,33894,1,0,0:0:0:0:
256,192,34613,1,0,0:0:0:0:
256,192,34972,1,8,0:0:0:0:
256,192,35211,1,8,0:0:0:0:
256,192,35690,1,8,0:0:0:0:
256,192,36050,1,4,0:0:0:0:
256,192,36409,1,8,0:0:0:0:
256,192,36768,1,0,0:0:0:0:
256,192,37487,1,0,0:0:0:0:
256,192,37846,1,8,0:0:0:0:
256,192,38086,1,8,0:0:0:0:
256,192,38565,1,0,0:0:0:0:
256,192,38924,1,0,0:0:0:0:
256,192,39283,1,8,0:0:0:0:
256,192,39642,1,0,0:0:0:0:
256,192,40361,1,0,0:0:0:0:
256,192,40720,1,8,0:0:0:0:
256,192,41080,1,0,0:0:0:0:
256,192,41319,1,0,0:0:0:0:
256,192,41678,1,8,0:0:0:0:
256,192,42157,1,8,0:0:0:0:
256,192,42517,1,0,0:0:0:0:
256,192,42756,1,8,0:0:0:0:
256,192,43235,1,0,0:0:0:0:
256,192,43595,1,8,0:0:0:0:
256,192,43954,1,0,0:0:0:0:
256,192,44313,1,0,0:0:0:0:
256,192,44672,1,8,0:0:0:0:
256,192,45391,1,0,0:0:0:0:
256,192,45750,1,8,0:0:0:0:
256,192,46110,1,0,0:0:0:0:
256,192,46349,1,0,0:0:0:0:
256,192,46708,1,0,0:0:0:0:
256,192,47187,5,8,0:0:0:0:
256,192,47547,5,4,0:0:0:0:
256,192,47906,1,4,0:0:0:0:
256,192,48265,1,4,0:0:0:0:
256,192,48624,1,8,0:0:0:0:
256,192,48984,1,4,0:0:0:0:
256,192,49583,1,12,0:0:0:0:
256,192,50062,1,8,0:0:0:0:
256,192,50421,1,4,0:0:0:0:
256,192,50780,1,12,0:0:0:0:
256,192,51379,1,12,0:0:0:0:
256,192,51738,1,4,0:0:0:0:
256,192,52577,1,0,0:0:0:0:
256,192,53175,1,4,0:0:0:0:
256,192,53654,1,8,0:0:0:0:
256,192,54014,1,0,0:0:0:0:
256,192,54373,1,8,0:0:0:0:
256,192,54732,1,0,0:0:0:0:
256,192,55092,1,0,0:0:0:0:
256,192,55451,1,8,0:0:0:0:
256,192,56169,1,0,0:0:0:0:
256,192,56529,1,0,0:0:0:0:
256,192,56888,1,8,0:0:0:0:
256,192,57127,1,8,0:0:0:0:
256,192,57607,1,4,0:0:0:0:
256,192,57966,1,8,0:0:0:0:
256,192,58325,1,0,0:0:0:0:
256,192,59044,5,4,0:0:0:0:
256,192,59403,1,4,0:0:0:0:
256,192,59762,1,4,0:0:0:0:
256,192,60121,1,8,0:0:0:0:
256,192,60481,1,4,0:0:0:0:
256,192,61080,1,12,0:0:0:0:
256,192,61559,1,8,0:0:0:0:
256,192,61918,1,4,0:0:0:0:
256,192,62277,1,12,0:0:0:0:
256,192,62876,1,12,0:0:0:0:
256,192,63235,1,4,0:0:0:0:
256,192,64074,1,0,0:0:0:0:
256,192,64672,1,4,0:0:0:0:
256,192,65151,1,8,0:0:0:0:
256,192,65511,1,0,0:0:0:0:
256,192,65750,1,0,0:0:0:0:
256,192,66229,1,8,0:0:0:0:
256,192,66589,1,0,0:0:0:0:
256,192,66828,1,0,0:0:0:0:
256,192,67187,1,8,0:0:0:0:
256,192,67307,1,8,0:0:0:0:
256,192,67666,1,4,0:0:0:0:
256,192,68385,1,0,0:0:0:0:
256,192,68744,1,8,0:0:0:0:
256,192,68984,1,8,0:0:0:0:
256,192,69463,1,0,0:0:0:0:
256,192,69822,1,0,0:0:0:0:
256,192,70062,1,8,0:0:0:0:
256,192,70181,1,8,0:0:0:0:
256,192,70780,1,4,0:0:0:0:
256,192,71259,1,4,0:0:0:0:
256,192,71978,1,4,0:0:0:0:
256,192,72577,1,4,0:0:0:0:
256,192,73654,1,4,0:0:0:0:
256,192,74133,1,4,0:0:0:0:
256,192,74852,1,4,0:0:0:0:
256,192,75451,1,12,0:0:0:0:
256,192,76529,1,4,0:0:0:0:
256,192,77008,1,4,0:0:0:0:
256,192,77726,1,4,0:0:0:0:
256,192,78325,1,4,0:0:0:0:
256,192,79403,1,4,0:0:0:0:
256,192,79882,1,4,0:0:0:0:
256,192,80601,1,4,0:0:0:0:
256,192,81199,1,12,0:0:0:0:
256,192,82756,1,8,0:0:0:0:
256,192,83475,1,8,0:0:0:0:
256,192,84193,1,8,0:0:0:0:
256,192,85630,1,8,0:0:0:0:
256,192,86349,1,8,0:0:0:0:
256,192,87068,1,8,0:0:0:0:
256,192,87666,1,4,0:0:0:0:
256,192,88505,1,8,0:0:0:0:
256,192,89223,1,8,0:0:0:0:
256,192,89942,1,8,0:0:0:0:
256,192,90541,1,4,0:0:0:0:
256,192,91379,1,0,0:0:0:0:
256,192,92098,1,12,0:0:0:0:
256,192,92696,1,12,0:0:0:0:
256,192,93175,1,12,0:0:0:0:
256,192,93535,1,4,0:0:0:0:
256,192,93894,1,4,0:0:0:0:
256,192,94253,1,4,0:0:0:0:
256,192,94613,1,8,0:0:0:0:
256,192,94972,1,4,0:0:0:0:
256,192,95571,1,12,0:0:0:0:
256,192,96050,1,8,0:0:0:0:
256,192,96409,1,4,0:0:0:0:
256,192,96768,1,12,0:0:0:0:
256,192,97367,1,12,0:0:0:0:
256,192,97726,1,4,0:0:0:0:
256,192,98565,1,0,0:0:0:0:
256,192,99163,1,4,0:0:0:0:
256,192,99642,1,8,0:0:0:0:
256,192,100002,1,0,0:0:0:0:
256,192,100361,1,8,0:0:0:0:
256,192,100720,1,0,0:0:0:0:
256,192,101080,1,0,0:0:0:0:
256,192,101439,1,8,0:0:0:0:
256,192,102157,1,0,0:0:0:0:
256,192,102517,1,0,0:0:0:0:
256,192,102876,1,8,0:0:0:0:
256,192,103116,1,8,0:0:0:0:
256,192,103595,1,4,0:0:0:0:
256,192,103954,1,8,0:0:0:0:
256,192,104313,1,0,0:0:0:0:
256,192,105032,5,4,0:0:0:0:
256,192,105391,1,4,0:0:0:0:
256,192,105750,1,4,0:0:0:0:
256,192,106110,1,8,0:0:0:0:
256,192,106469,1,4,0:0:0:0:
256,192,107068,1,12,0:0:0:0:
256,192,107547,1,8,0:0:0:0:
256,192,107906,1,4,0:0:0:0:
256,192,108265,1,12,0:0:0:0:
256,192,108864,1,12,0:0:0:0:
256,192,109223,1,4,0:0:0:0:
256,192,110062,1,0,0:0:0:0:
256,192,110660,1,4,0:0:0:0:
256,192,111139,1,8,0:0:0:0:
256,192,111499,1,0,0:0:0:0:
256,192,111738,1,0,0:0:0:0:
256,192,112217,1,8,0:0:0:0:
256,192,112577,1,0,0:0:0:0:
256,192,112816,1,0,0:0:0:0:
256,192,113175,1,8,0:0:0:0:
256,192,113295,1,8,0:0:0:0:
256,192,113654,1,4,0:0:0:0:
256,192,114373,1,0,0:0:0:0:
256,192,114732,1,8,0:0:0:0:
256,192,114972,1,8,0:0:0:0:
256,192,115451,1,0,0:0:0:0:
256,192,115810,1,0,0:0:0:0:
256,192,116050,1,8,0:0:0:0:
256,192,116169,1,8,0:0:0:0:
256,192,116768,1,4,0:0:0:0:
256,192,117247,1,4,0:0:0:0:
256,192,117966,1,4,0:0:0:0:
256,192,118565,1,4,0:0:0:0:
256,192,119642,1,4,0:0:0:0:
256,192,120121,1,4,0:0:0:0:
256,192,120840,1,4,0:0:0:0:
256,192,121439,1,12,0:0:0:0:
256,192,122517,1,4,0:0:0:0:
256,192,122996,1,4,0:0:0:0:
256,192,123714,1,4,0:0:0:0:
256,192,124313,1,4,0:0:0:0:
256,192,125391,1,4,0:0:0:0:
256,192,125870,1,4,0:0:0:0:
256,192,126589,1,4,0:0:0:0:
256,192,127187,1,12,0:0:0:0:
256,192,128026,5,8,0:0:0:0:
256,192,128385,1,0,0:0:0:0:
256,192,128744,1,8,0:0:0:0:
256,192,129463,1,8,0:0:0:0:
256,192,129822,1,0,0:0:0:0:
256,192,130181,1,8,0:0:0:0:
256,192,130900,1,8,0:0:0:0:
256,192,131139,1,0,0:0:0:0:
256,192,131259,1,0,0:0:0:0:
256,192,131619,1,8,0:0:0:0:
256,192,131858,1,0,0:0:0:0:
256,192,131978,1,0,0:0:0:0:
256,192,132337,1,4,0:0:0:0:
256,192,132936,1,4,0:0:0:0:
256,192,133415,1,12,0:0:0:0:
