osu file format v14

[General]
AudioFilename: audio.mp3
AudioLeadIn: 0
PreviewTime: 80548
Countdown: 0
SampleSet: None
StackLeniency: 0.7
Mode: 3
LetterboxInBreaks: 0
SpecialStyle: 0
WidescreenStoryboard: 0

[Editor]
DistanceSpacing: 1.1
BeatDivisor: 4
GridSize: 4
TimelineZoom: 0.8500019

[Metadata]
Title:Ending Theme
TitleUnicode:Ending Theme
Artist:Tanaka Hirokazu
ArtistUnicode:田中 宏和
Creator:Adiopulse
Version:Insane
Source:Super Mario Land
Tags:
BeatmapID:1331698
BeatmapSetID:630875

[Difficulty]
HPDrainRate:8
CircleSize:4
OverallDifficulty:8
ApproachRate:5
SliderMultiplier:1.4
SliderTickRate:1

[Events]
//Background and Video events
0,0,"BG.jpg",0,0
//Break Periods
//Storyboard Layer 0 (Background)
//Storyboard Layer 1 (Fail)
//Storyboard Layer 2 (Pass)
//Storyboard Layer 3 (Foreground)
//Storyboard Sound Samples

[TimingPoints]
60,874.63556851312,4,3,0,20,1,0
28048,375,4,3,0,20,1,0
40048,-100,4,3,0,20,0,1
64048,-100,4,3,0,20,0,0
80548,-100,4,3,0,20,0,1
104548,-100,4,3,0,20,0,0

[HitObjects]
448,192,60,128,0,497:0:0:0:0:
64,192,60,128,0,497:0:0:0:0:
192,192,497,128,0,934:0:0:0:0:
448,192,934,128,0,1371:0:0:0:0:
320,192,934,128,0,1371:0:0:0:0:
64,192,1371,128,0,1809:0:0:0:0:
192,192,1371,128,0,1809:0:0:0:0:
320,192,1809,128,0,2246:0:0:0:0:
448,192,1809,128,0,2246:0:0:0:0:
192,192,2246,128,0,2683:0:0:0:0:
448,192,2683,128,0,3121:0:0:0:0:
64,192,3121,128,0,3558:0:0:0:0:
192,192,3121,128,0,3339:0:0:0:0:
320,192,3339,128,0,3558:0:0:0:0:
192,192,3558,128,0,3995:0:0:0:0:
448,192,3558,128,0,4433:0:0:0:0:
64,192,3995,128,0,4433:0:0:0:0:
320,192,4433,128,0,4870:0:0:0:0:
192,192,4433,128,0,5307:0:0:0:0:
448,192,4870,128,0,5745:0:0:0:0:
64,192,5307,128,0,6182:0:0:0:0:
320,192,5745,128,0,6619:0:0:0:0:
192,192,6182,128,0,6619:0:0:0:0:
448,192,6619,128,0,7057:0:0:0:0:
64,192,6619,128,0,7057:0:0:0:0:
192,192,7057,128,0,7494:0:0:0:0:
448,192,7494,128,0,8369:0:0:0:0:
64,192,7494,128,0,7931:0:0:0:0:
320,192,7931,128,0,8369:0:0:0:0:
192,192,8369,128,0,8806:0:0:0:0:
64,192,8369,128,0,9243:0:0:0:0:
448,192,8806,128,0,9243:0:0:0:0:
320,192,9243,128,0,9680:0:0:0:0:
448,192,9680,128,0,10118:0:0:0:0:
192,192,9680,128,0,10118:0:0:0:0:
64,192,10118,128,0,10555:0:0:0:0:
448,192,10555,128,0,11430:0:0:0:0:
320,192,10555,128,0,10992:0:0:0:0:
192,192,10992,128,0,11430:0:0:0:0:
64,192,11430,128,0,12304:0:0:0:0:
320,192,11430,128,0,11867:0:0:0:0:
448,192,11867,128,0,12304:0:0:0:0:
192,192,12304,128,0,12742:0:0:0:0:
320,192,12304,128,0,12742:0:0:0:0:
64,192,12742,128,0,13179:0:0:0:0:
448,192,13179,128,0,13616:0:0:0:0:
192,192,13179,128,0,13616:0:0:0:0:
320,192,13616,128,0,14054:0:0:0:0:
64,192,14054,128,0,14491:0:0:0:0:
448,192,14054,128,0,14491:0:0:0:0:
192,192,14491,128,0,14928:0:0:0:0:
64,192,14928,128,0,15366:0:0:0:0:
320,192,14928,128,0,15366:0:0:0:0:
448,192,15366,128,0,15803:0:0:0:0:
192,192,15366,128,0,15803:0:0:0:0:
320,192,15803,128,0,16240:0:0:0:0:
64,192,15803,128,0,16240:0:0:0:0:
448,192,16240,128,0,16678:0:0:0:0:
64,192,16678,128,0,17115:0:0:0:0:
192,192,17115,128,0,17552:0:0:0:0:
320,192,17115,128,0,17334:0:0:0:0:
448,192,17334,128,0,17552:0:0:0:0:
320,192,17552,128,0,17990:0:0:0:0:
64,192,17552,128,0,18427:0:0:0:0:
448,192,17990,128,0,18427:0:0:0:0:
192,192,18427,128,0,18864:0:0:0:0:
320,192,18427,128,0,18864:0:0:0:0:
448,192,18864,128,0,19739:0:0:0:0:
64,192,18864,128,0,19301:0:0:0:0:
320,192,19301,128,0,19739:0:0:0:0:
64,192,19739,128,0,21051:0:0:0:0:
192,192,19739,128,0,20176:0:0:0:0:
320,192,20176,128,0,20613:0:0:0:0:
448,192,20613,128,0,21051:0:0:0:0:
320,192,21051,128,0,21488:0:0:0:0:
448,192,21488,128,0,22800:0:0:0:0:
64,192,21488,128,0,21925:0:0:0:0:
192,192,21925,128,0,22363:0:0:0:0:
64,192,22363,128,0,22800:0:0:0:0:
320,192,22800,128,0,23237:0:0:0:0:
64,192,23237,128,0,23675:0:0:0:0:
448,192,23675,128,0,24112:0:0:0:0:
320,192,23675,128,0,24112:0:0:0:0:
192,192,24112,128,0,24549:0:0:0:0:
64,192,24549,128,0,24987:0:0:0:0:
448,192,24549,128,0,24987:0:0:0:0:
192,192,24987,128,0,25861:0:0:0:0:
320,192,24987,128,0,25424:0:0:0:0:
448,192,25424,128,0,25752:0:0:0:0:
64,192,25861,128,0,26299:0:0:0:0:
320,192,25861,128,0,26299:0:0:0:0:
448,192,26299,128,0,26736:0:0:0:0:
64,192,27173,128,0,27829:0:0:0:0:
448,192,28048,1,0,0:0:0:0:
320,192,28048,1,0,0:0:0:0:
192,192,28141,1,0,0:0:0:0:
448,192,28235,1,0,0:0:0:0:
64,192,28235,1,0,0:0:0:0:
320,192,28423,1,0,0:0:0:0:
192,192,28423,1,0,0:0:0:0:
448,192,28516,1,0,0:0:0:0:
192,192,28610,1,0,0:0:0:0:
64,192,28610,1,0,0:0:0:0:
448,192,28798,1,0,0:0:0:0:
320,192,28798,1,0,0:0:0:0:
192,192,28891,1,0,0:0:0:0:
320,192,28985,1,0,0:0:0:0:
64,192,28985,1,0,0:0:0:0:
192,192,29173,1,0,0:0:0:0:
448,192,29173,1,0,0:0:0:0:
320,192,29266,1,0,0:0:0:0:
64,192,29360,1,0,0:0:0:0:
192,192,29360,1,0,0:0:0:0:
320,192,29548,1,0,0:0:0:0:
64,192,29548,1,0,0:0:0:0:
448,192,29641,1,0,0:0:0:0:
192,192,29735,1,0,0:0:0:0:
320,192,29735,1,0,0:0:0:0:
448,192,29923,1,0,0:0:0:0:
64,192,29923,1,0,0:0:0:0:
192,192,30016,1,0,0:0:0:0:
64,192,30110,1,0,0:0:0:0:
448,192,30110,1,0,0:0:0:0:
192,192,30298,1,0,0:0:0:0:
320,192,30298,1,0,0:0:0:0:
64,192,30391,1,0,0:0:0:0:
448,192,30485,1,0,0:0:0:0:
320,192,30485,1,0,0:0:0:0:
64,192,30673,1,0,0:0:0:0:
192,192,30673,1,0,0:0:0:0:
448,192,30766,1,0,0:0:0:0:
64,192,30860,1,0,0:0:0:0:
320,192,30860,1,0,0:0:0:0:
192,192,31048,1,0,0:0:0:0:
448,192,31048,1,0,0:0:0:0:
320,192,31141,1,0,0:0:0:0:
192,192,31235,1,0,0:0:0:0:
64,192,31235,1,0,0:0:0:0:
320,192,31423,1,0,0:0:0:0:
448,192,31423,1,0,0:0:0:0:
192,192,31516,1,0,0:0:0:0:
448,192,31610,1,0,0:0:0:0:
64,192,31610,1,0,0:0:0:0:
320,192,31798,1,0,0:0:0:0:
192,192,31798,1,0,0:0:0:0:
64,192,31891,1,0,0:0:0:0:
448,192,31985,1,0,0:0:0:0:
192,192,31985,1,0,0:0:0:0:
320,192,32173,1,0,0:0:0:0:
64,192,32173,1,0,0:0:0:0:
192,192,32266,1,0,0:0:0:0:
448,192,32360,1,0,0:0:0:0:
64,192,32360,1,0,0:0:0:0:
320,192,32548,1,0,0:0:0:0:
448,192,32548,1,0,0:0:0:0:
192,192,32641,1,0,0:0:0:0:
320,192,32735,1,0,0:0:0:0:
64,192,32735,1,0,0:0:0:0:
192,192,32923,1,0,0:0:0:0:
448,192,32923,1,0,0:0:0:0:
64,192,33016,1,0,0:0:0:0:
320,192,33110,1,0,0:0:0:0:
448,192,33110,1,0,0:0:0:0:
448,192,33298,1,0,0:0:0:0:
64,192,33298,1,0,0:0:0:0:
192,192,33391,1,0,0:0:0:0:
320,192,33485,1,0,0:0:0:0:
64,192,33485,1,0,0:0:0:0:
192,192,33673,1,0,0:0:0:0:
448,192,33673,1,0,0:0:0:0:
320,192,33766,1,0,0:0:0:0:
64,192,33860,1,0,0:0:0:0:
192,192,33860,1,0,0:0:0:0:
320,192,34048,1,0,0:0:0:0:
448,192,34048,1,0,0:0:0:0:
64,192,34141,1,0,0:0:0:0:
192,192,34235,1,0,0:0:0:0:
320,192,34235,1,0,0:0:0:0:
64,192,34423,1,0,0:0:0:0:
448,192,34423,1,0,0:0:0:0:
320,192,34516,1,0,0:0:0:0:
448,192,34610,1,0,0:0:0:0:
192,192,34610,1,0,0:0:0:0:
192,192,34798,1,0,0:0:0:0:
64,192,34798,1,0,0:0:0:0:
320,192,34891,1,0,0:0:0:0:
448,192,34985,1,0,0:0:0:0:
64,192,34985,1,0,0:0:0:0:
320,192,35173,1,0,0:0:0:0:
192,192,35173,1,0,0:0:0:0:
448,192,35266,1,0,0:0:0:0:
192,192,35360,1,0,0:0:0:0:
64,192,35360,1,0,0:0:0:0:
448,192,35548,1,0,0:0:0:0:
320,192,35548,1,0,0:0:0:0:
192,192,35641,1,0,0:0:0:0:
448,192,35735,1,0,0:0:0:0:
64,192,35735,1,0,0:0:0:0:
320,192,35923,1,0,0:0:0:0:
192,192,35923,1,0,0:0:0:0:
448,192,36016,1,0,0:0:0:0:
64,192,36110,1,0,0:0:0:0:
192,192,36110,1,0,0:0:0:0:
448,192,36298,1,0,0:0:0:0:
320,192,36298,1,0,0:0:0:0:
64,192,36391,1,0,0:0:0:0:
448,192,36485,1,0,0:0:0:0:
192,192,36485,1,0,0:0:0:0:
64,192,36673,1,0,0:0:0:0:
320,192,36673,1,0,0:0:0:0:
448,192,36766,1,0,0:0:0:0:
64,192,36860,1,0,0:0:0:0:
320,192,36860,1,0,0:0:0:0:
448,192,37048,1,0,0:0:0:0:
192,192,37048,1,0,0:0:0:0:
320,192,37141,1,0,0:0:0:0:
192,192,37235,1,0,0:0:0:0:
64,192,37235,1,0,0:0:0:0:
320,192,37423,1,0,0:0:0:0:
448,192,37423,1,0,0:0:0:0:
64,192,37516,1,0,0:0:0:0:
448,192,37610,1,0,0:0:0:0:
192,192,37610,1,0,0:0:0:0:
320,192,37798,1,0,0:0:0:0:
64,192,37798,1,0,0:0:0:0:
448,192,37891,1,0,0:0:0:0:
192,192,37985,1,0,0:0:0:0:
64,192,37985,1,0,0:0:0:0:
448,192,38173,1,0,0:0:0:0:
320,192,38173,1,0,0:0:0:0:
64,192,38266,1,0,0:0:0:0:
448,192,38360,1,0,0:0:0:0:
192,192,38360,1,0,0:0:0:0:
320,192,38548,1,0,0:0:0:0:
64,192,38548,1,0,0:0:0:0:
448,192,38641,1,0,0:0:0:0:
192,192,38735,1,0,0:0:0:0:
64,192,38735,1,0,0:0:0:0:
448,192,38923,1,0,0:0:0:0:
320,192,38923,1,0,0:0:0:0:
192,192,39016,1,0,0:0:0:0:
64,192,39110,1,0,0:0:0:0:
448,192,39110,1,0,0:0:0:0:
320,192,39298,1,0,0:0:0:0:
192,192,39298,1,0,0:0:0:0:
448,192,39391,1,0,0:0:0:0:
320,192,39485,1,0,0:0:0:0:
64,192,39485,1,0,0:0:0:0:
64,192,39673,1,0,0:0:0:0:
192,192,39673,1,0,0:0:0:0:
448,192,39766,1,0,0:0:0:0:
64,192,39860,1,0,0:0:0:0:
320,192,39860,1,0,0:0:0:0:
448,192,40048,128,0,40235:0:0:0:0:
192,192,40048,1,0,0:0:0:0:
64,192,40235,1,0,0:0:0:0:
320,192,40423,1,0,0:0:0:0:
64,192,40423,1,0,0:0:0:0:
192,192,40610,128,0,40798:0:0:0:0:
448,192,40610,1,0,0:0:0:0:
64,192,40798,1,0,0:0:0:0:
448,192,40798,1,0,0:0:0:0:
320,192,40985,1,0,0:0:0:0:
64,192,41173,128,0,41360:0:0:0:0:
320,192,41173,1,0,0:0:0:0:
192,192,41173,1,0,0:0:0:0:
448,192,41360,1,0,0:0:0:0:
320,192,41548,1,0,0:0:0:0:
192,192,41735,128,0,41923:0:0:0:0:
64,192,41735,1,0,0:0:0:0:
448,192,41923,1,0,0:0:0:0:
320,192,41923,1,0,0:0:0:0:
320,192,42110,128,0,42298:0:0:0:0:
448,192,42110,1,0,0:0:0:0:
192,192,42298,1,0,0:0:0:0:
64,192,42298,1,0,0:0:0:0:
448,192,42485,128,0,42673:0:0:0:0:
320,192,42485,1,0,0:0:0:0:
320,192,42673,128,0,42860:0:0:0:0:
192,192,42673,1,0,0:0:0:0:
64,192,42673,1,0,0:0:0:0:
64,192,42860,128,0,44360:0:0:0:0:
448,192,42860,1,0,0:0:0:0:
192,192,43048,1,0,0:0:0:0:
448,192,43048,1,0,0:0:0:0:
320,192,43235,1,0,0:0:0:0:
192,192,43423,1,0,0:0:0:0:
320,192,43423,1,0,0:0:0:0:
448,192,43610,1,0,0:0:0:0:
448,192,43798,1,0,0:0:0:0:
192,192,43798,1,0,0:0:0:0:
320,192,43985,1,0,0:0:0:0:
192,192,44173,1,0,0:0:0:0:
448,192,44173,1,0,0:0:0:0:
192,192,44360,1,0,0:0:0:0:
448,192,44548,1,0,0:0:0:0:
320,192,44548,1,0,0:0:0:0:
192,192,44735,1,0,0:0:0:0:
64,192,44923,1,0,0:0:0:0:
320,192,44923,1,0,0:0:0:0:
448,192,45110,1,0,0:0:0:0:
320,192,45298,1,0,0:0:0:0:
192,192,45298,1,0,0:0:0:0:
64,192,45485,1,0,0:0:0:0:
448,192,45673,1,0,0:0:0:0:
320,192,45673,1,0,0:0:0:0:
192,192,45860,1,0,0:0:0:0:
448,192,46048,128,0,46235:0:0:0:0:
64,192,46048,1,0,0:0:0:0:
320,192,46048,1,0,0:0:0:0:
192,192,46235,1,0,0:0:0:0:
320,192,46423,1,0,0:0:0:0:
192,192,46423,1,0,0:0:0:0:
64,192,46610,128,0,46798:0:0:0:0:
448,192,46610,1,0,0:0:0:0:
192,192,46798,1,0,0:0:0:0:
448,192,46798,1,0,0:0:0:0:
320,192,46985,1,0,0:0:0:0:
192,192,47173,128,0,47360:0:0:0:0:
64,192,47173,1,0,0:0:0:0:
320,192,47173,1,0,0:0:0:0:
448,192,47360,1,0,0:0:0:0:
320,192,47548,128,0,48298:0:0:0:0:
448,192,47548,1,0,0:0:0:0:
64,192,47548,1,0,0:0:0:0:
192,192,47735,1,0,0:0:0:0:
64,192,47923,1,0,0:0:0:0:
192,192,47923,1,0,0:0:0:0:
64,192,48110,1,0,0:0:0:0:
448,192,48298,1,0,0:0:0:0:
192,192,48298,1,0,0:0:0:0:
192,192,48485,128,0,48673:0:0:0:0:
64,192,48485,1,0,0:0:0:0:
320,192,48673,128,0,48860:0:0:0:0:
448,192,48673,1,0,0:0:0:0:
64,192,48673,1,0,0:0:0:0:
448,192,48860,128,0,49610:0:0:0:0:
192,192,48860,1,0,0:0:0:0:
64,192,49048,1,0,0:0:0:0:
320,192,49048,1,0,0:0:0:0:
192,192,49235,1,0,0:0:0:0:
320,192,49423,1,0,0:0:0:0:
192,192,49423,1,0,0:0:0:0:
64,192,49610,1,0,0:0:0:0:
64,192,49798,128,0,50548:0:0:0:0:
192,192,49798,1,0,0:0:0:0:
448,192,49798,1,0,0:0:0:0:
320,192,49985,1,0,0:0:0:0:
192,192,50173,1,0,0:0:0:0:
320,192,50173,1,0,0:0:0:0:
448,192,50360,1,0,0:0:0:0:
192,192,50548,128,0,51298:0:0:0:0:
320,192,50548,1,0,0:0:0:0:
448,192,50548,1,0,0:0:0:0:
448,192,50735,1,0,0:0:0:0:
64,192,50923,1,0,0:0:0:0:
320,192,50923,1,0,0:0:0:0:
448,192,51110,1,0,0:0:0:0:
448,192,51298,1,0,0:0:0:0:
320,192,51298,1,0,0:0:0:0:
64,192,51485,1,0,0:0:0:0:
192,192,51673,1,0,0:0:0:0:
320,192,51673,1,0,0:0:0:0:
64,192,51860,1,0,0:0:0:0:
192,192,52048,128,0,52235:0:0:0:0:
448,192,52048,1,0,0:0:0:0:
320,192,52048,1,0,0:0:0:0:
64,192,52235,1,0,0:0:0:0:
320,192,52423,1,0,0:0:0:0:
64,192,52423,1,0,0:0:0:0:
448,192,52610,128,0,52798:0:0:0:0:
192,192,52610,1,0,0:0:0:0:
64,192,52798,1,0,0:0:0:0:
320,192,52798,1,0,0:0:0:0:
192,192,52985,1,0,0:0:0:0:
64,192,53173,128,0,53360:0:0:0:0:
448,192,53173,1,0,0:0:0:0:
320,192,53173,1,0,0:0:0:0:
192,192,53360,1,0,0:0:0:0:
448,192,53548,1,0,0:0:0:0:
192,192,53548,1,0,0:0:0:0:
320,192,53735,128,0,53923:0:0:0:0:
64,192,53735,1,0,0:0:0:0:
448,192,53923,1,0,0:0:0:0:
192,192,53923,1,0,0:0:0:0:
64,192,54110,128,0,54298:0:0:0:0:
320,192,54110,1,0,0:0:0:0:
448,192,54298,1,0,0:0:0:0:
192,192,54298,1,0,0:0:0:0:
192,192,54485,128,0,54673:0:0:0:0:
320,192,54485,1,0,0:0:0:0:
64,192,54673,128,0,54860:0:0:0:0:
448,192,54673,1,0,0:0:0:0:
320,192,54673,1,0,0:0:0:0:
448,192,54860,128,0,56360:0:0:0:0:
192,192,54860,1,0,0:0:0:0:
320,192,55048,1,0,0:0:0:0:
64,192,55048,1,0,0:0:0:0:
192,192,55235,1,0,0:0:0:0:
64,192,55423,1,0,0:0:0:0:
192,192,55423,1,0,0:0:0:0:
320,192,55610,1,0,0:0:0:0:
64,192,55798,1,0,0:0:0:0:
320,192,55798,1,0,0:0:0:0:
64,192,55985,1,0,0:0:0:0:
192,192,56173,1,0,0:0:0:0:
320,192,56173,1,0,0:0:0:0:
64,192,56360,1,0,0:0:0:0:
192,192,56548,1,0,0:0:0:0:
320,192,56548,1,0,0:0:0:0:
64,192,56735,1,0,0:0:0:0:
448,192,56923,1,0,0:0:0:0:
192,192,56923,1,0,0:0:0:0:
320,192,57110,1,0,0:0:0:0:
64,192,57298,1,0,0:0:0:0:
192,192,57298,1,0,0:0:0:0:
448,192,57485,1,0,0:0:0:0:
320,192,57673,1,0,0:0:0:0:
192,192,57673,1,0,0:0:0:0:
64,192,57860,1,0,0:0:0:0:
192,192,58048,128,0,58235:0:0:0:0:
320,192,58048,1,0,0:0:0:0:
448,192,58048,1,0,0:0:0:0:
64,192,58235,1,0,0:0:0:0:
192,192,58423,1,0,0:0:0:0:
448,192,58423,1,0,0:0:0:0:
448,192,58610,128,0,58798:0:0:0:0:
320,192,58610,1,0,0:0:0:0:
192,192,58798,1,0,0:0:0:0:
64,192,58798,1,0,0:0:0:0:
192,192,58985,1,0,0:0:0:0:
64,192,59173,128,0,59360:0:0:0:0:
448,192,59173,1,0,0:0:0:0:
320,192,59173,1,0,0:0:0:0:
192,192,59360,1,0,0:0:0:0:
192,192,59548,128,0,60298:0:0:0:0:
448,192,59548,1,0,0:0:0:0:
64,192,59548,1,0,0:0:0:0:
320,192,59735,1,0,0:0:0:0:
448,192,59923,1,0,0:0:0:0:
320,192,59923,1,0,0:0:0:0:
64,192,60110,1,0,0:0:0:0:
64,192,60298,1,0,0:0:0:0:
320,192,60298,1,0,0:0:0:0:
320,192,60485,128,0,60673:0:0:0:0:
448,192,60485,1,0,0:0:0:0:
448,192,60673,128,0,60860:0:0:0:0:
64,192,60673,1,0,0:0:0:0:
192,192,60673,1,0,0:0:0:0:
64,192,60860,128,0,61610:0:0:0:0:
320,192,60860,1,0,0:0:0:0:
192,192,61048,1,0,0:0:0:0:
448,192,61048,1,0,0:0:0:0:
320,192,61235,1,0,0:0:0:0:
192,192,61423,1,0,0:0:0:0:
320,192,61423,1,0,0:0:0:0:
448,192,61610,1,0,0:0:0:0:
320,192,61798,128,0,62548:0:0:0:0:
192,192,61798,1,0,0:0:0:0:
64,192,61798,1,0,0:0:0:0:
448,192,61985,1,0,0:0:0:0:
192,192,62173,1,0,0:0:0:0:
448,192,62173,1,0,0:0:0:0:
64,192,62360,1,0,0:0:0:0:
192,192,62548,128,0,63298:0:0:0:0:
448,192,62548,1,0,0:0:0:0:
64,192,62548,1,0,0:0:0:0:
320,192,62735,1,0,0:0:0:0:
64,192,62923,1,0,0:0:0:0:
320,192,62923,1,0,0:0:0:0:
448,192,63110,1,0,0:0:0:0:
448,192,63298,1,0,0:0:0:0:
320,192,63298,1,0,0:0:0:0:
64,192,63485,1,0,0:0:0:0:
192,192,63673,1,0,0:0:0:0:
320,192,63673,1,0,0:0:0:0:
448,192,63860,1,0,0:0:0:0:
64,192,64048,128,0,65173:0:0:0:0:
192,192,64048,1,0,0:0:0:0:
320,192,64048,1,0,0:0:0:0:
192,192,64235,1,0,0:0:0:0:
320,192,64235,1,0,0:0:0:0:
448,192,64423,1,0,0:0:0:0:
320,192,64423,1,0,0:0:0:0:
448,192,64610,1,0,0:0:0:0:
320,192,64610,1,0,0:0:0:0:
192,192,64798,1,0,0:0:0:0:
448,192,64798,1,0,0:0:0:0:
192,192,64985,1,0,0:0:0:0:
448,192,64985,1,0,0:0:0:0:
192,192,65173,128,0,65360:0:0:0:0:
320,192,65173,1,0,0:0:0:0:
448,192,65173,1,0,0:0:0:0:
320,192,65360,128,0,65548:0:0:0:0:
448,192,65360,1,0,0:0:0:0:
64,192,65360,1,0,0:0:0:0:
448,192,65548,128,0,66298:0:0:0:0:
192,192,65548,1,0,0:0:0:0:
64,192,65548,1,0,0:0:0:0:
64,192,65735,1,0,0:0:0:0:
320,192,65735,1,0,0:0:0:0:
192,192,65923,1,0,0:0:0:0:
64,192,65923,1,0,0:0:0:0:
192,192,66110,1,0,0:0:0:0:
64,192,66110,1,0,0:0:0:0:
64,192,66298,128,0,67048:0:0:0:0:
192,192,66298,1,0,0:0:0:0:
320,192,66298,1,0,0:0:0:0:
192,192,66485,1,0,0:0:0:0:
320,192,66485,1,0,0:0:0:0:
448,192,66673,1,0,0:0:0:0:
192,192,66673,1,0,0:0:0:0:
448,192,66860,1,0,0:0:0:0:
320,192,66860,1,0,0:0:0:0:
320,192,67048,128,0,68173:0:0:0:0:
448,192,67048,1,0,0:0:0:0:
192,192,67048,1,0,0:0:0:0:
192,192,67235,1,0,0:0:0:0:
64,192,67235,1,0,0:0:0:0:
192,192,67423,1,0,0:0:0:0:
448,192,67423,1,0,0:0:0:0:
448,192,67610,1,0,0:0:0:0:
192,192,67610,1,0,0:0:0:0:
64,192,67798,1,0,0:0:0:0:
192,192,67798,1,0,0:0:0:0:
192,192,67985,1,0,0:0:0:0:
64,192,67985,1,0,0:0:0:0:
192,192,68173,128,0,68360:0:0:0:0:
448,192,68173,1,0,0:0:0:0:
64,192,68173,1,0,0:0:0:0:
448,192,68360,128,0,68548:0:0:0:0:
64,192,68360,1,0,0:0:0:0:
320,192,68360,1,0,0:0:0:0:
320,192,68548,128,0,68923:0:0:0:0:
192,192,68548,1,0,0:0:0:0:
64,192,68548,1,0,0:0:0:0:
192,192,68735,1,0,0:0:0:0:
64,192,68735,1,0,0:0:0:0:
64,192,68923,128,0,69298:0:0:0:0:
192,192,68923,1,0,0:0:0:0:
448,192,68923,1,0,0:0:0:0:
448,192,69110,1,0,0:0:0:0:
320,192,69110,1,0,0:0:0:0:
448,192,69298,128,0,69673:0:0:0:0:
320,192,69298,1,0,0:0:0:0:
192,192,69298,1,0,0:0:0:0:
320,192,69485,1,0,0:0:0:0:
64,192,69485,1,0,0:0:0:0:
320,192,69673,128,0,70048:0:0:0:0:
192,192,69673,1,0,0:0:0:0:
64,192,69673,1,0,0:0:0:0:
448,192,69860,1,0,0:0:0:0:
64,192,69860,1,0,0:0:0:0:
192,192,70048,128,0,71173:0:0:0:0:
448,192,70048,1,0,0:0:0:0:
64,192,70048,1,0,0:0:0:0:
448,192,70235,1,0,0:0:0:0:
320,192,70235,1,0,0:0:0:0:
320,192,70423,1,0,0:0:0:0:
64,192,70423,1,0,0:0:0:0:
64,192,70610,1,0,0:0:0:0:
320,192,70610,1,0,0:0:0:0:
64,192,70798,1,0,0:0:0:0:
448,192,70798,1,0,0:0:0:0:
64,192,70985,1,0,0:0:0:0:
448,192,70985,1,0,0:0:0:0:
64,192,71173,128,0,71360:0:0:0:0:
320,192,71173,1,0,0:0:0:0:
448,192,71173,1,0,0:0:0:0:
448,192,71360,128,0,71548:0:0:0:0:
320,192,71360,1,0,0:0:0:0:
192,192,71360,1,0,0:0:0:0:
320,192,71548,128,0,72298:0:0:0:0:
64,192,71548,1,0,0:0:0:0:
192,192,71548,1,0,0:0:0:0:
64,192,71735,1,0,0:0:0:0:
192,192,71735,1,0,0:0:0:0:
448,192,71923,1,0,0:0:0:0:
192,192,71923,1,0,0:0:0:0:
448,192,72110,1,0,0:0:0:0:
64,192,72110,1,0,0:0:0:0:
64,192,72298,128,0,73048:0:0:0:0:
448,192,72298,1,0,0:0:0:0:
192,192,72298,1,0,0:0:0:0:
320,192,72485,1,0,0:0:0:0:
192,192,72485,1,0,0:0:0:0:
192,192,72673,1,0,0:0:0:0:
448,192,72673,1,0,0:0:0:0:
448,192,72860,1,0,0:0:0:0:
192,192,72860,1,0,0:0:0:0:
448,192,73048,128,0,74173:0:0:0:0:
320,192,73048,1,0,0:0:0:0:
192,192,73048,1,0,0:0:0:0:
64,192,73235,1,0,0:0:0:0:
320,192,73235,1,0,0:0:0:0:
192,192,73423,1,0,0:0:0:0:
64,192,73423,1,0,0:0:0:0:
192,192,73610,1,0,0:0:0:0:
64,192,73610,1,0,0:0:0:0:
192,192,73798,1,0,0:0:0:0:
320,192,73798,1,0,0:0:0:0:
320,192,73985,1,0,0:0:0:0:
192,192,73985,1,0,0:0:0:0:
192,192,74173,128,0,74360:0:0:0:0:
64,192,74173,1,0,0:0:0:0:
320,192,74173,1,0,0:0:0:0:
320,192,74360,128,0,74548:0:0:0:0:
64,192,74360,1,0,0:0:0:0:
448,192,74360,1,0,0:0:0:0:
64,192,74548,128,0,74923:0:0:0:0:
448,192,74548,1,0,0:0:0:0:
192,192,74548,1,0,0:0:0:0:
320,192,74735,1,0,0:0:0:0:
448,192,74735,1,0,0:0:0:0:
192,192,74923,128,0,75298:0:0:0:0:
448,192,74923,1,0,0:0:0:0:
320,192,74923,1,0,0:0:0:0:
320,192,75110,1,0,0:0:0:0:
64,192,75110,1,0,0:0:0:0:
448,192,75298,128,0,75673:0:0:0:0:
320,192,75298,1,0,0:0:0:0:
64,192,75298,1,0,0:0:0:0:
64,192,75485,1,0,0:0:0:0:
192,192,75485,1,0,0:0:0:0:
320,192,75673,128,0,76048:0:0:0:0:
64,192,75673,1,0,0:0:0:0:
192,192,75673,1,0,0:0:0:0:
192,192,75860,1,0,0:0:0:0:
448,192,75860,1,0,0:0:0:0:
64,192,76048,128,0,76798:0:0:0:0:
448,192,76048,1,0,0:0:0:0:
192,192,76048,1,0,0:0:0:0:
448,192,76235,1,0,0:0:0:0:
320,192,76235,1,0,0:0:0:0:
448,192,76423,1,0,0:0:0:0:
320,192,76423,1,0,0:0:0:0:
192,192,76610,1,0,0:0:0:0:
320,192,76610,1,0,0:0:0:0:
448,192,76798,128,0,77548:0:0:0:0:
320,192,76798,1,0,0:0:0:0:
192,192,76798,1,0,0:0:0:0:
64,192,76985,1,0,0:0:0:0:
320,192,76985,1,0,0:0:0:0:
64,192,77173,1,0,0:0:0:0:
320,192,77173,1,0,0:0:0:0:
64,192,77360,1,0,0:0:0:0:
192,192,77360,1,0,0:0:0:0:
192,192,77548,128,0,79048:0:0:0:0:
64,192,77548,1,0,0:0:0:0:
320,192,77548,1,0,0:0:0:0:
320,192,77735,1,0,0:0:0:0:
448,192,77735,1,0,0:0:0:0:
320,192,77923,1,0,0:0:0:0:
64,192,77923,1,0,0:0:0:0:
320,192,78110,1,0,0:0:0:0:
64,192,78110,1,0,0:0:0:0:
320,192,78298,1,0,0:0:0:0:
448,192,78298,1,0,0:0:0:0:
320,192,78485,1,0,0:0:0:0:
448,192,78485,1,0,0:0:0:0:
448,192,78673,1,0,0:0:0:0:
64,192,78673,1,0,0:0:0:0:
448,192,78860,1,0,0:0:0:0:
64,192,78860,1,0,0:0:0:0:
64,192,79048,128,0,80548:0:0:0:0:
320,192,79048,1,0,0:0:0:0:
448,192,79048,1,0,0:0:0:0:
320,192,79235,1,0,0:0:0:0:
448,192,79235,1,0,0:0:0:0:
192,192,79423,1,0,0:0:0:0:
320,192,79423,1,0,0:0:0:0:
320,192,79610,1,0,0:0:0:0:
192,192,79610,1,0,0:0:0:0:
320,192,79798,1,0,0:0:0:0:
448,192,79798,1,0,0:0:0:0:
448,192,79985,1,0,0:0:0:0:
320,192,79985,1,0,0:0:0:0:
192,192,80173,1,0,0:0:0:0:
448,192,80173,1,0,0:0:0:0:
448,192,80360,1,0,0:0:0:0:
192,192,80360,1,0,0:0:0:0:
320,192,80548,1,0,0:0:0:0:
192,192,80548,1,0,0:0:0:0:
448,192,80548,128,0,80735:0:0:0:0:
64,192,80735,1,0,0:0:0:0:
192,192,80923,1,0,0:0:0:0:
448,192,80923,1,0,0:0:0:0:
320,192,81110,128,0,81298:0:0:0:0:
64,192,81110,1,0,0:0:0:0:
448,192,81298,1,0,0:0:0:0:
64,192,81298,1,0,0:0:0:0:
192,192,81485,1,0,0:0:0:0:
448,192,81673,128,0,81860:0:0:0:0:
192,192,81673,1,0,0:0:0:0:
320,192,81673,1,0,0:0:0:0:
64,192,81860,1,0,0:0:0:0:
192,192,82048,1,0,0:0:0:0:
320,192,82235,128,0,82423:0:0:0:0:
448,192,82235,1,0,0:0:0:0:
64,192,82423,1,0,0:0:0:0:
192,192,82423,1,0,0:0:0:0:
192,192,82610,128,0,82798:0:0:0:0:
64,192,82610,1,0,0:0:0:0:
320,192,82798,1,0,0:0:0:0:
448,192,82798,1,0,0:0:0:0:
64,192,82985,128,0,83173:0:0:0:0:
192,192,82985,1,0,0:0:0:0:
192,192,83173,128,0,83360:0:0:0:0:
320,192,83173,1,0,0:0:0:0:
448,192,83173,1,0,0:0:0:0:
448,192,83360,128,0,84860:0:0:0:0:
64,192,83360,1,0,0:0:0:0:
320,192,83548,1,0,0:0:0:0:
64,192,83548,1,0,0:0:0:0:
192,192,83735,1,0,0:0:0:0:
320,192,83923,1,0,0:0:0:0:
192,192,83923,1,0,0:0:0:0:
64,192,84110,1,0,0:0:0:0:
64,192,84298,1,0,0:0:0:0:
320,192,84298,1,0,0:0:0:0:
192,192,84485,1,0,0:0:0:0:
320,192,84673,1,0,0:0:0:0:
64,192,84673,1,0,0:0:0:0:
320,192,84860,1,0,0:0:0:0:
64,192,85048,1,0,0:0:0:0:
192,192,85048,1,0,0:0:0:0:
320,192,85235,1,0,0:0:0:0:
448,192,85423,1,0,0:0:0:0:
192,192,85423,1,0,0:0:0:0:
64,192,85610,1,0,0:0:0:0:
192,192,85798,1,0,0:0:0:0:
320,192,85798,1,0,0:0:0:0:
448,192,85985,1,0,0:0:0:0:
64,192,86173,1,0,0:0:0:0:
192,192,86173,1,0,0:0:0:0:
320,192,86360,1,0,0:0:0:0:
64,192,86548,128,0,86735:0:0:0:0:
448,192,86548,1,0,0:0:0:0:
192,192,86548,1,0,0:0:0:0:
320,192,86735,1,0,0:0:0:0:
192,192,86923,1,0,0:0:0:0:
320,192,86923,1,0,0:0:0:0:
448,192,87110,128,0,87298:0:0:0:0:
64,192,87110,1,0,0:0:0:0:
320,192,87298,1,0,0:0:0:0:
64,192,87298,1,0,0:0:0:0:
192,192,87485,1,0,0:0:0:0:
320,192,87673,128,0,87860:0:0:0:0:
448,192,87673,1,0,0:0:0:0:
192,192,87673,1,0,0:0:0:0:
64,192,87860,1,0,0:0:0:0:
192,192,88048,128,0,88798:0:0:0:0:
64,192,88048,1,0,0:0:0:0:
448,192,88048,1,0,0:0:0:0:
320,192,88235,1,0,0:0:0:0:
448,192,88423,1,0,0:0:0:0:
320,192,88423,1,0,0:0:0:0:
448,192,88610,1,0,0:0:0:0:
64,192,88798,1,0,0:0:0:0:
320,192,88798,1,0,0:0:0:0:
320,192,88985,128,0,89173:0:0:0:0:
448,192,88985,1,0,0:0:0:0:
192,192,89173,128,0,89360:0:0:0:0:
64,192,89173,1,0,0:0:0:0:
448,192,89173,1,0,0:0:0:0:
64,192,89360,128,0,90110:0:0:0:0:
320,192,89360,1,0,0:0:0:0:
448,192,89548,1,0,0:0:0:0:
192,192,89548,1,0,0:0:0:0:
320,192,89735,1,0,0:0:0:0:
192,192,89923,1,0,0:0:0:0:
320,192,89923,1,0,0:0:0:0:
448,192,90110,1,0,0:0:0:0:
448,192,90298,128,0,91048:0:0:0:0:
320,192,90298,1,0,0:0:0:0:
64,192,90298,1,0,0:0:0:0:
192,192,90485,1,0,0:0:0:0:
320,192,90673,1,0,0:0:0:0:
192,192,90673,1,0,0:0:0:0:
64,192,90860,1,0,0:0:0:0:
320,192,91048,128,0,91798:0:0:0:0:
192,192,91048,1,0,0:0:0:0:
64,192,91048,1,0,0:0:0:0:
64,192,91235,1,0,0:0:0:0:
448,192,91423,1,0,0:0:0:0:
192,192,91423,1,0,0:0:0:0:
64,192,91610,1,0,0:0:0:0:
64,192,91798,1,0,0:0:0:0:
192,192,91798,1,0,0:0:0:0:
448,192,91985,1,0,0:0:0:0:
320,192,92173,1,0,0:0:0:0:
192,192,92173,1,0,0:0:0:0:
448,192,92360,1,0,0:0:0:0:
320,192,92548,128,0,92735:0:0:0:0:
64,192,92548,1,0,0:0:0:0:
192,192,92548,1,0,0:0:0:0:
448,192,92735,1,0,0:0:0:0:
192,192,92923,1,0,0:0:0:0:
448,192,92923,1,0,0:0:0:0:
64,192,93110,128,0,93298:0:0:0:0:
320,192,93110,1,0,0:0:0:0:
448,192,93298,1,0,0:0:0:0:
192,192,93298,1,0,0:0:0:0:
320,192,93485,1,0,0:0:0:0:
448,192,93673,128,0,93860:0:0:0:0:
64,192,93673,1,0,0:0:0:0:
192,192,93673,1,0,0:0:0:0:
320,192,93860,1,0,0:0:0:0:
64,192,94048,1,0,0:0:0:0:
320,192,94048,1,0,0:0:0:0:
192,192,94235,128,0,94423:0:0:0:0:
448,192,94235,1,0,0:0:0:0:
64,192,94423,1,0,0:0:0:0:
320,192,94423,1,0,0:0:0:0:
448,192,94610,128,0,94798:0:0:0:0:
192,192,94610,1,0,0:0:0:0:
64,192,94798,1,0,0:0:0:0:
320,192,94798,1,0,0:0:0:0:
320,192,94985,128,0,95173:0:0:0:0:
192,192,94985,1,0,0:0:0:0:
448,192,95173,128,0,95360:0:0:0:0:
64,192,95173,1,0,0:0:0:0:
192,192,95173,1,0,0:0:0:0:
64,192,95360,128,0,96860:0:0:0:0:
320,192,95360,1,0,0:0:0:0:
192,192,95548,1,0,0:0:0:0:
448,192,95548,1,0,0:0:0:0:
320,192,95735,1,0,0:0:0:0:
448,192,95923,1,0,0:0:0:0:
320,192,95923,1,0,0:0:0:0:
192,192,96110,1,0,0:0:0:0:
448,192,96298,1,0,0:0:0:0:
192,192,96298,1,0,0:0:0:0:
448,192,96485,1,0,0:0:0:0:
320,192,96673,1,0,0:0:0:0:
192,192,96673,1,0,0:0:0:0:
448,192,96860,1,0,0:0:0:0:
320,192,97048,1,0,0:0:0:0:
192,192,97048,1,0,0:0:0:0:
448,192,97235,1,0,0:0:0:0:
64,192,97423,1,0,0:0:0:0:
320,192,97423,1,0,0:0:0:0:
192,192,97610,1,0,0:0:0:0:
448,192,97798,1,0,0:0:0:0:
320,192,97798,1,0,0:0:0:0:
64,192,97985,1,0,0:0:0:0:
192,192,98173,1,0,0:0:0:0:
320,192,98173,1,0,0:0:0:0:
448,192,98360,1,0,0:0:0:0:
320,192,98548,128,0,98735:0:0:0:0:
192,192,98548,1,0,0:0:0:0:
64,192,98548,1,0,0:0:0:0:
448,192,98735,1,0,0:0:0:0:
320,192,98923,1,0,0:0:0:0:
64,192,98923,1,0,0:0:0:0:
64,192,99110,128,0,99298:0:0:0:0:
192,192,99110,1,0,0:0:0:0:
320,192,99298,1,0,0:0:0:0:
448,192,99298,1,0,0:0:0:0:
320,192,99485,1,0,0:0:0:0:
448,192,99673,128,0,99860:0:0:0:0:
64,192,99673,1,0,0:0:0:0:
192,192,99673,1,0,0:0:0:0:
320,192,99860,1,0,0:0:0:0:
320,192,100048,128,0,100798:0:0:0:0:
64,192,100048,1,0,0:0:0:0:
448,192,100048,1,0,0:0:0:0:
192,192,100235,1,0,0:0:0:0:
64,192,100423,1,0,0:0:0:0:
192,192,100423,1,0,0:0:0:0:
448,192,100610,1,0,0:0:0:0:
448,192,100798,1,0,0:0:0:0:
192,192,100798,1,0,0:0:0:0:
192,192,100985,128,0,101173:0:0:0:0:
64,192,100985,1,0,0:0:0:0:
64,192,101173,128,0,101360:0:0:0:0:
448,192,101173,1,0,0:0:0:0:
320,192,101173,1,0,0:0:0:0:
448,192,101360,128,0,102110:0:0:0:0:
192,192,101360,1,0,0:0:0:0:
320,192,101548,1,0,0:0:0:0:
64,192,101548,1,0,0:0:0:0:
192,192,101735,1,0,0:0:0:0:
320,192,101923,1,0,0:0:0:0:
192,192,101923,1,0,0:0:0:0:
64,192,102110,1,0,0:0:0:0:
192,192,102298,128,0,103048:0:0:0:0:
320,192,102298,1,0,0:0:0:0:
448,192,102298,1,0,0:0:0:0:
64,192,102485,1,0,0:0:0:0:
320,192,102673,1,0,0:0:0:0:
64,192,102673,1,0,0:0:0:0:
448,192,102860,1,0,0:0:0:0:
320,192,103048,128,0,103798:0:0:0:0:
64,192,103048,1,0,0:0:0:0:
448,192,103048,1,0,0:0:0:0:
192,192,103235,1,0,0:0:0:0:
448,192,103423,1,0,0:0:0:0:
192,192,103423,1,0,0:0:0:0:
64,192,103610,1,0,0:0:0:0:
64,192,103798,1,0,0:0:0:0:
192,192,103798,1,0,0:0:0:0:
448,192,103985,1,0,0:0:0:0:
320,192,104173,1,0,0:0:0:0:
192,192,104173,1,0,0:0:0:0:
64,192,104360,1,0,0:0:0:0:
448,192,104548,128,0,105673:0:0:0:0:
320,192,104548,1,0,0:0:0:0:
192,192,104548,1,0,0:0:0:0:
320,192,104735,1,0,0:0:0:0:
192,192,104735,1,0,0:0:0:0:
64,192,104923,1,0,0:0:0:0:
192,192,104923,1,0,0:0:0:0:
64,192,105110,1,0,0:0:0:0:
192,192,105110,1,0,0:0:0:0:
320,192,105298,1,0,0:0:0:0:
64,192,105298,1,0,0:0:0:0:
320,192,105485,1,0,0:0:0:0:
64,192,105485,1,0,0:0:0:0:
320,192,105673,128,0,105860:0:0:0:0:
192,192,105673,1,0,0:0:0:0:
64,192,105673,1,0,0:0:0:0:
192,192,105860,128,0,106048:0:0:0:0:
64,192,105860,1,0,0:0:0:0:
448,192,105860,1,0,0:0:0:0:
64,192,106048,128,0,106798:0:0:0:0:
320,192,106048,1,0,0:0:0:0:
448,192,106048,1,0,0:0:0:0:
448,192,106235,1,0,0:0:0:0:
192,192,106235,1,0,0:0:0:0:
320,192,106423,1,0,0:0:0:0:
448,192,106423,1,0,0:0:0:0:
320,192,106610,1,0,0:0:0:0:
448,192,106610,1,0,0:0:0:0:
448,192,106798,128,0,107548:0:0:0:0:
320,192,106798,1,0,0:0:0:0:
192,192,106798,1,0,0:0:0:0:
320,192,106985,1,0,0:0:0:0:
192,192,106985,1,0,0:0:0:0:
64,192,107173,1,0,0:0:0:0:
320,192,107173,1,0,0:0:0:0:
64,192,107360,1,0,0:0:0:0:
192,192,107360,1,0,0:0:0:0:
192,192,107548,128,0,108673:0:0:0:0:
64,192,107548,1,0,0:0:0:0:
320,192,107548,1,0,0:0:0:0:
320,192,107735,1,0,0:0:0:0:
448,192,107735,1,0,0:0:0:0:
320,192,107923,1,0,0:0:0:0:
64,192,107923,1,0,0:0:0:0:
64,192,108110,1,0,0:0:0:0:
320,192,108110,1,0,0:0:0:0:
448,192,108298,1,0,0:0:0:0:
320,192,108298,1,0,0:0:0:0:
320,192,108485,1,0,0:0:0:0:
448,192,108485,1,0,0:0:0:0:
320,192,108673,128,0,108860:0:0:0:0:
64,192,108673,1,0,0:0:0:0:
448,192,108673,1,0,0:0:0:0:
64,192,108860,128,0,109048:0:0:0:0:
448,192,108860,1,0,0:0:0:0:
192,192,108860,1,0,0:0:0:0:
192,192,109048,128,0,109423:0:0:0:0:
320,192,109048,1,0,0:0:0:0:
448,192,109048,1,0,0:0:0:0:
320,192,109235,1,0,0:0:0:0:
448,192,109235,1,0,0:0:0:0:
448,192,109423,128,0,109798:0:0:0:0:
320,192,109423,1,0,0:0:0:0:
64,192,109423,1,0,0:0:0:0:
64,192,109610,1,0,0:0:0:0:
192,192,109610,1,0,0:0:0:0:
64,192,109798,128,0,110173:0:0:0:0:
192,192,109798,1,0,0:0:0:0:
320,192,109798,1,0,0:0:0:0:
192,192,109985,1,0,0:0:0:0:
448,192,109985,1,0,0:0:0:0:
192,192,110173,128,0,110548:0:0:0:0:
320,192,110173,1,0,0:0:0:0:
448,192,110173,1,0,0:0:0:0:
64,192,110360,1,0,0:0:0:0:
448,192,110360,1,0,0:0:0:0:
320,192,110548,128,0,111673:0:0:0:0:
64,192,110548,1,0,0:0:0:0:
448,192,110548,1,0,0:0:0:0:
64,192,110735,1,0,0:0:0:0:
192,192,110735,1,0,0:0:0:0:
192,192,110923,1,0,0:0:0:0:
448,192,110923,1,0,0:0:0:0:
448,192,111110,1,0,0:0:0:0:
192,192,111110,1,0,0:0:0:0:
448,192,111298,1,0,0:0:0:0:
64,192,111298,1,0,0:0:0:0:
448,192,111485,1,0,0:0:0:0:
64,192,111485,1,0,0:0:0:0:
448,192,111673,128,0,111860:0:0:0:0:
192,192,111673,1,0,0:0:0:0:
64,192,111673,1,0,0:0:0:0:
64,192,111860,128,0,112048:0:0:0:0:
192,192,111860,1,0,0:0:0:0:
320,192,111860,1,0,0:0:0:0:
192,192,112048,128,0,112798:0:0:0:0:
448,192,112048,1,0,0:0:0:0:
320,192,112048,1,0,0:0:0:0:
448,192,112235,1,0,0:0:0:0:
320,192,112235,1,0,0:0:0:0:
64,192,112423,1,0,0:0:0:0:
320,192,112423,1,0,0:0:0:0:
64,192,112610,1,0,0:0:0:0:
448,192,112610,1,0,0:0:0:0:
448,192,112798,128,0,113548:0:0:0:0:
64,192,112798,1,0,0:0:0:0:
320,192,112798,1,0,0:0:0:0:
192,192,112985,1,0,0:0:0:0:
320,192,112985,1,0,0:0:0:0:
320,192,113173,1,0,0:0:0:0:
64,192,113173,1,0,0:0:0:0:
64,192,113360,1,0,0:0:0:0:
320,192,113360,1,0,0:0:0:0:
64,192,113548,128,0,114673:0:0:0:0:
192,192,113548,1,0,0:0:0:0:
320,192,113548,1,0,0:0:0:0:
448,192,113735,1,0,0:0:0:0:
192,192,113735,1,0,0:0:0:0:
320,192,113923,1,0,0:0:0:0:
448,192,113923,1,0,0:0:0:0:
320,192,114110,1,0,0:0:0:0:
448,192,114110,1,0,0:0:0:0:
320,192,114298,1,0,0:0:0:0:
192,192,114298,1,0,0:0:0:0:
192,192,114485,1,0,0:0:0:0:
320,192,114485,1,0,0:0:0:0:
320,192,114673,128,0,114860:0:0:0:0:
448,192,114673,1,0,0:0:0:0:
192,192,114673,1,0,0:0:0:0:
192,192,114860,128,0,115048:0:0:0:0:
448,192,114860,1,0,0:0:0:0:
64,192,114860,1,0,0:0:0:0:
448,192,115048,128,0,115423:0:0:0:0:
64,192,115048,1,0,0:0:0:0:
320,192,115048,1,0,0:0:0:0:
192,192,115235,1,0,0:0:0:0:
64,192,115235,1,0,0:0:0:0:
320,192,115423,128,0,115798:0:0:0:0:
64,192,115423,1,0,0:0:0:0:
192,192,115423,1,0,0:0:0:0:
192,192,115610,1,0,0:0:0:0:
448,192,115610,1,0,0:0:0:0:
64,192,115798,128,0,116173:0:0:0:0:
192,192,115798,1,0,0:0:0:0:
448,192,115798,1,0,0:0:0:0:
448,192,115985,1,0,0:0:0:0:
320,192,115985,1,0,0:0:0:0:
192,192,116173,128,0,116548:0:0:0:0:
448,192,116173,1,0,0:0:0:0:
320,192,116173,1,0,0:0:0:0:
320,192,116360,1,0,0:0:0:0:
64,192,116360,1,0,0:0:0:0:
448,192,116548,128,0,117298:0:0:0:0:
64,192,116548,1,0,0:0:0:0:
320,192,116548,1,0,0:0:0:0:
64,192,116735,1,0,0:0:0:0:
192,192,116735,1,0,0:0:0:0:
64,192,116923,1,0,0:0:0:0:
192,192,116923,1,0,0:0:0:0:
320,192,117110,1,0,0:0:0:0:
192,192,117110,1,0,0:0:0:0:
64,192,117298,128,0,118048:0:0:0:0:
192,192,117298,1,0,0:0:0:0:
320,192,117298,1,0,0:0:0:0:
448,192,117485,1,0,0:0:0:0:
192,192,117485,1,0,0:0:0:0:
448,192,117673,1,0,0:0:0:0:
192,192,117673,1,0,0:0:0:0:
448,192,117860,1,0,0:0:0:0:
320,192,117860,1,0,0:0:0:0:
320,192,118048,128,0,119548:0:0:0:0:
448,192,118048,1,0,0:0:0:0:
192,192,118048,1,0,0:0:0:0:
192,192,118235,1,0,0:0:0:0:
64,192,118235,1,0,0:0:0:0:
192,192,118423,1,0,0:0:0:0:
448,192,118423,1,0,0:0:0:0:
192,192,118610,1,0,0:0:0:0:
448,192,118610,1,0,0:0:0:0:
192,192,118798,1,0,0:0:0:0:
64,192,118798,1,0,0:0:0:0:
192,192,118985,1,0,0:0:0:0:
64,192,118985,1,0,0:0:0:0:
64,192,119173,1,0,0:0:0:0:
448,192,119173,1,0,0:0:0:0:
64,192,119360,1,0,0:0:0:0:
448,192,119360,1,0,0:0:0:0:
448,192,119548,128,0,121048:0:0:0:0:
192,192,119548,1,0,0:0:0:0:
64,192,119548,1,0,0:0:0:0:
192,192,119735,1,0,0:0:0:0:
64,192,119735,1,0,0:0:0:0:
320,192,119923,5,0,0:0:0:0:
192,192,119923,1,0,0:0:0:0:
192,192,120110,1,0,0:0:0:0:
320,192,120110,1,0,0:0:0:0:
192,192,120298,1,0,0:0:0:0:
64,192,120298,1,0,0:0:0:0:
64,192,120485,1,0,0:0:0:0:
192,192,120485,1,0,0:0:0:0:
320,192,120673,1,0,0:0:0:0:
64,192,120673,1,0,0:0:0:0:
64,192,120860,1,0,0:0:0:0:
320,192,120860,1,0,0:0:0:0:
192,192,121048,1,0,0:0:0:0:
320,192,121048,1,0,0:0:0:0:
