osu file format v14

[General]
AudioFilename: audio.mp3
AudioLeadIn: 0
PreviewTime: 175
Countdown: 0
SampleSet: Normal
StackLeniency: 0.7
Mode: 1
LetterboxInBreaks: 0
WidescreenStoryboard: 1

[Editor]
DistanceSpacing: 1.4
BeatDivisor: 2
GridSize: 32
TimelineZoom: 0.9

[Metadata]
Title:C-TYPE
TitleUnicode:C-TYPE
Artist:Tanaka Hirokazu
ArtistUnicode:田中宏和
Creator:Axer
Version:Insane
Source:テトリス
Tags:videogame video game music instrumental tetris gameboy game boy ゲームボーイ nintendo Johann Sebastian Bach French Suite No. 3 in B minor BWV 814 Menuet Minuet classical vgm chiptune 8bit 8-bit
BeatmapID:3082549
BeatmapSetID:1504782

[Difficulty]
HPDrainRate:9
CircleSize:2
OverallDifficulty:5
ApproachRate:10
SliderMultiplier:1.4
SliderTickRate:1

[Events]
//Background and Video events
0,0,"bg.jpg",0,0
//Break Periods
//Storyboard Layer 0 (Background)
//Storyboard Layer 1 (Fail)
//Storyboard Layer 2 (Pass)
//Storyboard Layer 3 (Foreground)
//Storyboard Layer 4 (Overlay)
//Storyboard Sound Samples

[TimingPoints]
242,401.875418620228,3,1,0,100,1,0
242,-303.030303030303,4,1,0,100,0,0

[HitObjects]
256,192,242,5,0,0:0:0:0:
256,192,442,1,0,0:0:0:0:
256,192,643,1,8,0:0:0:0:
256,192,844,1,0,0:0:0:0:
256,192,1045,1,8,0:0:0:0:
256,192,1447,1,8,0:0:0:0:
256,192,1648,1,8,0:0:0:0:
256,192,1849,1,0,0:0:0:0:
256,192,2050,1,8,0:0:0:0:
256,192,2251,1,0,0:0:0:0:
256,192,2653,1,0,0:0:0:0:
256,192,2854,1,0,0:0:0:0:
256,192,3055,1,8,0:0:0:0:
256,192,3256,1,0,0:0:0:0:
256,192,3457,1,8,0:0:0:0:
256,192,3858,1,8,0:0:0:0:
256,192,4059,1,8,0:0:0:0:
256,192,4260,1,0,0:0:0:0:
256,192,4461,1,8,0:0:0:0:
256,192,4662,1,0,0:0:0:0:
256,192,5064,1,0,0:0:0:0:
256,192,5466,1,0,0:0:0:0:
256,192,5667,1,8,0:0:0:0:
256,192,5868,1,0,0:0:0:0:
256,192,6069,1,8,0:0:0:0:
256,192,6270,1,0,0:0:0:0:
256,192,6471,1,0,0:0:0:0:
256,192,6672,1,8,0:0:0:0:
256,192,7073,1,0,0:0:0:0:
256,192,7274,1,8,0:0:0:0:
256,192,7475,1,0,0:0:0:0:
256,192,7676,1,8,0:0:0:0:
256,192,7877,1,8,0:0:0:0:
256,192,8279,1,0,0:0:0:0:
256,192,8480,1,0,0:0:0:0:
256,192,8681,1,8,0:0:0:0:
256,192,8882,1,0,0:0:0:0:
256,192,9083,1,8,0:0:0:0:
256,192,9284,1,0,0:0:0:0:
256,192,9485,1,8,0:0:0:0:
256,192,9887,1,0,0:0:0:0:
256,192,10087,1,0,0:0:0:0:
256,192,10288,1,8,0:0:0:0:
256,192,10489,1,0,0:0:0:0:
256,192,10690,1,8,0:0:0:0:
256,192,11092,1,8,0:0:0:0:
256,192,11293,1,8,0:0:0:0:
256,192,11494,1,0,0:0:0:0:
256,192,11695,1,8,0:0:0:0:
256,192,11896,1,0,0:0:0:0:
256,192,12298,1,0,0:0:0:0:
256,192,12499,1,0,0:0:0:0:
256,192,12700,1,8,0:0:0:0:
256,192,12901,1,0,0:0:0:0:
256,192,13102,1,8,0:0:0:0:
256,192,13503,1,8,0:0:0:0:
256,192,13704,1,8,0:0:0:0:
256,192,13905,1,0,0:0:0:0:
256,192,14106,1,8,0:0:0:0:
256,192,14307,1,0,0:0:0:0:
256,192,14709,1,0,0:0:0:0:
256,192,15111,1,0,0:0:0:0:
256,192,15312,1,8,0:0:0:0:
256,192,15513,1,0,0:0:0:0:
256,192,15714,1,8,0:0:0:0:
256,192,15915,1,0,0:0:0:0:
256,192,16116,1,0,0:0:0:0:
256,192,16317,1,8,0:0:0:0:
256,192,16718,1,8,0:0:0:0:
256,192,16919,1,8,0:0:0:0:
256,192,17120,1,0,0:0:0:0:
256,192,17321,1,0,0:0:0:0:
256,192,17522,1,8,0:0:0:0:
256,192,17924,1,0,0:0:0:0:
256,192,18125,1,0,0:0:0:0:
256,192,18326,1,8,0:0:0:0:
256,192,18728,1,0,0:0:0:0:
256,192,19130,1,0,0:0:0:0:
256,192,19532,1,8,0:0:0:0:
256,192,19732,1,8,0:0:0:0:
256,192,19933,1,0,0:0:0:0:
256,192,20134,1,8,0:0:0:0:
256,192,20335,1,0,0:0:0:0:
256,192,20737,1,0,0:0:0:0:
256,192,20938,1,0,0:0:0:0:
256,192,21139,1,8,0:0:0:0:
256,192,21340,1,8,0:0:0:0:
256,192,21541,1,0,0:0:0:0:
256,192,21742,1,8,0:0:0:0:
256,192,21943,1,0,0:0:0:0:
256,192,22144,1,0,0:0:0:0:
256,192,22345,1,8,0:0:0:0:
256,192,22747,1,8,0:0:0:0:
256,192,22947,1,0,0:0:0:0:
256,192,23148,1,8,0:0:0:0:
256,192,23349,1,8,0:0:0:0:
256,192,23550,1,0,0:0:0:0:
256,192,23952,1,8,0:0:0:0:
256,192,24354,1,0,0:0:0:0:
256,192,24555,1,0,0:0:0:0:
256,192,24756,1,8,0:0:0:0:
256,192,25158,1,8,0:0:0:0:
256,192,25359,1,0,0:0:0:0:
256,192,25560,1,8,0:0:0:0:
256,192,25761,1,8,0:0:0:0:
256,192,25962,1,0,0:0:0:0:
256,192,26363,1,8,0:0:0:0:
256,192,26564,1,8,0:0:0:0:
256,192,26765,1,0,0:0:0:0:
256,192,27167,1,8,0:0:0:0:
256,192,27569,1,0,0:0:0:0:
256,192,27971,1,8,0:0:0:0:
256,192,28172,1,0,0:0:0:0:
256,192,28373,1,8,0:0:0:0:
256,192,28574,1,8,0:0:0:0:
256,192,28775,1,0,0:0:0:0:
256,192,28976,1,8,0:0:0:0:
256,192,29177,1,0,0:0:0:0:
256,192,29779,1,8,0:0:0:0:
256,192,29980,1,8,0:0:0:0:
256,192,30382,1,0,0:0:0:0:
256,192,30583,1,0,0:0:0:0:
256,192,30784,1,8,0:0:0:0:
256,192,31186,1,8,0:0:0:0:
256,192,31387,1,8,0:0:0:0:
256,192,31588,1,0,0:0:0:0:
256,192,32191,1,8,0:0:0:0:
256,192,32392,1,8,0:0:0:0:
256,192,32793,1,0,0:0:0:0:
256,192,32994,1,0,0:0:0:0:
256,192,33195,1,8,0:0:0:0:
256,192,33597,1,8,0:0:0:0:
256,192,33798,1,0,0:0:0:0:
256,192,33999,1,8,0:0:0:0:
256,192,34401,1,0,0:0:0:0:
256,192,34803,1,8,0:0:0:0:
256,192,35205,1,8,0:0:0:0:
256,192,35607,1,0,0:0:0:0:
256,192,36008,1,0,0:0:0:0:
256,192,36410,1,8,0:0:0:0:
256,192,36812,1,0,0:0:0:0:
256,192,37013,1,0,0:0:0:0:
256,192,37214,1,8,0:0:0:0:
256,192,37616,1,0,0:0:0:0:
256,192,37817,1,0,0:0:0:0:
