osu file format v14

[General]
AudioFilename: audio.mp3
AudioLeadIn: 0
PreviewTime: 19332
Countdown: 0
SampleSet: Normal
StackLeniency: 0.2
Mode: 0
LetterboxInBreaks: 0
WidescreenStoryboard: 1

[Editor]
DistanceSpacing: 1.6
BeatDivisor: 4
GridSize: 16
TimelineZoom: 1

[Metadata]
Title:C-TYPE
TitleUnicode:C-TYPE
Artist:Tanaka Hirokazu
ArtistUnicode:田中宏和
Creator:Arf
Version:Mo's TetriS-TYPE
Source:テトリス
Tags:rfandomization -mo- warpyc starrstyx bonsai tetris gameboy game boy ゲームボーイ nintendo Johann Sebastian Bach French Suite No. 3 in B minor BWV 814 Menuet Minuet classical
BeatmapID:1599961
BeatmapSetID:757146

[Difficulty]
HPDrainRate:7
CircleSize:7
OverallDifficulty:8
ApproachRate:8
SliderMultiplier:2.89999990463257
SliderTickRate:1

[Events]
//Background and Video events
0,0,"bg.jpg",0,0
//Break Periods
//Storyboard Layer 0 (Background)
//Storyboard Layer 1 (Fail)
//Storyboard Layer 2 (Pass)
//Storyboard Layer 3 (Foreground)
//Storyboard Sound Samples

[TimingPoints]
42,401.875418620228,3,1,0,50,1,0
18126,-200,3,1,0,50,0,0
18528,-200,3,1,0,40,0,0
18930,-200,3,1,0,30,0,0
19332,-100,3,1,0,50,0,0
27972,-100,3,1,0,30,0,0
28977,-100,3,1,0,50,0,0

[Colours]
Combo1 : 0,128,0
Combo2 : 128,255,128

[HitObjects]
208,384,42,6,0,B|208:336|208:336|160:336|160:336|160:288,1,144.999995231629,4|0,0:0|0:0,0:0:0:0:
16,384,443,2,0,L|160:384,1,144.999995231629,8|0,0:0|0:0,0:0:0:0:
16,240,845,2,0,B|16:336|16:336|64:336,1,144.999995231629,8|0,0:0|0:0,0:0:0:0:
16,192,1247,2,0,B|64:192|64:192|64:288,1,144.999995231629,8|0,0:0|0:0,0:0:0:0:
160,240,1649,2,0,B|112:240|112:240|112:336,1,144.999995231629,8|0,0:0|0:0,0:0:0:0:
208,288,2051,2,0,B|208:336|208:336|160:336|160:336|160:288,1,144.999995231629,8|0,0:0|0:0,0:0:0:0:
160,384,2453,6,0,B|256:384|256:384|256:336,1,144.999995231629,4|0,0:0|0:0,0:0:0:0:
448,384,2855,2,0,L|304:384,1,144.999995231629,8|0,0:0|0:0,0:0:0:0:
256,240,3257,2,0,B|256:288|256:288|304:288|304:288|304:336,1,144.999995231629,8|0,0:0|0:0,0:0:0:0:
448,336,3658,2,0,B|352:336|352:336|352:288,1,144.999995231629,8|0,0:0|0:0,0:0:0:0:
496,240,4060,2,0,L|496:384,1,144.999995231629,8|0,0:0|0:0,0:0:0:0:
400,288,4462,2,0,B|400:240|400:240|448:240|448:240|448:288,1,144.999995231629,8|0,0:0|0:0,0:0:0:0:
352,288,4864,6,0,B|352:336|352:336|448:336,1,144.999995231629,4|0,0:0|0:0,0:0:0:0:
352,384,5266,2,0,B|304:384|304:384|304:288,1,144.999995231629,8|0,0:0|0:0,0:0:0:0:
496,336,5668,6,0,B|496:384|496:384|400:384,1,144.999995231629,4|0,0:0|0:0,0:0:0:0:
256,384,6070,2,0,L|256:240,1,144.999995231629,8|0,0:0|0:0,0:0:0:0:
400,336,6472,2,0,B|352:336|352:336|352:384|352:384|304:384,1,144.999995231629,8|0,0:0|0:0,0:0:0:0:
208,240,6873,6,0,L|208:384,1,144.999995231629,4|0,0:0|0:0,0:0:0:0:
16,384,7275,2,0,B|112:384|112:384|112:336,1,144.999995231629,8|0,0:0|0:0,0:0:0:0:
16,288,7677,2,0,B|16:336|16:336|64:336|64:336|64:288,1,144.999995231629,8|0,0:0|0:0,0:0:0:0:
160,384,8079,2,0,B|160:288|160:288|112:288,1,144.999995231629,8|0,0:0|0:0,0:0:0:0:
16,240,8481,6,0,L|160:240,1,144.999995231629,4|0,0:0|0:0,0:0:0:0:
352,384,8883,2,0,L|208:384,1,144.999995231629,8|0,0:0|0:0,0:0:0:0:
208,240,9285,2,0,B|208:336|208:336|256:336,1,144.999995231629,8|0,0:0|0:0,0:0:0:0:
400,384,9687,6,0,B|400:336|400:336|304:336,1,144.999995231629,4|0,0:0|0:0,0:0:0:0:
496,240,10088,2,0,L|496:384,1,144.999995231629,8|0,0:0|0:0,0:0:0:0:
400,288,10490,2,0,B|448:288|448:288|448:384,1,144.999995231629,8|0,0:0|0:0,0:0:0:0:
352,336,10892,2,0,B|352:384|352:384|400:384|400:384|400:336,1,144.999995231629,8|0,0:0|0:0,0:0:0:0:
208,336,11294,2,0,B|208:384|208:384|304:384,1,144.999995231629,8|0,0:0|0:0,0:0:0:0:
352,288,11696,2,0,B|304:288|304:288|304:336|304:336|256:336,1,144.999995231629,8|0,0:0|0:0,0:0:0:0:
160,384,12098,6,0,L|160:240,1,144.999995231629,4|0,0:0|0:0,0:0:0:0:
16,336,12500,2,0,B|16:384|16:384|112:384,1,144.999995231629,8|0,0:0|0:0,0:0:0:0:
16,240,12902,2,0,B|16:288|16:288|64:288|64:288|64:336,1,144.999995231629,8|0,0:0|0:0,0:0:0:0:
208,384,13303,2,0,B|160:384|160:384|160:336|160:336|112:336,1,144.999995231629,8|0,0:0|0:0,0:0:0:0:
64,240,13705,2,0,B|112:240|112:240|112:288|112:288|160:288,1,144.999995231629,8|0,0:0|0:0,0:0:0:0:
16,384,14107,2,0,L|16:240,1,144.999995231629,8|0,0:0|0:0,0:0:0:0:
112,384,14509,6,0,B|64:384|64:384|64:288,1,144.999995231629,4|0,0:0|0:0,0:0:0:0:
112,336,14911,2,0,B|160:336|160:336|160:384|160:384|208:384,1,144.999995231629,8|0,0:0|0:0,0:0:0:0:
352,336,15313,6,0,B|352:384|352:384|256:384,1,144.999995231629,4|0,0:0|0:0,0:0:0:0:
208,288,15715,2,0,B|208:336|208:336|256:336|256:336|256:288,1,144.999995231629,8|0,0:0|0:0,0:0:0:0:
352,240,16117,2,0,B|352:288|352:288|304:288|304:288|304:336,1,144.999995231629,8|0,0:0|0:0,0:0:0:0:
448,384,16518,6,0,B|352:384|352:384|352:336,1,144.999995231629,4|0,0:0|0:0,0:0:0:0:
496,288,16920,2,0,B|496:336|496:336|400:336,1,144.999995231629,8|0,0:0|0:0,0:0:0:0:
304,240,17322,2,0,L|304:384,1,144.999995231629,8|0,0:0|0:0,0:0:0:0:
160,384,17724,6,0,B|208:384|208:384|208:336|208:336|256:336,1,144.999995231629,4|0,0:0|0:0,0:0:0:0:
16,288,18126,6,0,B|16:384|16:384|64:384,2,144.999995231629,4|8|8,0:0|0:0|0:0,0:0:0:0:
64,144,19332,6,0,B|64:192|64:192|16:192|16:192|16:240,1,144.999995231629,4|0,0:0|0:0,0:0:0:0:
160,192,19733,2,0,B|160:240|160:240|64:240,1,144.999995231629,8|0,0:0|0:0,0:0:0:0:
208,288,20135,2,0,L|64:288,1,144.999995231629,8|0,0:0|0:0,0:0:0:0:
208,192,20537,6,0,B|208:240|208:240|256:240|256:240|256:288,1,144.999995231629,4|0,0:0|0:0,0:0:0:0:
400,288,20939,2,0,B|304:288|304:288|304:240,1,144.999995231629,8|0,0:0|0:0,0:0:0:0:
496,288,21341,6,0,B|448:288|448:288|448:240|448:240|400:240,1,144.999995231629,4|0,0:0|0:0,0:0:0:0:
496,96,21743,2,0,L|496:240,1,144.999995231629,4|0,0:0|0:0,0:0:0:0:
304,192,22145,2,0,L|448:192,1,144.999995231629,4|0,0:0|0:0,0:0:0:0:
352,288,22547,2,0,B|352:240|352:240|304:240|304:240|304:288,1,144.999995231629,8|0,0:0|0:0,0:0:0:0:
160,240,22948,6,0,B|160:288|160:288|256:288,1,144.999995231629,4|0,0:0|0:0,0:0:0:0:
160,192,23350,2,0,B|208:192|208:192|208:240|208:240|256:240,1,144.999995231629,4|0,0:0|0:0,0:0:0:0:
64,192,23752,2,0,B|64:288|64:288|112:288,1,144.999995231629,8|0,0:0|0:0,0:0:0:0:
16,144,24154,2,0,L|16:288,1,144.999995231629,8|0,0:0|0:0,0:0:0:0:
160,144,24556,2,0,B|112:144|112:144|112:240,1,144.999995231629,8|0,0:0|0:0,0:0:0:0:
256,240,24958,2,0,B|160:240|160:240|160:288,1,144.999995231629,8|0,0:0|0:0,0:0:0:0:
304,240,25360,6,0,B|304:288|304:288|208:288,1,144.999995231629,4|0,0:0|0:0,0:0:0:0:
352,144,25762,2,0,L|352:288,1,144.999995231629,4|0,0:0|0:0,0:0:0:0:
304,144,26163,2,0,B|304:192|304:192|256:192|256:192|256:240,1,144.999995231629,8|0,0:0|0:0,0:0:0:0:
448,240,26565,6,0,B|448:288|448:288|400:288|400:288|400:240,1,144.999995231629,4|0,0:0|0:0,0:0:0:0:
496,288,26967,2,0,B|496:192|496:192|448:192,1,144.999995231629,8|0,0:0|0:0,0:0:0:0:
304,288,27369,2,0,B|352:288|352:288|352:192,1,144.999995231629,8|0,0:0|0:0,0:0:0:0:
208,288,27771,6,0,B|256:288|256:288|256:240|256:240|304:240,1,144.999995231629,4|0,0:0|0:0,0:0:0:0:
304,192,28173,2,0,B|208:192|208:192|208:240,1,144.999995231629,8|0,0:0|0:0,0:0:0:0:
160,288,28575,2,0,B|160:192|160:192|112:192,1,144.999995231629,8|0,0:0|0:0,0:0:0:0:
16,288,28977,6,0,B|112:288|112:288|112:240,2,144.999995231629,4|0|8,0:0|0:0|0:0,0:0:0:0:
16,192,29579,1,4,0:0:0:0:
16,192,29680,1,0,0:0:0:0:
16,192,29780,2,0,B|16:240|16:240|64:240|64:240|64:192,1,144.999995231629,8|0,0:0|0:0,0:0:0:0:
208,240,30182,6,0,B|160:240|160:240|160:192|160:192|112:192,1,144.999995231629,4|0,0:0|0:0,0:0:0:0:
304,240,30584,2,0,B|256:240|256:240|256:288|256:288|208:288,1,144.999995231629,8|0,0:0|0:0,0:0:0:0:
448,288,30986,2,0,L|304:288,1,144.999995231629,8|0,0:0|0:0,0:0:0:0:
496,288,31388,6,0,B|496:240|496:240|400:240,2,144.999995231629,4|0|8,0:0|0:0|0:0,0:0:0:0:
352,192,31991,1,4,0:0:0:0:
352,192,32091,1,0,0:0:0:0:
352,192,32192,2,0,L|496:192,1,144.999995231629,8|0,0:0|0:0,0:0:0:0:
352,96,32593,6,0,B|352:144|352:144|304:144|304:144|304:192,1,144.999995231629,4|0,0:0|0:0,0:0:0:0:
208,144,32995,2,0,B|208:192|208:192|256:192|256:192|256:144,1,144.999995231629,8|0,0:0|0:0,0:0:0:0:
64,192,33397,2,0,B|112:192|112:192|112:144|112:144|160:144,1,144.999995231629,8|0,0:0|0:0,0:0:0:0:
64,96,33799,6,0,B|16:96|16:96|16:192,1,144.999995231629,4|0,0:0|0:0,0:0:0:0:
304,192,34201,2,0,B|304:144|304:144|208:144,1,144.999995231629,8|0,0:0|0:0,0:0:0:0:
112,48,34603,2,0,B|112:96|112:96|160:96|160:96|160:144,1,144.999995231629,8|0,0:0|0:0,0:0:0:0:
400,144,35005,2,0,B|352:144|352:144|352:96|352:96|304:96,1,144.999995231629,4|0,0:0|0:0,0:0:0:0:
496,48,35407,2,0,L|352:48,1,144.999995231629,8|0,0:0|0:0,0:0:0:0:
160,96,35808,2,0,B|160:144|160:144|208:144|208:144|208:96,2,144.999995231629,8|0|4,0:0|0:0|0:0,0:0:0:0:
304,0,36612,6,0,B|256:0|256:0|256:48|256:48|208:48,1,144.999995231629,4|0,0:0|0:0,0:0:0:0:
208,0,37014,2,0,B|304:0|304:0|304:48,1,144.999995231629,8|0,0:0|0:0,0:0:0:0:
256,0,37416,5,4,0:0:0:0:
256,0,37516,1,0,0:0:0:0:
256,0,37617,1,8,0:0:0:0:
