osu file format v14

[General]
AudioFilename: audio.mp3
AudioLeadIn: 0
PreviewTime: 19332
Countdown: 0
SampleSet: Normal
StackLeniency: 0
Mode: 0
LetterboxInBreaks: 0
WidescreenStoryboard: 1

[Editor]
DistanceSpacing: 1.6
BeatDivisor: 4
GridSize: 16
TimelineZoom: 1

[Metadata]
Title:C-TYPE
TitleUnicode:C-TYPE
Artist:Tanaka Hirokazu
ArtistUnicode:田中宏和
Creator:Arf
Version:Mo's S-TYPE
Source:テトリス
Tags:rfandomization -mo- warpyc starrstyx bonsai tetris gameboy game boy ゲームボーイ nintendo Johann Sebastian Bach French Suite No. 3 in B minor BWV 814 Menuet Minuet classical
BeatmapID:1592915
BeatmapSetID:757146

[Difficulty]
HPDrainRate:8
CircleSize:4.8
OverallDifficulty:8
ApproachRate:8
SliderMultiplier:1.2
SliderTickRate:1

[Events]
//Background and Video events
0,0,"bg.jpg",0,0
//Break Periods
//Storyboard Layer 0 (Background)
//Storyboard Layer 1 (Fail)
//Storyboard Layer 2 (Pass)
//Storyboard Layer 3 (Foreground)
//Storyboard Sound Samples

[TimingPoints]
42,401.875418620228,3,1,0,50,1,0
18528,-100,3,1,0,40,0,0
18930,-100,3,1,0,30,0,0
19332,-100,3,1,0,50,0,0

[Colours]
Combo1 : 0,128,0
Combo2 : 128,255,128

[HitObjects]
278,360,42,5,4,0:0:0:0:
256,192,242,1,0,0:0:0:0:
110,382,443,1,8,0:0:0:0:
278,360,644,1,0,0:0:0:0:
88,214,845,5,8,0:0:0:0:
110,382,1046,1,0,0:0:0:0:
256,192,1247,5,8,0:0:0:0:
278,360,1448,1,0,0:0:0:0:
424,170,1649,5,8,0:0:0:0:
446,338,1850,1,0,0:0:0:0:
446,338,2051,5,8,0:0:0:0:
424,170,2252,1,0,0:0:0:0:
278,360,2453,5,4,0:0:0:0:
256,192,2654,1,0,0:0:0:0:
446,338,2855,1,8,0:0:0:0:
278,360,3056,1,0,0:0:0:0:
424,170,3257,5,8,0:0:0:0:
446,338,3457,1,0,0:0:0:0:
256,192,3658,5,8,0:0:0:0:
278,360,3859,1,0,0:0:0:0:
88,214,4060,5,8,0:0:0:0:
110,382,4261,1,0,0:0:0:0:
110,382,4462,5,8,0:0:0:0:
88,214,4663,1,0,0:0:0:0:
278,360,4864,5,4,0:0:0:0:
256,192,5065,1,0,0:0:0:0:
256,192,5266,5,8,0:0:0:0:
278,360,5467,1,0,0:0:0:0:
88,214,5668,5,4,0:0:0:0:
110,382,5869,1,0,0:0:0:0:
278,360,6070,1,8,0:0:0:0:
110,382,6271,1,0,0:0:0:0:
88,214,6472,1,8,0:0:0:0:
256,192,6672,1,0,0:0:0:0:
66,46,6873,5,4,0:0:0:0:
88,214,7074,1,0,0:0:0:0:
256,192,7275,1,8,0:0:0:0:
66,46,7476,5,0,0:0:0:0:
88,214,7677,1,8,0:0:0:0:
256,192,7878,1,0,0:0:0:0:
234,24,8079,1,8,0:0:0:0:
402,2,8280,1,0,0:0:0:0:
424,170,8481,5,4,0:0:0:0:
256,192,8682,1,0,0:0:0:0:
424,170,8883,1,8,0:0:0:0:
402,2,9084,1,0,0:0:0:0:
234,24,9285,5,8,0:0:0:0:
424,170,9486,1,0,0:0:0:0:
278,360,9687,5,4,0:0:0:0:
256,192,9887,1,0,0:0:0:0:
446,338,10088,1,8,0:0:0:0:
278,360,10289,1,0,0:0:0:0:
424,170,10490,5,8,0:0:0:0:
446,338,10691,1,0,0:0:0:0:
256,192,10892,5,8,0:0:0:0:
278,360,11093,1,0,0:0:0:0:
88,214,11294,5,8,0:0:0:0:
110,382,11495,1,0,0:0:0:0:
110,382,11696,5,8,0:0:0:0:
88,214,11897,1,0,0:0:0:0:
278,360,12098,5,4,0:0:0:0:
256,192,12299,1,0,0:0:0:0:
110,382,12500,1,8,0:0:0:0:
278,360,12701,1,0,0:0:0:0:
88,214,12902,5,8,0:0:0:0:
110,382,13103,1,0,0:0:0:0:
256,192,13303,5,8,0:0:0:0:
278,360,13504,1,0,0:0:0:0:
424,170,13705,5,8,0:0:0:0:
446,338,13906,1,0,0:0:0:0:
446,338,14107,5,8,0:0:0:0:
424,170,14308,1,0,0:0:0:0:
278,360,14509,5,4,0:0:0:0:
256,192,14710,1,0,0:0:0:0:
256,192,14911,5,8,0:0:0:0:
278,360,15112,1,0,0:0:0:0:
424,170,15313,5,4,0:0:0:0:
446,338,15514,1,0,0:0:0:0:
278,360,15715,1,8,0:0:0:0:
446,338,15916,1,0,0:0:0:0:
424,170,16117,1,8,0:0:0:0:
256,192,16317,1,0,0:0:0:0:
402,2,16518,5,4,0:0:0:0:
424,170,16719,1,0,0:0:0:0:
234,24,16920,5,8,0:0:0:0:
402,2,17121,1,0,0:0:0:0:
402,2,17322,5,8,0:0:0:0:
234,24,17523,1,0,0:0:0:0:
424,170,17724,5,4,0:0:0:0:
402,2,17925,1,0,0:0:0:0:
234,24,18126,5,4,0:0:0:0:
256,192,18528,5,8,0:0:0:0:
278,360,18930,5,8,0:0:0:0:
234,24,19332,5,4,0:0:0:0:
66,46,19532,1,0,0:0:0:0:
88,214,19733,1,8,0:0:0:0:
256,192,19934,1,0,0:0:0:0:
278,360,20135,1,8,0:0:0:0:
110,382,20336,1,0,0:0:0:0:
278,360,20537,5,4,0:0:0:0:
446,338,20738,1,0,0:0:0:0:
424,170,20939,1,8,0:0:0:0:
446,338,21140,1,0,0:0:0:0:
256,192,21341,5,4,0:0:0:0:
424,170,21542,1,0,0:0:0:0:
234,24,21743,5,4,0:0:0:0:
402,2,21944,1,0,0:0:0:0:
66,46,22145,5,4,0:0:0:0:
256,192,22547,5,8,0:0:0:0:
446,338,22948,5,4,0:0:0:0:
424,170,23149,1,0,0:0:0:0:
402,2,23350,1,4,0:0:0:0:
110,382,23752,5,8,0:0:0:0:
446,338,24154,5,8,0:0:0:0:
66,46,24556,5,8,0:0:0:0:
424,170,24958,5,8,0:0:0:0:
110,382,25360,5,4,0:0:0:0:
88,214,25561,1,0,0:0:0:0:
66,46,25762,1,4,0:0:0:0:
256,192,26163,5,8,0:0:0:0:
446,338,26565,5,4,0:0:0:0:
278,360,26766,1,0,0:0:0:0:
256,192,26967,5,8,0:0:0:0:
278,360,27168,1,0,0:0:0:0:
110,382,27369,5,8,0:0:0:0:
278,360,27570,1,0,0:0:0:0:
256,192,27771,5,4,0:0:0:0:
256,192,28977,5,4,0:0:0:0:
234,24,29579,5,4,0:0:0:0:
234,24,29680,1,0,0:0:0:0:
234,24,29780,1,8,0:0:0:0:
278,360,30182,5,4,0:0:0:0:
256,192,30383,1,0,0:0:0:0:
88,214,30584,5,8,0:0:0:0:
256,192,30785,1,0,0:0:0:0:
424,170,30986,5,8,0:0:0:0:
256,192,31187,1,0,0:0:0:0:
402,2,31388,5,4,0:0:0:0:
66,46,31991,5,4,0:0:0:0:
66,46,32091,1,0,0:0:0:0:
66,46,32192,1,8,0:0:0:0:
402,2,32593,5,4,0:0:0:0:
234,24,32794,1,0,0:0:0:0:
424,170,32995,5,8,0:0:0:0:
402,2,33196,1,0,0:0:0:0:
256,192,33397,5,8,0:0:0:0:
424,170,33598,1,0,0:0:0:0:
234,24,33799,5,4,0:0:0:0:
256,192,34000,1,0,0:0:0:0:
278,360,34201,1,8,0:0:0:0:
256,192,34402,1,0,0:0:0:0:
234,24,34603,1,8,0:0:0:0:
66,46,34804,1,0,0:0:0:0:
402,2,35005,5,4,0:0:0:0:
424,170,35206,1,0,0:0:0:0:
234,24,35407,5,8,0:0:0:0:
256,192,35608,1,0,0:0:0:0:
66,46,35808,5,8,0:0:0:0:
88,214,36009,1,0,0:0:0:0:
424,170,36210,5,4,0:0:0:0:
234,24,36612,5,4,0:0:0:0:
424,170,36813,1,0,0:0:0:0:
278,360,37014,1,8,0:0:0:0:
88,214,37215,1,0,0:0:0:0:
256,192,37416,5,4,0:0:0:0:
256,192,37516,1,0,0:0:0:0:
256,192,37617,1,8,0:0:0:0:
