osu file format v14

[General]
AudioFilename: audio.mp3
AudioLeadIn: 0
PreviewTime: 19332
Countdown: 0
SampleSet: Normal
StackLeniency: 0.4
Mode: 0
LetterboxInBreaks: 0
WidescreenStoryboard: 1

[Editor]
DistanceSpacing: 1.2
BeatDivisor: 4
GridSize: 4
TimelineZoom: 1

[Metadata]
Title:C-TYPE
TitleUnicode:C-TYPE
Artist:Tanaka Hirokazu
ArtistUnicode:田中宏和
Creator:Arf
Version:B-TYPE
Source:テトリス
Tags:rfandomization -mo- warpyc starrstyx bonsai tetris gameboy game boy ゲームボーイ nintendo Johann Sebastian Bach French Suite No. 3 in B minor BWV 814 Menuet Minuet classical
BeatmapID:1592914
BeatmapSetID:757146

[Difficulty]
HPDrainRate:3
CircleSize:3.5
OverallDifficulty:4
ApproachRate:5
SliderMultiplier:0.9
SliderTickRate:1

[Events]
//Background and Video events
0,0,"bg.jpg",0,0
//Break Periods
//Storyboard Layer 0 (Background)
//Storyboard Layer 1 (Fail)
//Storyboard Layer 2 (Pass)
//Storyboard Layer 3 (Foreground)
//Storyboard Sound Samples

[TimingPoints]
42,401.875418620228,3,1,0,50,1,0
1247,-100,3,1,0,50,0,0
18126,-100,3,1,0,50,0,0
18528,-100,3,1,0,40,0,0
18930,-100,3,1,0,30,0,0
19332,-100,3,1,0,50,0,1
24154,-100,3,1,0,50,0,1
27771,-100,3,1,0,50,0,0
28977,-100,3,1,0,50,0,0
30182,-100,3,1,0,50,0,0
31388,-100,3,1,0,50,0,0
32593,-100,3,1,0,50,0,0
33799,-100,3,1,0,50,0,0

[Colours]
Combo1 : 0,128,0
Combo2 : 128,255,128

[HitObjects]
30,26,42,6,0,L|30:71,1,45,4|0,0:0|0:0,0:0:0:0:
83,83,443,2,0,L|83:137,1,45,8|0,0:0|0:0,0:0:0:0:
83,182,845,1,8,0:0:0:0:
171,244,1247,1,8,0:0:0:0:
261,303,1649,1,8,0:0:0:0:
351,362,2051,1,8,0:0:0:0:
459,361,2453,6,0,L|459:316,1,45,4|0,0:0|0:0,0:0:0:0:
406,304,2855,2,0,L|406:253,1,45,8|0,0:0|0:0,0:0:0:0:
406,205,3256,1,8,0:0:0:0:
318,143,3658,1,8,0:0:0:0:
228,84,4060,1,8,0:0:0:0:
138,27,4462,1,8,0:0:0:0:
29,27,4864,6,0,L|28:86,1,45,4|0,0:0|0:0,0:0:0:0:
28,126,5266,1,8,0:0:0:0:
136,126,5668,2,0,L|136:77,2,45,4|0|8,0:0|0:0|0:0,0:0:0:0:
136,180,6271,2,0,L|136:229,2,45,0|8|0,0:0|0:0|0:0,0:0:0:0:
179,148,6873,6,0,L|230:149,1,45,4|0,0:0|0:0,0:0:0:0:
261,187,7275,2,0,L|315:187,1,45,8|0,0:0|0:0,0:0:0:0:
345,223,7677,1,8,0:0:0:0:
440,274,8079,1,8,0:0:0:0:
364,352,8481,5,4,0:0:0:0:
312,367,8682,1,0,0:0:0:0:
261,348,8883,2,0,L|206:347,1,45,8|0,0:0|0:0,0:0:0:0:
163,362,9285,2,0,L|111:361,1,45,8|0,0:0|0:0,0:0:0:0:
64,349,9687,6,0,L|64:297,1,45,4|0,0:0|0:0,0:0:0:0:
64,249,10088,2,0,L|64:197,1,45,8|0,0:0|0:0,0:0:0:0:
65,149,10490,1,8,0:0:0:0:
143,75,10892,1,8,0:0:0:0:
251,74,11294,1,8,0:0:0:0:
329,148,11696,1,8,0:0:0:0:
325,255,12098,6,0,L|325:306,1,45,4|0,0:0|0:0,0:0:0:0:
325,354,12500,2,0,L|371:354,1,45,8|0,0:0|0:0,0:0:0:0:
424,354,12902,1,8,0:0:0:0:
498,276,13304,1,8,0:0:0:0:
499,168,13706,1,8,0:0:0:0:
425,90,14108,1,8,0:0:0:0:
317,88,14509,6,0,L|258:87,1,45,4|0,0:0|0:0,0:0:0:0:
218,87,14911,1,8,0:0:0:0:
220,195,15313,2,0,L|269:195,2,45,4|0|8,0:0|0:0|0:0,0:0:0:0:
165,196,15916,2,0,L|116:196,2,45,0|8|0,0:0|0:0|0:0,0:0:0:0:
191,234,16518,6,0,L|191:288,1,45,4|0,0:0|0:0,0:0:0:0:
190,342,16920,1,8,0:0:0:0:
82,345,17322,2,0,L|37:345,1,45,8|0,0:0|0:0,0:0:0:0:
40,290,17724,2,0,L|40:245,2,45,4|0|4,0:0|0:0|0:0,0:0:0:0:
152,289,18528,5,8,0:0:0:0:
260,289,18930,1,8,0:0:0:0:
346,224,19332,5,4,0:0:0:0:
347,170,19532,1,0,0:0:0:0:
348,116,19733,2,0,L|298:116,1,45,8|0,0:0|0:0,0:0:0:0:
248,114,20135,2,0,L|193:114,1,45,8|0,0:0|0:0,0:0:0:0:
148,114,20537,6,0,L|148:64,2,45,4|0|8,0:0|0:0|0:0,0:0:0:0:
148,168,21140,2,0,L|148:213,2,45,0|4|0,0:0|0:0|0:0,0:0:0:0:
105,134,21743,1,4,0:0:0:0:
51,134,21944,1,0,0:0:0:0:
1,134,22145,1,4,0:0:0:0:
50,230,22547,5,8,0:0:0:0:
157,230,22948,1,4,0:0:0:0:
157,284,23149,1,0,0:0:0:0:
157,336,23350,1,4,0:0:0:0:
265,335,23752,1,8,0:0:0:0:
328,247,24154,5,8,0:0:0:0:
269,155,24556,1,8,0:0:0:0:
160,154,24958,1,8,0:0:0:0:
106,247,25360,5,4,0:0:0:0:
160,247,25561,1,0,0:0:0:0:
214,247,25762,1,4,0:0:0:0:
321,247,26163,1,8,0:0:0:0:
398,175,26565,5,4,0:0:0:0:
398,120,26766,1,0,0:0:0:0:
398,65,26967,2,0,L|339:65,1,45,8|0,0:0|0:0,0:0:0:0:
307,94,27369,2,0,L|248:94,1,45,8|0,0:0|0:0,0:0:0:0:
216,64,27771,5,4,0:0:0:0:
216,310,28977,5,4,0:0:0:0:
306,175,29579,2,0,L|255:175,1,45,4|8,0:0|0:0,0:0:0:0:
152,176,30182,6,0,L|152:225,1,45,4|0,0:0|0:0,0:0:0:0:
154,275,30584,2,0,L|203:275,1,45,8|0,0:0|0:0,0:0:0:0:
253,277,30986,2,0,L|253:326,1,45,8|0,0:0|0:0,0:0:0:0:
252,376,31388,5,4,0:0:0:0:
186,227,31991,2,0,L|135:227,1,45,4|8,0:0|0:0,0:0:0:0:
32,226,32594,6,0,L|32:177,1,45,4|0,0:0|0:0,0:0:0:0:
34,127,32996,2,0,L|83:127,1,45,8|0,0:0|0:0,0:0:0:0:
133,125,33398,2,0,L|133:76,1,45,8|0,0:0|0:0,0:0:0:0:
132,26,33800,5,4,0:0:0:0:
239,26,34201,1,8,0:0:0:0:
346,26,34603,1,8,0:0:0:0:
346,133,35005,1,4,0:0:0:0:
346,240,35407,1,8,0:0:0:0:
239,240,35808,1,8,0:0:0:0:
132,240,36210,1,4,0:0:0:0:
132,136,36612,5,4,0:0:0:0:
186,135,36813,1,0,0:0:0:0:
240,135,37014,2,0,L|299:134,1,45,8|0,0:0|0:0,0:0:0:0:
339,134,37416,2,0,L|339:189,1,45,4|8,0:0|0:0,0:0:0:0:
