osu file format v14

[General]
AudioFilename: audio.mp3
AudioLeadIn: 0
PreviewTime: 47
Countdown: 0
SampleSet: Soft
StackLeniency: 0.7
Mode: 0
LetterboxInBreaks: 0
WidescreenStoryboard: 0

[Editor]
DistanceSpacing: 1
BeatDivisor: 4
GridSize: 8
TimelineZoom: 1

[Metadata]
Title:A-TYPE
TitleUnicode:A-TYPE
Artist:Tanaka Hirokazu
ArtistUnicode:田中宏和
Creator:Horrifying
Version:Normal
Source:テトリス
Tags:Tetris Коробе́йники Korobeiniki ゲームボーイ Game Boy Video Music instrumental VGM Коробейники chiptune retro
BeatmapID:1820255
BeatmapSetID:871152

[Difficulty]
HPDrainRate:3
CircleSize:3.5
OverallDifficulty:4
ApproachRate:5.4
SliderMultiplier:1.28
SliderTickRate:1

[Events]
//Background and Video events
0,0,"background.png",0,0
//Break Periods
//Storyboard Layer 0 (Background)
//Storyboard Layer 1 (Fail)
//Storyboard Layer 2 (Pass)
//Storyboard Layer 3 (Foreground)
//Storyboard Layer 4 (Overlay)
//Storyboard Sound Samples

[TimingPoints]
47,401.740877134248,4,2,1,45,1,0

[Colours]
Combo1 : 0,255,255
Combo2 : 255,255,0
Combo3 : 18,124,255
Combo4 : 255,128,64
Combo5 : 255,0,255
Combo6 : 0,255,0
Combo7 : 255,0,0

[HitObjects]
128,192,47,5,2,0:0:0:0:
128,320,448,2,0,L|128:392,2,64
256,320,1252,2,0,L|328:320,2,64
256,192,2055,1,0,0:0:0:0:
320,192,2256,1,0,0:0:0:0:
384,192,2457,1,2,0:0:0:0:
512,192,2859,2,0,L|512:256,2,64
320,192,3863,6,0,L|320:272,1,64
192,256,4466,1,2,0:0:0:0:
64,256,4867,5,8,1:2:0:0:
64,384,5269,1,8,1:2:0:0:
192,384,5671,1,8,1:2:0:0:
512,384,6675,5,0,0:0:0:0:
512,256,7077,1,0,0:0:0:0:
512,192,7278,1,2,0:0:0:0:
384,192,7680,2,0,L|384:272,2,64
192,192,8684,6,0,L|112:192,1,64,0|2,0:0|0:0,0:0:0:0:
128,320,9287,2,0,L|64:320,2,64
256,320,10090,2,0,L|320:320,2,64
256,192,10894,1,2,0:0:0:0:
128,192,11295,5,8,1:2:0:0:
128,320,11697,1,8,1:2:0:0:
256,320,12099,1,8,1:2:0:0:
448,192,12902,5,2,0:0:0:0:
448,320,13304,1,0,0:0:0:0:
384,320,13505,1,0,0:0:0:0:
320,320,13706,1,0,0:0:0:0:
192,320,14107,2,0,L|192:392,2,64
192,192,14911,2,0,L|120:192,2,64,0|0|2,0:0|0:0|0:0,0:0:0:0:
320,192,15714,2,0,L|392:192,2,64
128,192,16719,6,0,L|128:264,1,64
256,256,17321,1,2,0:0:0:0:
256,384,17723,1,8,1:2:0:0:
384,384,18125,1,8,1:2:0:0:
384,256,18527,1,8,1:2:0:0:
64,256,19531,5,0,0:0:0:0:
192,256,19933,2,0,L|280:256,1,64,0|2,0:0|0:0,0:0:0:0:
384,256,20535,2,0,L|464:256,2,64
192,256,21540,6,0,L|192:344,1,64,0|2,0:0|0:0,0:0:0:0:
320,320,22142,1,0,0:0:0:0:
384,320,22343,1,0,0:0:0:0:
448,320,22544,1,0,0:0:0:0:
448,192,22946,6,0,L|528:192,2,64
320,192,23749,1,2,0:0:0:0:
192,192,24151,1,8,1:2:0:0:
192,320,24553,1,8,1:2:0:0:
320,320,24954,1,8,1:2:0:0:
320,64,25758,6,0,B|128:64|128:64|128:144,3,256,2|0|0|0,0:0|0:0|0:0|0:0,0:0:0:0:
128,320,28972,2,0,B|224:320|224:320|224:256|224:256|328:256,1,256,2|0,0:0|0:0,0:0:0:0:
320,0,30579,2,0,B|64:0,1,256
64,256,32186,6,0,B|256:256|256:256|256:184,3,256,2|0|2|0,0:0|0:0|0:0|0:0,0:0:0:0:
256,0,35400,5,0,0:0:0:0:
128,0,35801,1,0,0:0:0:0:
128,128,36203,1,2,0:0:0:0:
128,384,37007,2,0,L|384:384,1,256,2|0,0:0|0:0,0:0:0:0:
