osu file format v14

[General]
AudioFilename: audio.mp3
AudioLeadIn: 0
PreviewTime: 47
Countdown: 0
SampleSet: Soft
StackLeniency: 0.7
Mode: 0
LetterboxInBreaks: 0
WidescreenStoryboard: 1

[Editor]
DistanceSpacing: 1
BeatDivisor: 4
GridSize: 8
TimelineZoom: 1

[Metadata]
Title:A-TYPE
TitleUnicode:A-TYPE
Artist:Tanaka Hirokazu
ArtistUnicode:田中宏和
Creator:Horrifying
Version:Hard
Source:テトリス
Tags:Tetris Коробе́йники Korobeiniki ゲームボーイ Game Boy Video Music instrumental VGM Коробейники chiptune retro
BeatmapID:2774984
BeatmapSetID:871152

[Difficulty]
HPDrainRate:5
CircleSize:4.5
OverallDifficulty:5
ApproachRate:7.5
SliderMultiplier:1.44
SliderTickRate:1

[Events]
//Background and Video events
0,0,"background.png",0,0
//Break Periods
//Storyboard Layer 0 (Background)
//Storyboard Layer 1 (Fail)
//Storyboard Layer 2 (Pass)
//Storyboard Layer 3 (Foreground)
//Storyboard Layer 4 (Overlay)
//Storyboard Sound Samples

[TimingPoints]
47,401.740877134248,4,2,1,45,1,0

[Colours]
Combo1 : 0,255,255
Combo2 : 255,255,0
Combo3 : 18,124,255
Combo4 : 255,128,64
Combo5 : 255,0,255
Combo6 : 0,255,0
Combo7 : 255,0,0

[HitObjects]
256,192,47,6,0,L|176:192,1,72,2|0,0:0|0:0,0:0:0:0:
112,192,448,1,0,0:0:0:0:
112,264,649,1,0,0:0:0:0:
184,264,850,6,0,L|184:344,1,72
256,336,1252,1,0,0:0:0:0:
256,264,1453,1,0,0:0:0:0:
256,192,1653,6,0,L|330:192,1,72
400,192,2055,1,0,0:0:0:0:
472,192,2256,1,0,0:0:0:0:
472,264,2457,6,0,L|389:264,1,72,2|0,0:0|0:0,0:0:0:0:
328,264,2859,1,0,0:0:0:0:
256,264,3060,1,0,0:0:0:0:
184,264,3260,6,0,L|40:264,1,144
40,336,3863,5,0,0:0:0:0:
112,336,4064,2,0,L|194:336,1,72
256,336,4466,2,0,L|256:253,1,72,2|0,0:0|0:0,0:0:0:0:
256,192,4867,5,8,1:2:0:0:
400,192,5269,1,8,1:2:0:0:
400,336,5671,2,0,L|312:336,1,72,8|0,1:2|0:0,0:0:0:0:
256,336,6073,6,0,L|176:336,2,72
256,264,6675,6,0,L|181:264,1,72
112,264,7077,1,0,0:0:0:0:
40,264,7278,2,0,L|40:176,1,72,2|0,0:0|0:0,0:0:0:0:
112,192,7680,1,0,0:0:0:0:
184,192,7880,1,0,0:0:0:0:
256,192,8081,2,0,L|424:192,1,144
472,192,8684,5,0,0:0:0:0:
472,264,8885,2,0,L|397:264,1,72,2|0,0:0|0:0,0:0:0:0:
328,264,9287,1,0,0:0:0:0:
328,336,9487,1,0,0:0:0:0:
256,336,9688,2,0,L|176:336,1,72
112,336,10090,5,0,0:0:0:0:
40,336,10291,1,0,0:0:0:0:
40,264,10492,2,0,L|40:176,1,72
112,192,10894,2,0,L|186:192,1,72,2|0,0:0|0:0,0:0:0:0:
256,192,11295,5,8,1:2:0:0:
400,192,11697,1,8,1:2:0:0:
400,336,12099,2,0,L|320:336,1,72,8|0,1:2|0:0,0:0:0:0:
256,336,12500,6,0,L|173:336,1,72
184,264,12902,6,0,L|255:264,1,72,2|0,0:0|0:0,0:0:0:0:
328,264,13304,1,0,0:0:0:0:
328,192,13505,1,0,0:0:0:0:
256,192,13706,6,0,L|181:192,1,72
112,192,14107,1,0,0:0:0:0:
40,192,14308,1,0,0:0:0:0:
40,264,14509,6,0,L|130:264,1,72
184,264,14911,1,0,0:0:0:0:
256,264,15112,1,0,0:0:0:0:
328,264,15313,6,0,L|328:338,1,72,2|0,0:0|0:0,0:0:0:0:
256,336,15714,1,0,0:0:0:0:
184,336,15915,1,0,0:0:0:0:
184,264,16116,6,0,L|35:264,1,144
40,192,16719,5,0,0:0:0:0:
112,192,16920,2,0,L|216:192,1,72
256,192,17321,2,0,L|336:192,1,72,2|0,0:0|0:0,0:0:0:0:
400,192,17723,5,8,1:2:0:0:
400,336,18125,1,8,1:2:0:0:
256,336,18527,2,8,L|168:336,1,72,8|0,1:2|0:0,0:0:0:0:
112,336,18928,6,0,L|37:336,2,72
112,264,19531,6,0,L|21:264,1,72
40,192,19933,1,0,0:0:0:0:
112,192,20134,2,0,L|200:192,1,72,2|0,0:0|0:0,0:0:0:0:
256,192,20535,1,0,0:0:0:0:
256,264,20736,1,0,0:0:0:0:
256,336,20937,2,0,L|404:336,1,144
472,336,21540,5,0,0:0:0:0:
472,264,21741,2,0,L|472:168,1,72,2|0,0:0|0:0,0:0:0:0:
400,192,22142,1,0,0:0:0:0:
328,192,22343,1,0,0:0:0:0:
328,264,22544,2,0,L|237:264,1,72
184,264,22946,5,0,0:0:0:0:
184,192,23147,1,0,0:0:0:0:
256,192,23347,2,0,L|336:192,1,72
400,192,23749,2,0,L|400:266,1,72,2|0,0:0|0:0,0:0:0:0:
400,336,24151,5,8,1:2:0:0:
256,336,24553,1,8,1:2:0:0:
112,336,24954,2,8,L|112:256,1,72,8|0,1:2|0:0,0:0:0:0:
112,192,25356,6,0,L|112:104,1,72
184,120,25758,6,0,B|256:120|256:120|256:48|256:48|328:48,1,216,2|0,0:0|0:0,0:0:0:0:
400,48,26561,2,0,B|472:48|472:48|472:192,1,216
400,192,27365,6,0,L|185:192,1,216,2|0,0:0|0:0,0:0:0:0:
112,192,28168,2,0,B|112:120|112:120|256:120,1,216
256,48,28972,6,0,B|328:48|328:48|328:120|328:120|406:120,1,216,2|0,0:0|0:0,0:0:0:0:
472,120,29775,2,0,B|472:264|472:264|400:264,1,216
328,264,30579,6,0,L|328:49,1,216
256,48,31382,2,0,B|184:48|184:48|184:208,1,216,0|4,0:0|0:2,0:0:0:0:
184,264,32186,6,0,L|408:264,1,216,2|0,0:0|0:0,0:0:0:0:
472,264,32989,2,0,B|472:192|472:192|400:192|400:192|400:104,1,216
328,120,33793,6,0,L|104:120,1,216,2|0,0:0|0:0,0:0:0:0:
40,120,34596,2,0,B|40:264|40:264|112:264,1,216
184,264,35400,6,0,L|256:264,1,72
328,264,35801,2,0,L|328:192,1,72
328,120,36203,2,0,B|184:120|184:120|184:40,1,216,2|0,0:0|0:0,0:0:0:0:
256,48,37007,2,0,L|472:48,1,216,2|0,0:0|0:0,0:0:0:0:
472,120,37810,1,0,0:0:0:0:
