osu file format v14

[General]
AudioFilename: audio.mp3
AudioLeadIn: 0
PreviewTime: 47
Countdown: 0
SampleSet: Soft
StackLeniency: 0
Mode: 0
LetterboxInBreaks: 0
WidescreenStoryboard: 1

[Editor]
Bookmarks: 25713
DistanceSpacing: 1
BeatDivisor: 4
GridSize: 16
TimelineZoom: 1

[Metadata]
Title:A-TYPE
TitleUnicode:A-TYPE
Artist:Tanaka Hirokazu
ArtistUnicode:田中宏和
Creator:Horrifying
Version:Center 4-Wide!
Source:テトリス
Tags:Tetris Коробе́йники Korobeiniki ゲームボーイ Game Boy Video Music instrumental VGM Коробейники chiptune retro
BeatmapID:3140597
BeatmapSetID:871152

[Difficulty]
HPDrainRate:6
CircleSize:5
OverallDifficulty:8
ApproachRate:8
SliderMultiplier:1.92
SliderTickRate:1

[Events]
//Background and Video events
0,0,"background.png",0,0
//Break Periods
//Storyboard Layer 0 (Background)
//Storyboard Layer 1 (Fail)
//Storyboard Layer 2 (Pass)
//Storyboard Layer 3 (Foreground)
//Storyboard Layer 4 (Overlay)
//Storyboard Sound Samples

[TimingPoints]
47,401.740877134248,4,2,1,45,1,0

[Colours]
Combo1 : 0,255,255
Combo2 : 255,255,0
Combo3 : 18,124,255
Combo4 : 255,128,64
Combo5 : 255,0,255
Combo6 : 0,255,0
Combo7 : 255,0,0

[HitObjects]
160,288,47,6,0,L|64:288,1,96,2|0,0:0|0:0,0:0:0:0:
64,384,448,1,0,0:0:0:0:
160,384,649,1,0,0:0:0:0:
256,384,850,6,0,L|352:384,1,96,0|0,0:0|0:0,0:0:0:0:
352,336,1151,1,0,0:0:0:0:
352,288,1252,1,0,0:0:0:0:
256,288,1453,1,0,0:0:0:0:
160,288,1653,6,0,L|64:288,1,96,0|0,0:0|0:0,0:0:0:0:
64,384,2055,1,0,0:0:0:0:
160,384,2256,1,0,0:0:0:0:
256,384,2457,6,0,L|256:288,1,96,2|0,0:0|0:0,0:0:0:0:
352,288,2859,1,0,0:0:0:0:
448,288,3060,1,0,0:0:0:0:
448,384,3260,6,0,L|336:384,2,96
448,288,3863,5,0,0:0:0:0:
352,288,4064,1,0,0:0:0:0:
256,288,4265,1,0,0:0:0:0:
208,288,4365,1,0,0:0:0:0:
160,288,4466,2,0,L|48:288,1,96,2|0,0:0|0:0,0:0:0:0:
64,384,4867,6,0,L|64:288,1,96,8|0,1:2|0:0,0:0:0:0:
160,384,5269,2,0,L|160:288,1,96,8|0,1:2|0:0,0:0:0:0:
256,384,5671,2,0,L|256:288,1,96,8|0,1:2|0:0,0:0:0:0:
352,384,6073,5,0,0:0:0:0:
352,384,6273,1,0,0:0:0:0:
352,384,6474,1,0,0:0:0:0:
352,288,6675,6,0,L|256:288,1,96,0|0,0:0|0:0,0:0:0:0:
160,288,7077,1,0,0:0:0:0:
64,288,7278,1,2,0:0:0:0:
64,192,7479,1,0,0:0:0:0:
112,192,7579,1,0,0:0:0:0:
160,192,7680,1,0,0:0:0:0:
256,192,7880,1,0,0:0:0:0:
352,192,8081,2,0,L|448:192,1,96,0|0,0:0|0:0,0:0:0:0:
448,384,8684,5,0,0:0:0:0:
352,384,8885,1,2,0:0:0:0:
352,288,9086,1,0,0:0:0:0:
352,240,9186,1,0,0:0:0:0:
352,192,9287,1,0,0:0:0:0:
448,192,9487,1,0,0:0:0:0:
448,288,9688,2,0,L|448:384,1,96,0|0,0:0|0:0,0:0:0:0:
352,384,10090,5,0,0:0:0:0:
352,288,10291,1,0,0:0:0:0:
256,288,10492,2,0,L|256:192,1,96,0|0,0:0|0:0,0:0:0:0:
160,192,10894,2,0,L|64:192,1,96,2|0,0:0|0:0,0:0:0:0:
64,288,11295,6,0,L|64:384,1,96,8|0,1:2|0:0,0:0:0:0:
160,288,11697,2,0,L|160:384,1,96,8|0,1:2|0:0,0:0:0:0:
256,288,12099,2,0,L|256:384,1,96,8|0,1:2|0:0,0:0:0:0:
352,384,12500,5,0,0:0:0:0:
352,384,12701,1,0,0:0:0:0:
448,384,12902,6,0,L|448:288,1,96,2|0,0:0|0:0,0:0:0:0:
448,192,13304,1,0,0:0:0:0:
352,192,13505,1,0,0:0:0:0:
352,288,13706,5,0,0:0:0:0:
352,384,13907,1,0,0:0:0:0:
304,384,14007,1,0,0:0:0:0:
256,384,14107,1,0,0:0:0:0:
160,384,14308,1,0,0:0:0:0:
64,384,14509,6,0,L|64:288,1,96
64,192,14911,1,0,0:0:0:0:
160,192,15112,1,0,0:0:0:0:
256,192,15313,6,0,L|352:192,1,96,2|0,0:0|0:0,0:0:0:0:
352,288,15714,1,0,0:0:0:0:
256,288,15915,1,0,0:0:0:0:
256,192,16116,5,0,0:0:0:0:
160,192,16317,2,0,L|64:192,1,96,0|0,0:0|0:0,0:0:0:0:
64,288,16719,5,0,0:0:0:0:
64,384,16920,2,0,L|160:384,1,96,0|0,0:0|0:0,0:0:0:0:
256,384,17321,2,0,L|256:288,1,96,2|0,0:0|0:0,0:0:0:0:
256,192,17723,6,0,L|352:192,1,96,8|0,1:2|0:0,0:0:0:0:
256,288,18125,2,0,L|352:288,1,96,8|0,1:2|0:0,0:0:0:0:
256,384,18527,2,0,L|352:384,1,96,8|0,1:2|0:0,0:0:0:0:
448,384,18928,5,0,0:0:0:0:
448,384,19129,1,0,0:0:0:0:
448,384,19330,1,0,0:0:0:0:
448,288,19531,6,0,L|448:176,1,96,0|0,0:0|0:0,0:0:0:0:
352,192,19933,1,0,0:0:0:0:
352,288,20134,1,2,0:0:0:0:
448,288,20334,1,0,0:0:0:0:
448,336,20435,1,0,0:0:0:0:
448,384,20535,1,0,0:0:0:0:
352,384,20736,1,0,0:0:0:0:
352,288,20937,2,0,L|256:288,1,96,0|0,0:0|0:0,0:0:0:0:
64,288,21540,5,0,0:0:0:0:
160,288,21741,1,2,0:0:0:0:
256,288,21941,1,0,0:0:0:0:
256,240,22042,1,0,0:0:0:0:
256,192,22142,1,0,0:0:0:0:
352,192,22343,1,0,0:0:0:0:
256,192,22544,6,0,L|256:288,1,96,0|0,0:0|0:0,0:0:0:0:
256,384,22946,1,0,0:0:0:0:
352,384,23147,1,0,0:0:0:0:
352,288,23347,1,0,0:0:0:0:
256,288,23548,1,0,0:0:0:0:
256,336,23649,1,0,0:0:0:0:
256,384,23749,2,0,L|160:384,1,96,2|0,0:0|0:0,0:0:0:0:
64,384,24151,6,0,L|64:288,1,96,8|0,1:2|0:0,0:0:0:0:
160,384,24553,2,0,L|160:288,1,96,8|0,1:2|0:0,0:0:0:0:
256,384,24954,2,0,L|256:288,1,96,8|0,1:2|0:0,0:0:0:0:
352,288,25356,5,0,0:0:0:0:
352,288,25557,1,0,0:0:0:0:
304,192,25758,6,0,L|400:192,1,96,2|0,0:0|0:0,0:0:0:0:
496,192,26160,2,0,L|496:96,1,96,0|0,0:0|0:0,0:0:0:0:
400,96,26561,1,0,0:0:0:0:
400,192,26762,1,0,0:0:0:0:
352,192,26863,1,0,0:0:0:0:
304,192,26963,2,0,L|208:192,1,96,0|0,0:0|0:0,0:0:0:0:
112,192,27365,6,0,L|112:288,1,96,2|0,0:0|0:0,0:0:0:0:
16,288,27767,2,0,L|16:192,1,96
16,96,28168,1,0,0:0:0:0:
112,96,28369,1,0,0:0:0:0:
112,192,28570,1,0,0:0:0:0:
16,192,28771,1,0,0:0:0:0:
16,96,28972,6,0,L|16:0,1,96,2|0,0:0|0:0,0:0:0:0:
112,0,29374,2,0,L|208:0,1,96
304,0,29775,1,0,0:0:0:0:
304,96,29976,1,0,0:0:0:0:
304,144,30077,1,0,0:0:0:0:
304,192,30177,2,0,L|400:192,1,96
496,192,30579,5,0,0:0:0:0:
496,96,30780,1,0,0:0:0:0:
400,96,30981,1,0,0:0:0:0:
400,192,31181,2,0,L|496:192,1,96,0|0,0:0|0:2,0:0:0:0:
496,96,31583,5,4,0:0:0:0:
496,96,31784,1,4,0:2:0:0:
496,96,31985,1,4,0:2:0:0:
400,96,32186,6,0,L|288:96,1,96,2|0,0:0|0:0,0:0:0:0:
208,96,32588,1,0,0:0:0:0:
208,192,32788,1,0,0:0:0:0:
112,192,32989,1,0,0:0:0:0:
112,96,33190,1,0,0:0:0:0:
160,96,33291,1,0,0:0:0:0:
208,96,33391,2,0,L|304:96,1,96,0|0,0:0|0:0,0:0:0:0:
400,96,33793,6,0,L|496:96,1,96,2|0,0:0|0:0,0:0:0:0:
496,192,34194,1,0,0:0:0:0:
496,288,34395,1,0,0:0:0:0:
400,288,34596,2,0,L|272:288,1,96
208,288,34998,1,0,0:0:0:0:
208,192,35199,1,0,0:0:0:0:
112,192,35400,6,0,L|16:192,1,96
16,96,35801,2,0,L|112:96,1,96
208,96,36203,2,0,L|400:96,1,192,2|0,0:0|0:0,0:0:0:0:
496,96,36806,1,0,0:0:0:0:
496,0,37007,2,0,B|112:0,1,384,2|0,0:0|0:0,0:0:0:0:
