osu file format v14

[General]
AudioFilename: audio.mp3
AudioLeadIn: 0
PreviewTime: 15
Countdown: 0
SampleSet: Soft
StackLeniency: 0.7
Mode: 3
LetterboxInBreaks: 0
SpecialStyle: 0
WidescreenStoryboard: 0

[Editor]
DistanceSpacing: 2
BeatDivisor: 4
GridSize: 32
TimelineZoom: 1.7

[Metadata]
Title:A-TYPE
TitleUnicode:A-TYPE
Artist:Tanaka Hirokazu
ArtistUnicode:田中宏和
Creator:AZKiFanboy
Version:T-SPIN!
Source:テトリス
Tags:Tetris korobeiniki коробейники Video Game ゲームボーイ Gameboy Nintendo vgm Коробе́йники Retro Chiptune Instrumental Chip Tanaka Hip Tanaka
BeatmapID:3870999
BeatmapSetID:1880259

[Difficulty]
HPDrainRate:8
CircleSize:4
OverallDifficulty:8
ApproachRate:5
SliderMultiplier:1.4
SliderTickRate:1

[Events]
//Background and Video events
0,0,"1160334.jpg",0,0
//Break Periods
//Storyboard Layer 0 (Background)
//Storyboard Layer 1 (Fail)
//Storyboard Layer 2 (Pass)
//Storyboard Layer 3 (Foreground)
//Storyboard Layer 4 (Overlay)
//Storyboard Sound Samples

[TimingPoints]
47,401.740877134248,4,2,1,40,1,0

[HitObjects]
448,192,47,5,0,0:0:0:0:
192,192,47,128,0,247:0:0:0:0:
448,192,247,1,0,0:0:0:0:
192,192,448,1,0,0:0:0:0:
64,192,448,128,0,649:0:0:0:0:
320,192,649,1,0,0:0:0:0:
192,192,649,128,0,850:0:0:0:0:
448,192,850,1,0,0:0:0:0:
320,192,850,128,0,1051:0:0:0:0:
192,192,1051,1,0,0:0:0:0:
192,192,1151,1,0,0:0:0:0:
320,192,1252,1,0,0:0:0:0:
448,192,1252,128,0,1453:0:0:0:0:
192,192,1453,1,0,0:0:0:0:
320,192,1453,128,0,1653:0:0:0:0:
64,192,1653,1,0,0:0:0:0:
192,192,1653,128,0,1854:0:0:0:0:
64,192,1854,1,0,0:0:0:0:
448,192,2055,1,0,0:0:0:0:
320,192,2055,128,0,2256:0:0:0:0:
192,192,2256,1,0,0:0:0:0:
64,192,2256,128,0,2457:0:0:0:0:
320,192,2457,1,0,0:0:0:0:
448,192,2457,128,0,2658:0:0:0:0:
320,192,2658,1,0,0:0:0:0:
64,192,2859,1,0,0:0:0:0:
320,192,2859,128,0,3060:0:0:0:0:
192,192,3060,1,0,0:0:0:0:
448,192,3060,128,0,3260:0:0:0:0:
320,192,3260,1,0,0:0:0:0:
64,192,3260,128,0,3461:0:0:0:0:
192,192,3461,1,0,0:0:0:0:
320,192,3662,1,0,0:0:0:0:
192,192,3863,1,0,0:0:0:0:
64,192,3863,128,0,4064:0:0:0:0:
448,192,4064,1,0,0:0:0:0:
320,192,4064,128,0,4265:0:0:0:0:
192,192,4265,1,0,0:0:0:0:
192,192,4365,1,0,0:0:0:0:
64,192,4466,1,0,0:0:0:0:
448,192,4466,128,0,4667:0:0:0:0:
192,192,4667,1,0,0:0:0:0:
448,192,4867,1,0,0:0:0:0:
320,192,4867,128,0,5068:0:0:0:0:
448,192,5068,1,0,0:0:0:0:
320,192,5269,1,0,0:0:0:0:
192,192,5269,128,0,5470:0:0:0:0:
320,192,5470,1,0,0:0:0:0:
192,192,5671,1,0,0:0:0:0:
64,192,5671,128,0,5872:0:0:0:0:
192,192,5872,1,0,0:0:0:0:
320,192,6073,1,0,0:0:0:0:
64,192,6273,1,0,0:0:0:0:
192,192,6474,1,0,0:0:0:0:
448,192,6675,1,0,0:0:0:0:
320,192,6675,128,0,6876:0:0:0:0:
448,192,6876,1,0,0:0:0:0:
192,192,7077,1,0,0:0:0:0:
64,192,7077,128,0,7278:0:0:0:0:
320,192,7278,1,0,0:0:0:0:
448,192,7278,128,0,7479:0:0:0:0:
192,192,7479,1,0,0:0:0:0:
192,192,7579,1,0,0:0:0:0:
64,192,7680,1,0,0:0:0:0:
320,192,7680,128,0,7880:0:0:0:0:
448,192,7880,1,0,0:0:0:0:
192,192,7880,128,0,8081:0:0:0:0:
320,192,8081,1,0,0:0:0:0:
64,192,8081,128,0,8282:0:0:0:0:
192,192,8282,1,0,0:0:0:0:
448,192,8483,1,0,0:0:0:0:
320,192,8684,1,0,0:0:0:0:
64,192,8684,128,0,8885:0:0:0:0:
448,192,8885,1,0,0:0:0:0:
192,192,8885,128,0,9086:0:0:0:0:
320,192,9086,1,0,0:0:0:0:
64,192,9287,1,0,0:0:0:0:
448,192,9287,128,0,9487:0:0:0:0:
192,192,9487,1,0,0:0:0:0:
320,192,9487,128,0,9688:0:0:0:0:
448,192,9688,1,0,0:0:0:0:
64,192,9688,128,0,9889:0:0:0:0:
320,192,9889,1,0,0:0:0:0:
448,192,10090,1,0,0:0:0:0:
192,192,10090,128,0,10291:0:0:0:0:
64,192,10291,1,0,0:0:0:0:
320,192,10291,128,0,10492:0:0:0:0:
192,192,10492,1,0,0:0:0:0:
448,192,10492,128,0,10693:0:0:0:0:
320,192,10693,1,0,0:0:0:0:
320,192,10793,1,0,0:0:0:0:
448,192,10894,1,0,0:0:0:0:
192,192,10894,128,0,11094:0:0:0:0:
64,192,11094,1,0,0:0:0:0:
448,192,11295,1,0,0:0:0:0:
320,192,11295,128,0,11496:0:0:0:0:
448,192,11496,1,0,0:0:0:0:
320,192,11697,1,0,0:0:0:0:
192,192,11697,128,0,11898:0:0:0:0:
320,192,11898,1,0,0:0:0:0:
192,192,12099,1,0,0:0:0:0:
64,192,12099,128,0,12300:0:0:0:0:
192,192,12300,1,0,0:0:0:0:
64,192,12500,1,0,0:0:0:0:
64,192,12701,1,0,0:0:0:0:
448,192,12902,1,0,0:0:0:0:
320,192,12902,128,0,13103:0:0:0:0:
448,192,13103,1,0,0:0:0:0:
192,192,13304,1,0,0:0:0:0:
64,192,13304,128,0,13505:0:0:0:0:
320,192,13505,1,0,0:0:0:0:
192,192,13505,128,0,13706:0:0:0:0:
448,192,13706,1,0,0:0:0:0:
320,192,13706,128,0,13907:0:0:0:0:
192,192,13907,1,0,0:0:0:0:
192,192,14007,1,0,0:0:0:0:
64,192,14107,1,0,0:0:0:0:
448,192,14107,128,0,14308:0:0:0:0:
320,192,14308,1,0,0:0:0:0:
192,192,14308,128,0,14509:0:0:0:0:
448,192,14509,1,0,0:0:0:0:
64,192,14509,128,0,14710:0:0:0:0:
320,192,14710,1,0,0:0:0:0:
448,192,14911,1,0,0:0:0:0:
192,192,14911,128,0,15112:0:0:0:0:
64,192,15112,1,0,0:0:0:0:
320,192,15112,128,0,15313:0:0:0:0:
192,192,15313,1,0,0:0:0:0:
448,192,15313,128,0,15514:0:0:0:0:
320,192,15514,1,0,0:0:0:0:
64,192,15714,1,0,0:0:0:0:
320,192,15714,128,0,15915:0:0:0:0:
448,192,15915,1,0,0:0:0:0:
192,192,15915,128,0,16116:0:0:0:0:
320,192,16116,1,0,0:0:0:0:
64,192,16116,128,0,16317:0:0:0:0:
192,192,16317,1,0,0:0:0:0:
64,192,16518,1,0,0:0:0:0:
320,192,16719,1,0,0:0:0:0:
192,192,16719,128,0,16920:0:0:0:0:
64,192,16920,1,0,0:0:0:0:
448,192,16920,128,0,17120:0:0:0:0:
192,192,17120,1,0,0:0:0:0:
192,192,17221,1,0,0:0:0:0:
64,192,17321,1,0,0:0:0:0:
320,192,17321,128,0,17522:0:0:0:0:
192,192,17522,1,0,0:0:0:0:
64,192,17723,1,0,0:0:0:0:
448,192,17723,128,0,17924:0:0:0:0:
64,192,17924,1,0,0:0:0:0:
192,192,18125,1,0,0:0:0:0:
320,192,18125,128,0,18326:0:0:0:0:
192,192,18326,1,0,0:0:0:0:
448,192,18527,1,0,0:0:0:0:
64,192,18527,128,0,18727:0:0:0:0:
448,192,18727,1,0,0:0:0:0:
320,192,18928,1,0,0:0:0:0:
64,192,19129,1,0,0:0:0:0:
192,192,19330,1,0,0:0:0:0:
448,192,19531,1,0,0:0:0:0:
320,192,19531,128,0,19732:0:0:0:0:
448,192,19732,1,0,0:0:0:0:
192,192,19933,1,0,0:0:0:0:
64,192,19933,128,0,20134:0:0:0:0:
320,192,20134,1,0,0:0:0:0:
448,192,20134,128,0,20334:0:0:0:0:
192,192,20334,1,0,0:0:0:0:
192,192,20435,1,0,0:0:0:0:
64,192,20535,1,0,0:0:0:0:
320,192,20535,128,0,20736:0:0:0:0:
448,192,20736,1,0,0:0:0:0:
192,192,20736,128,0,20937:0:0:0:0:
320,192,20937,1,0,0:0:0:0:
64,192,20937,128,0,21138:0:0:0:0:
192,192,21138,1,0,0:0:0:0:
320,192,21339,1,0,0:0:0:0:
448,192,21540,1,0,0:0:0:0:
192,192,21540,128,0,21741:0:0:0:0:
64,192,21741,1,0,0:0:0:0:
320,192,21741,128,0,21941:0:0:0:0:
192,192,21941,1,0,0:0:0:0:
64,192,22142,1,0,0:0:0:0:
448,192,22142,128,0,22343:0:0:0:0:
320,192,22343,1,0,0:0:0:0:
192,192,22343,128,0,22544:0:0:0:0:
448,192,22544,1,0,0:0:0:0:
64,192,22544,128,0,22745:0:0:0:0:
320,192,22745,1,0,0:0:0:0:
448,192,22946,1,0,0:0:0:0:
192,192,22946,128,0,23147:0:0:0:0:
64,192,23147,1,0,0:0:0:0:
320,192,23147,128,0,23347:0:0:0:0:
192,192,23347,1,0,0:0:0:0:
448,192,23347,128,0,23548:0:0:0:0:
320,192,23548,1,0,0:0:0:0:
320,192,23649,1,0,0:0:0:0:
192,192,23749,1,0,0:0:0:0:
64,192,23749,128,0,23950:0:0:0:0:
448,192,23950,1,0,0:0:0:0:
320,192,24151,1,0,0:0:0:0:
192,192,24151,128,0,24352:0:0:0:0:
320,192,24352,1,0,0:0:0:0:
64,192,24553,1,0,0:0:0:0:
448,192,24553,128,0,24754:0:0:0:0:
64,192,24754,1,0,0:0:0:0:
192,192,24954,1,0,0:0:0:0:
320,192,24954,128,0,25155:0:0:0:0:
192,192,25155,1,0,0:0:0:0:
320,192,25356,1,0,0:0:0:0:
320,192,25557,1,0,0:0:0:0:
192,192,25758,128,0,25959:0:0:0:0:
448,192,25758,128,0,26561:0:0:0:0:
320,192,25959,128,0,26160:0:0:0:0:
64,192,26160,128,0,26361:0:0:0:0:
320,192,26361,128,0,26561:0:0:0:0:
192,192,26561,128,0,27365:0:0:0:0:
64,192,26561,128,0,26762:0:0:0:0:
448,192,26762,128,0,26963:0:0:0:0:
64,192,26863,1,0,0:0:0:0:
320,192,26963,128,0,27164:0:0:0:0:
64,192,27164,128,0,27365:0:0:0:0:
320,192,27365,128,0,28168:0:0:0:0:
448,192,27365,128,0,27566:0:0:0:0:
192,192,27566,128,0,27767:0:0:0:0:
64,192,27767,128,0,27967:0:0:0:0:
448,192,27967,128,0,28168:0:0:0:0:
64,192,28168,128,0,28972:0:0:0:0:
192,192,28168,128,0,28369:0:0:0:0:
448,192,28369,128,0,28570:0:0:0:0:
192,192,28570,128,0,28771:0:0:0:0:
320,192,28771,128,0,28972:0:0:0:0:
192,192,28972,128,0,29775:0:0:0:0:
448,192,28972,128,0,29173:0:0:0:0:
320,192,29173,128,0,29374:0:0:0:0:
64,192,29374,128,0,29574:0:0:0:0:
448,192,29574,128,0,29775:0:0:0:0:
320,192,29775,128,0,30579:0:0:0:0:
64,192,29775,128,0,29976:0:0:0:0:
192,192,29976,128,0,30177:0:0:0:0:
64,192,30077,1,0,0:0:0:0:
448,192,30177,128,0,30378:0:0:0:0:
192,192,30378,128,0,30579:0:0:0:0:
64,192,30579,128,0,31382:0:0:0:0:
448,192,30579,128,0,30780:0:0:0:0:
192,192,30780,128,0,30981:0:0:0:0:
448,192,30981,128,0,31181:0:0:0:0:
320,192,31181,128,0,31382:0:0:0:0:
448,192,31382,128,0,31784:0:0:0:0:
192,192,31382,128,0,31583:0:0:0:0:
320,192,31583,1,0,0:0:0:0:
320,192,31784,1,0,0:0:0:0:
320,192,31985,1,0,0:0:0:0:
320,192,32186,128,0,32989:0:0:0:0:
192,192,32186,128,0,32387:0:0:0:0:
64,192,32387,128,0,32588:0:0:0:0:
448,192,32588,128,0,32788:0:0:0:0:
192,192,32788,128,0,32989:0:0:0:0:
64,192,32989,128,0,33793:0:0:0:0:
448,192,32989,128,0,33190:0:0:0:0:
320,192,33190,128,0,33391:0:0:0:0:
192,192,33291,1,0,0:0:0:0:
448,192,33391,128,0,33592:0:0:0:0:
192,192,33592,128,0,33793:0:0:0:0:
448,192,33793,128,0,34596:0:0:0:0:
320,192,33793,128,0,33994:0:0:0:0:
64,192,33994,128,0,34194:0:0:0:0:
192,192,34194,128,0,34395:0:0:0:0:
64,192,34395,128,0,34596:0:0:0:0:
192,192,34596,128,0,35400:0:0:0:0:
320,192,34596,128,0,34797:0:0:0:0:
448,192,34797,128,0,34998:0:0:0:0:
64,192,34998,128,0,35199:0:0:0:0:
320,192,35199,128,0,35400:0:0:0:0:
64,192,35400,128,0,35801:0:0:0:0:
448,192,35400,128,0,35601:0:0:0:0:
192,192,35601,128,0,35801:0:0:0:0:
320,192,35801,128,0,36203:0:0:0:0:
448,192,35801,128,0,36002:0:0:0:0:
192,192,36002,128,0,36203:0:0:0:0:
448,192,36203,128,0,37007:0:0:0:0:
64,192,36203,128,0,36404:0:0:0:0:
192,192,36404,128,0,36605:0:0:0:0:
320,192,36504,1,0,0:0:0:0:
64,192,36605,128,0,36806:0:0:0:0:
320,192,36806,128,0,37007:0:0:0:0:
192,192,37007,128,0,37810:0:0:0:0:
64,192,37007,128,0,37208:0:0:0:0:
448,192,37208,128,0,37408:0:0:0:0:
320,192,37408,128,0,37609:0:0:0:0:
64,192,37609,128,0,37810:0:0:0:0:
320,192,37810,1,0,0:0:0:0:
448,192,38011,1,0,0:0:0:0:
448,192,38212,1,0,0:0:0:0:
448,192,38413,1,0,0:0:0:0:
