osu file format v14

[General]
AudioFilename: audio.mp3
AudioLeadIn: 0
PreviewTime: 55979
Countdown: 0
SampleSet: Soft
StackLeniency: 0.7
Mode: 0
LetterboxInBreaks: 0
WidescreenStoryboard: 1

[Editor]
DistanceSpacing: 1.1
BeatDivisor: 4
GridSize: 32
TimelineZoom: 1.9

[Metadata]
Title:For 4 Forever
TitleUnicode:For 4 Forever
Artist:Tanaka Chiemi, Murakami Natsumi, Sakura Ayane, Han Megumi
ArtistUnicode:田中ちえ美、村上奈津実、佐倉綾音、潘めぐみ
Creator:Lancien
Version:Normal
Source:4人はそれぞれウソをつく
Tags:4-nin wa Sorezore Uso wo Tsuku The Little Lies We All Tell ed ending Teje Hayato Yamamoto リッカ Rikka 千代 Chiyo 関根 Sekine 翼 Tsubasa anime japanese jeby pop jpop
BeatmapID:3887418
BeatmapSetID:1887753

[Difficulty]
HPDrainRate:3.5
CircleSize:3
OverallDifficulty:5
ApproachRate:6
SliderMultiplier:1.1
SliderTickRate:1

[Events]
//Background and Video events
0,0,"bg.png",0,0
//Break Periods
2,144179,150929
//Storyboard Layer 0 (Background)
//Storyboard Layer 1 (Fail)
//Storyboard Layer 2 (Pass)
//Storyboard Layer 3 (Foreground)
//Storyboard Layer 4 (Overlay)
//Storyboard Sound Samples

[TimingPoints]
1313,333.333333333333,4,2,1,55,1,0
1313,-100,4,2,1,55,0,0
9312,-100,4,2,1,70,0,0
22646,-100,4,2,1,60,0,0
33312,-100,4,2,1,70,0,0
43979,-100,4,2,1,60,0,0
55146,-100,4,2,1,50,0,0
55979,-100,4,2,1,75,0,1
66646,-100,4,2,1,75,0,0
77312,-100,4,2,1,70,0,0
87979,-100,4,2,1,60,0,0
89146,-100,4,2,1,70,0,0
90312,-100,4,2,1,60,0,0
98646,-100,4,2,1,70,0,0
109312,-100,4,2,1,60,0,0
117312,-100,4,2,1,70,0,0
119979,-100,4,2,1,75,0,1
130646,-100,4,2,1,75,0,0
141312,-100,4,2,1,55,0,0
151646,-100,4,2,1,60,0,0
151979,-100,4,2,1,70,0,0
160312,-100,4,2,1,60,0,0
161312,-100,4,2,1,65,0,0
161979,-100,4,2,1,75,0,0
162646,-100,4,2,1,55,0,0
163979,-100,4,2,1,75,0,1
174646,-100,4,2,1,75,0,0
185312,-100,4,2,1,70,0,0
195979,-100,4,2,1,65,0,0
197312,-100,4,2,1,50,0,0

[Colours]
Combo1 : 255,255,151
Combo2 : 255,170,255

[HitObjects]
97,314,11979,6,0,L|237:267,1,110,6|8,1:2|0:0,0:0:0:0:
318,310,12646,2,0,L|340:239,1,55,0|0,1:2|1:2,0:0:0:0:
393,246,12979,1,8,0:0:0:0:
442,135,13312,1,0,1:2:0:0:
355,49,13646,1,8,0:0:0:0:
250,110,13979,2,0,L|188:119,2,55,0|0|8,1:2|1:2|0:0,0:0:0:0:
355,49,14646,6,0,P|422:62|463:121,1,110,0|8,1:2|0:0,0:0:0:0:
500,199,15312,2,0,P|482:264|436:298,1,110,0|8,1:2|0:0,0:0:0:0:
364,375,15979,1,0,1:2:0:0:
251,331,16312,1,8,0:0:0:0:
137,372,16646,2,0,P|115:315|116:304,1,55,0|0,1:2|1:2,0:0:0:0:
64,289,16979,1,12,0:0:0:0:
144,198,17312,6,0,B|251:173|241:215|319:191,1,165,4|0,1:2|0:0,0:0:0:0:
357,160,17979,2,0,L|367:95,1,55,0|0,1:2|1:2,0:0:0:0:
340,50,18312,1,8,0:0:0:0:
226,8,18646,2,0,L|101:41,1,110,0|8,1:2|0:0,0:0:0:0:
59,26,19146,1,8,0:0:0:0:
59,26,19312,2,0,P|7:60|22:127,1,110,0|8,1:2|0:0,0:0:0:0:
92,187,19979,6,0,P|161:220|164:291,1,110,6|8,1:2|0:0,0:0:0:0:
117,355,20646,2,0,L|45:337,2,55,0|0|8,1:2|1:2|0:0,0:0:0:0:
236,375,21312,2,0,L|360:335,1,110,6|8,1:2|0:0,0:0:0:0:
404,335,21812,1,0,1:2:0:0:
404,335,21979,2,0,L|440:397,2,55,8|0|8,0:0|1:2|0:3,0:0:0:0:
432,281,22479,5,4,0:3:0:0:
432,281,22646,2,0,P|441:207|478:34,1,220,6|2,1:2|1:2,0:0:0:0:
296,9,23812,1,2,0:0:0:0:
216,101,24146,1,2,0:0:0:0:
216,101,24312,2,0,P|187:62|174:35,1,55,2|0,1:2|0:0,0:0:0:0:
135,19,24646,1,2,1:2:0:0:
84,128,24979,1,2,1:2:0:0:
192,181,25312,6,0,P|263:161|336:174,2,110,2|2|2,1:2|1:2|1:2,0:0:0:0:
148,223,26146,1,2,0:0:0:0:
27,226,26479,1,2,0:0:0:0:
5,107,26812,1,2,0:0:0:0:
100,31,27146,1,2,0:0:0:0:
100,31,27312,2,0,L|241:66,1,110,2|2,1:2|1:2,0:0:0:0:
326,41,27979,6,0,P|266:77|253:209,1,165,2|2,1:2|0:0,0:0:0:0:
241,224,28646,1,2,1:2:0:0:
397,316,29146,2,0,P|414:245|435:178,1,110,2|2,0:0|0:0,0:0:0:0:
473,173,29646,1,2,1:2:0:0:
451,54,29979,2,0,B|351:66|393:97|296:150,1,165,2|2,1:2|0:0,0:0:0:0:
286,192,30646,1,2,1:2:0:0:
337,301,30979,1,2,1:2:0:0:
240,373,31312,2,0,P|184:339|133:322,1,110,2|0,1:2|1:2,0:0:0:0:
132,269,31812,5,2,0:0:0:0:
132,269,31979,2,0,P|148:194|165:138,1,110,2|2,1:2|1:2,0:0:0:0:
196,47,32646,2,0,P|251:27|260:26,2,55,2|2|10,1:2|0:0|0:0,0:0:0:0:
78,16,33312,6,0,P|28:47|24:120,1,110,6|8,1:2|0:0,0:0:0:0:
9,154,33812,1,0,0:0:0:0:
9,154,33979,2,0,L|39:282,1,110,2|8,1:2|0:0,0:0:0:0:
149,296,34646,2,0,P|121:326|79:351,2,82.5
199,262,35312,1,2,1:2:0:0:
313,301,35646,1,10,0:0:0:0:
411,230,35979,2,0,P|439:260|481:285,2,82.5
421,170,36646,2,0,P|400:138|381:127,1,55,2|0,1:2|0:0,0:0:0:0:
327,115,36979,2,0,P|301:99|282:70,1,55,10|0,0:0|0:0,0:0:0:0:
244,35,37312,5,2,1:2:0:0:
151,112,37646,1,10,0:0:0:0:
62,29,37979,2,0,P|37:64|31:90,1,55,2|6,1:2|1:2,0:0:0:0:
36,135,38312,1,10,0:0:0:0:
107,231,38646,5,6,1:2:0:0:
221,193,38979,1,10,0:0:0:0:
288,295,39312,2,0,P|339:245|361:194,1,110,2|10,1:2|0:0,0:0:0:0:
293,107,39979,2,0,P|331:39|362:21,1,110,2|10,1:2|0:0,0:0:0:0:
477,31,40646,1,2,1:2:0:0:
504,148,40979,1,10,0:0:0:0:
404,216,41312,6,0,P|343:173|212:140,1,165,6|2,1:2|0:0,0:0:0:0:
205,113,41979,1,2,1:2:0:0:
131,208,42312,2,0,L|155:270,1,55,10|6,0:0|1:2,0:0:0:0:
211,262,42646,2,0,P|299:268|346:301,1,110,2|12,0:0|0:0,0:0:0:0:
339,339,43146,1,10,0:0:0:0:
339,339,43312,1,2,1:2:0:0:
223,376,43646,2,0,L|165:358,1,55,8|8,0:0|0:0,0:0:0:0:
110,370,43979,5,4,1:2:0:0:
21,287,44312,2,0,L|28:227,1,55,8|0,0:0|0:0,0:0:0:0:
11,173,44646,2,0,L|126:103,1,110,2|10,0:0|0:0,0:0:0:0:
120,57,45146,1,2,0:0:0:0:
213,134,45479,1,2,1:2:0:0:
213,134,45646,2,0,L|196:202,1,55,10|10,0:0|0:0,0:0:0:0:
232,238,45979,2,0,P|293:237|358:283,1,110,2|10,1:2|0:0,0:0:0:0:
399,361,46646,6,0,P|456:320|481:261,1,110,2|8,1:2|0:0,0:0:0:0:
482,226,47146,1,0,0:0:0:0:
424,207,47312,2,0,L|354:262,2,82.5
439,148,47979,2,0,L|509:93,2,82.5
383,123,48646,1,2,1:2:0:0:
294,205,48979,2,0,P|290:264|295:279,1,55,10|8,0:0|0:3,0:0:0:0:
313,315,49312,5,6,1:2:0:0:
208,369,49646,1,8,0:0:0:0:
115,290,49979,2,0,P|89:257|45:235,2,82.5
167,320,50646,2,0,P|193:353|237:375,2,82.5
139,265,51312,1,2,1:2:0:0:
230,185,51646,1,14,0:0:0:0:
348,164,51979,6,0,P|364:83|412:39,1,110,6|8,1:2|0:0,0:0:0:0:
440,58,52479,1,0,1:2:0:0:
440,58,52646,2,0,P|474:87|477:121,1,55,10|0,0:0|1:2,0:0:0:0:
501,150,52979,2,0,P|485:196|473:204,1,55,8|0,0:0|1:2,0:0:0:0:
468,257,53312,1,14,0:0:0:0:
411,364,53646,2,0,L|336:343,1,55,12|0,0:0|1:2,0:0:0:0:
301,327,53979,2,0,L|292:269,2,55,8|8|8,0:0|0:3|0:0,0:0:0:0:
255,367,54479,1,8,0:3:0:0:
255,367,54646,1,0,1:2:0:0:
294,106,55979,6,0,P|226:59|122:77,1,165,4|8,1:2|0:0,0:0:0:0:
87,76,56646,2,0,L|61:26,2,55,0|8|0,1:2|0:0|1:2,0:0:0:0:
54,127,57146,1,8,0:0:0:0:
54,127,57312,2,0,L|101:243,1,110,0|0,1:2|1:2,0:0:0:0:
74,348,57979,1,0,1:2:0:0:
194,337,58312,1,0,1:2:0:0:
282,253,58646,6,0,P|348:229|452:249,1,165,4|8,1:2|0:0,0:0:0:0:
499,250,59312,1,0,1:2:0:0:
492,128,59646,2,0,P|457:91|433:85,1,55,0|8,1:2|0:0,0:0:0:0:
426,36,59979,2,0,P|359:48|287:42,1,110,4|0,1:2|1:2,0:0:0:0:
279,94,60479,1,8,0:0:0:0:
279,94,60646,2,0,L|311:154,1,55,4|8,1:2|0:0,0:0:0:0:
334,195,60979,1,0,1:2:0:0:
307,313,61312,6,0,P|235:337|160:318,1,110,4|0,1:2|1:2,0:0:0:0:
148,361,61812,1,8,0:0:0:0:
148,361,61979,2,0,P|69:300|67:272,1,110,0|0,1:2|1:2,0:0:0:0:
26,253,62479,1,8,0:0:0:0:
26,253,62646,1,0,1:2:0:0:
123,180,62979,1,0,1:2:0:0:
231,234,63312,2,0,P|260:177|249:108,1,110,0|0,1:2|1:2,0:0:0:0:
234,76,63812,5,8,0:0:0:0:
234,76,63979,2,0,P|171:51|61:53,1,165,4|8,1:2|0:0,0:0:0:0:
21,20,64646,1,0,1:2:0:0:
5,139,64979,1,0,1:2:0:0:
123,164,65312,2,0,P|165:218|172:279,1,110,4|0,1:2|0:0,0:0:0:0:
153,317,65812,1,8,0:2:0:0:
153,317,65979,2,0,L|99:335,2,55,0|0|8,1:2|1:2|0:0,0:0:0:0:
267,358,66646,5,6,1:2:0:0:
350,270,66979,1,10,0:0:0:0:
461,317,67312,2,0,P|462:368|451:400,2,55,2|0|10,1:2|1:2|0:0,0:0:0:0:
493,265,67812,1,0,0:0:0:0:
493,265,67979,2,0,P|474:188|430:133,1,110,2|8,1:2|0:0,0:0:0:0:
336,164,68646,2,0,P|324:124|328:100,1,55,2|0,1:2|1:2,0:0:0:0:
281,69,68979,2,0,P|312:34|336:29,1,55,10|0,0:0|0:0,0:0:0:0:
376,14,69312,6,0,P|464:29|496:70,1,110,2|8,1:2|0:0,0:0:0:0:
497,97,69812,1,2,0:0:0:0:
497,97,69979,1,2,1:2:0:0:
449,208,70312,1,10,0:0:0:0:
336,164,70646,2,0,P|279:185|247:244,1,110,2|8,1:2|0:0,0:0:0:0:
202,256,71146,1,2,0:0:0:0:
202,256,71312,2,0,L|214:313,1,55,2|0,1:2|0:0,0:0:0:0:
219,370,71646,1,12,0:0:0:0:
98,361,71979,6,0,P|67:292|69:216,1,110,6|0,1:2|0:0,0:0:0:0:
20,215,72479,1,2,0:0:0:0:
20,215,72646,2,0,P|44:148|70:118,1,110,2|0,1:2|0:0,0:0:0:0:
83,60,73146,1,2,0:0:0:0:
83,60,73312,1,2,1:2:0:0:
179,132,73646,1,8,0:0:0:0:
275,58,73979,2,0,P|294:101|306:124,1,55,2|0,1:2|1:2,0:0:0:0:
342,149,74312,2,0,L|323:209,1,55,10|0,0:0|0:0,0:0:0:0:
297,255,74646,6,0,L|232:255,2,55,4|2|10,1:2|1:2|0:0,0:0:0:0:
341,296,75146,1,2,1:2:0:0:
341,296,75312,1,10,0:0:0:0:
450,348,75646,1,14,0:0:0:0:
491,234,75979,2,0,L|475:182,1,55,6|0,1:2|0:0,0:0:0:0:
421,152,76312,2,0,L|365:142,1,55,10|0,0:0|0:0,0:0:0:0:
316,177,76646,1,10,0:2:0:0:
202,134,76979,1,10,0:0:0:0:
114,217,77312,6,0,P|127:294|148:324,1,110,6|10,1:2|0:0,0:0:0:0:
262,347,77979,2,0,L|321:331,1,55,2|0,1:2|1:2,0:0:0:0:
363,295,78312,1,10,0:0:0:0:
266,222,78646,2,0,P|241:167|243:107,1,110,2|8,1:2|0:0,0:0:0:0:
273,67,79146,1,8,0:0:0:0:
273,67,79312,2,0,L|334:47,2,55,0|0|8,1:2|1:2|0:0,0:0:0:0:
160,22,79979,2,0,P|69:27|28:62,1,110,2|10,1:2|0:0,0:0:0:0:
11,148,80646,1,2,1:2:0:0:
108,219,80979,6,0,P|105:298|84:338,1,110,10|0,0:0|1:2,0:0:0:0:
205,369,81646,1,10,0:0:0:0:
325,379,81979,2,0,P|382:354|440:335,1,110,2|14,1:2|0:0,0:0:0:0:
495,238,82646,2,0,P|453:178|434:73,1,165,6|0,1:2|0:0,0:0:0:0:
466,38,83312,2,0,P|477:22|522:12,2,55,0|0|8,1:2|1:2|0:0,0:0:0:0:
353,83,83979,1,0,1:2:0:0:
248,21,84312,1,8,0:0:0:0:
161,106,84646,5,10,0:0:0:0:
163,237,84979,1,0,0:0:0:0:
74,331,85312,2,0,P|24:229|25:171,1,165,6|0,1:2|0:0,0:0:0:0:
7,121,85979,2,0,P|28:88|47:80,1,55,0|0,1:2|1:2,0:0:0:0:
83,38,86312,1,8,0:0:0:0:
162,129,86646,2,0,P|225:116|276:98,1,110,6|8,1:2|0:0,0:0:0:0:
317,65,87146,1,0,1:2:0:0:
317,65,87312,2,0,L|287:-4,2,55,10|0|8,0:0|1:2|0:3,0:0:0:0:
370,93,87812,5,0,0:0:0:0:
370,93,87979,1,6,1:2:0:0:
102,338,89146,2,0,L|84:270,1,55,10|0,0:0|0:0,0:0:0:0:
55,240,89479,1,10,0:0:0:0:
55,240,89646,2,0,L|110:164,1,55
121,145,89979,1,0,0:0:0:0:
216,176,90312,1,0,0:0:0:0:
324,230,90646,6,0,P|291:298|265:328,2,110,6|2|2,1:2|1:2|1:2,0:0:0:0:
352,176,91480,1,2,0:0:0:0:
471,192,91813,1,2,0:0:0:0:
495,310,92146,1,2,0:0:0:0:
394,374,92480,1,2,0:0:0:0:
394,374,92646,2,0,L|253:339,1,110,2|2,1:2|1:2,0:0:0:0:
167,368,93313,6,0,P|166:298|240:200,1,165,2|2,1:2|0:0,0:0:0:0:
250,169,93980,1,2,1:2:0:0:
102,63,94480,2,0,P|72:125|64:201,1,110,2|2,0:0|0:0,0:0:0:0:
35,218,94980,1,2,1:2:0:0:
72,332,95313,2,0,B|164:254|149:315|227:236,1,165,2|2,1:2|0:0,0:0:0:0:
231,192,95980,1,2,1:2:0:0:
202,74,96312,2,0,P|224:37|247:19,1,55,2|2,1:2|0:0,0:0:0:0:
290,11,96646,2,0,P|346:45|397:62,1,110,2|0,1:2|1:2,0:0:0:0:
444,166,97312,5,2,1:2:0:0:
334,217,97646,1,2,1:2:0:0:
319,337,97980,2,0,P|264:357|255:358,2,55,2|10|8,1:2|0:0|0:0,0:0:0:0:
376,354,98479,5,8,0:2:0:0:
376,354,98646,2,0,P|441:346|480:277,1,110,6|8,1:2|0:0,0:0:0:0:
502,199,99312,2,0,L|471:126,1,55,2|0,1:2|1:2,0:0:0:0:
485,87,99646,1,8,0:0:0:0:
364,80,99979,2,0,P|343:108|281:132,2,82.5
313,45,100646,1,2,1:2:0:0:
193,27,100980,1,10,0:0:0:0:
91,91,101312,2,0,P|63:70|38:8,2,82.5
142,124,101980,2,0,P|150:161|144:182,1,55,2|0,1:2|0:0,0:0:0:0:
111,225,102313,2,0,P|104:254|111:288,1,55,10|0,0:0|0:0,0:0:0:0:
151,320,102646,5,2,1:2:0:0:
270,298,102980,1,10,0:0:0:0:
385,333,103313,2,0,P|410:298|416:272,1,55,2|6,1:2|1:2,0:0:0:0:
459,247,103646,1,10,0:0:0:0:
401,140,103980,5,6,1:2:0:0:
289,190,104313,1,10,0:0:0:0:
224,89,104646,2,0,P|173:139|151:190,1,110,2|10,1:2|0:0,0:0:0:0:
219,277,105313,2,0,P|181:345|150:363,1,110,2|10,1:2|0:0,0:0:0:0:
35,353,105980,1,2,1:2:0:0:
8,236,106313,1,10,0:0:0:0:
108,168,106646,6,0,P|169:211|300:244,1,165,6|2,1:2|0:0,0:0:0:0:
307,271,107313,1,2,1:2:0:0:
381,176,107646,2,0,L|357:114,1,55,10|6,0:0|1:2,0:0:0:0:
301,122,107980,2,0,P|213:116|166:83,1,110,2|12,0:0|0:0,0:0:0:0:
174,55,108480,1,10,0:0:0:0:
174,55,108646,1,2,1:2:0:0:
289,8,108980,2,0,L|347:26,1,55,8|8,0:0|0:0,0:0:0:0:
402,14,109313,5,4,1:2:0:0:
491,97,109646,2,0,L|484:157,1,55,8|0,0:0|0:0,0:0:0:0:
501,211,109980,2,0,L|386:281,1,110,2|10,0:0|0:0,0:0:0:0:
392,327,110480,1,2,0:0:0:0:
299,250,110813,1,2,1:2:0:0:
299,250,110980,2,0,L|316:182,1,55,10|10,0:0|0:0,0:0:0:0:
280,146,111313,2,0,P|219:147|154:101,1,110,2|10,1:2|0:0,0:0:0:0:
113,23,111980,6,0,P|56:64|31:123,1,110,2|8,1:2|0:0,0:0:0:0:
14,152,112480,1,0,0:0:0:0:
70,171,112646,2,0,P|106:149|146:106,2,82.5
80,230,113312,2,0,P|44:252|4:295,2,82.5
135,257,113980,1,2,1:2:0:0:
213,164,114313,2,0,P|217:105|212:90,1,55,10|8,0:0|0:3,0:0:0:0:
190,58,114646,5,6,1:2:0:0:
304,15,114980,1,8,0:0:0:0:
411,70,115312,2,0,P|457:46|487:5,2,82.5
371,115,115979,2,0,P|325:139|295:180,2,82.5
422,146,116646,1,2,1:2:0:0:
339,234,116980,1,14,0:0:0:0:
227,281,117313,6,0,P|155:322|90:314,1,110,6|8,1:2|0:0,0:0:0:0:
73,327,117813,1,0,1:2:0:0:
73,327,117980,2,0,P|39:298|36:264,1,55,10|0,0:0|1:2,0:0:0:0:
11,234,118313,2,0,P|27:188|39:180,1,55,8|0,0:0|1:2,0:0:0:0:
44,127,118646,1,14,0:0:0:0:
101,20,118980,2,0,L|176:41,1,55,8|4,0:0|1:2,0:0:0:0:
211,57,119313,2,0,L|230:119,1,55,8|8,0:0|0:0,0:0:0:0:
217,169,119646,1,4,1:2:0:0:
211,289,119979,6,0,P|279:336|383:318,1,165,4|8,1:2|0:0,0:0:0:0:
415,310,120646,2,0,L|441:360,2,55,0|8|0,1:2|0:0|1:2,0:0:0:0:
504,228,121312,2,0,L|457:112,1,110,0|0,1:2|1:2,0:0:0:0:
430,9,121979,1,0,1:2:0:0:
345,95,122312,1,0,1:2:0:0:
227,64,122646,6,0,P|153:42|57:68,1,165,4|8,1:2|0:0,0:0:0:0:
44,116,123312,1,0,1:2:0:0:
27,236,123646,2,0,P|62:273|86:279,1,55,0|8,1:2|0:0,0:0:0:0:
93,327,123979,2,0,P|160:315|232:321,1,110,4|0,1:2|1:2,0:0:0:0:
248,276,124479,1,8,0:0:0:0:
248,276,124646,2,0,L|261:215,1,55,4|8,1:2|0:0,0:0:0:0:
210,187,124979,1,0,1:2:0:0:
200,67,125312,6,0,P|272:43|347:62,1,110,4|0,1:2|1:2,0:0:0:0:
364,23,125812,1,8,0:0:0:0:
364,23,125979,2,0,P|443:84|445:112,1,110,0|0,1:2|1:2,0:0:0:0:
486,131,126479,1,8,0:0:0:0:
486,131,126646,1,0,1:2:0:0:
389,204,126979,1,0,1:2:0:0:
281,150,127312,2,0,P|252:207|263:276,1,110,0|0,1:2|1:2,0:0:0:0:
278,308,127812,5,8,0:0:0:0:
278,308,127979,2,0,P|341:333|451:331,1,165,4|8,1:2|0:0,0:0:0:0:
491,364,128646,1,0,1:2:0:0:
507,245,128979,1,0,1:2:0:0:
389,220,129312,2,0,P|347:166|340:105,1,110,4|0,1:2|0:0,0:0:0:0:
359,67,129812,1,8,0:2:0:0:
359,67,129979,2,0,L|413:49,2,55,0|0|8,1:2|1:2|0:0,0:0:0:0:
245,26,130646,5,6,1:2:0:0:
162,114,130979,1,10,0:0:0:0:
51,67,131312,2,0,P|50:16|61:-16,2,55,2|0|10,1:2|1:2|0:0,0:0:0:0:
19,119,131812,1,0,0:0:0:0:
19,119,131979,2,0,P|38:196|82:251,1,110,2|8,1:2|0:0,0:0:0:0:
176,220,132646,2,0,P|188:260|184:284,1,55,2|0,1:2|1:2,0:0:0:0:
231,315,132979,2,0,P|200:350|176:355,1,55,10|0,0:0|0:0,0:0:0:0:
136,370,133312,6,0,P|48:355|16:314,1,110,2|8,1:2|0:0,0:0:0:0:
15,287,133812,1,2,0:0:0:0:
15,287,133979,1,2,1:2:0:0:
63,176,134312,1,10,0:0:0:0:
176,220,134646,2,0,P|233:199|265:140,1,110,2|8,1:2|0:0,0:0:0:0:
313,128,135146,1,2,0:0:0:0:
313,128,135312,2,0,L|301:71,1,55,2|0,1:2|0:0,0:0:0:0:
293,14,135646,1,12,0:0:0:0:
414,23,135979,6,0,P|445:92|443:168,1,110,6|0,1:2|0:0,0:0:0:0:
492,169,136479,1,2,0:0:0:0:
492,169,136646,2,0,P|468:236|442:266,1,110,2|0,1:2|0:0,0:0:0:0:
429,324,137146,1,2,0:0:0:0:
429,324,137312,1,2,1:2:0:0:
333,252,137646,1,8,0:0:0:0:
237,326,137979,2,0,P|215:294|206:260,1,55,2|0,1:2|1:2,0:0:0:0:
170,235,138312,2,0,P|171:200|189:175,1,55,10|0,0:0|0:0,0:0:0:0:
219,136,138646,6,0,L|288:119,2,55,4|2|10,1:2|1:2|0:0,0:0:0:0:
179,97,139146,1,2,1:2:0:0:
179,97,139312,1,10,0:0:0:0:
69,45,139646,1,14,0:0:0:0:
21,150,139979,2,0,P|24:178|37:202,1,55,6|0,1:2|0:0,0:0:0:0:
75,247,140312,2,0,P|98:259|131:257,1,55,10|0,0:0|0:0,0:0:0:0:
175,222,140646,1,10,0:2:0:0:
292,251,140979,1,10,0:0:0:0:
384,172,141312,5,6,1:2:0:0:
256,192,141646,12,0,143979,0:0:0:0:
402,14,151979,5,4,1:2:0:0:
491,97,152312,2,0,P|492:129|484:157,1,55,8|2,0:0|0:0,0:0:0:0:
496,211,152646,2,0,P|445:260|381:281,1,110,2|10,0:0|0:0,0:0:0:0:
386,331,153146,1,2,0:0:0:0:
300,253,153479,1,2,1:2:0:0:
300,253,153646,2,0,L|317:185,1,55,10|10,0:0|0:0,0:0:0:0:
304,139,153979,2,0,P|268:83|205:60,1,110,2|10,1:2|0:0,0:0:0:0:
114,30,154646,5,2,1:2:0:0:
1,73,154979,1,8,0:0:0:0:
93,150,155312,2,0,P|136:144|186:120,2,82.5
79,209,155979,2,0,P|36:215|-14:239,2,82.5
122,252,156646,1,2,1:2:0:0:
211,170,156979,2,0,P|207:111|212:96,1,55,10|8,0:0|0:3,0:0:0:0:
190,58,157312,5,6,1:2:0:0:
304,15,157646,1,8,0:0:0:0:
423,41,157979,2,0,P|457:124|461:184,1,110,2|10,1:2|0:0,0:0:0:0:
501,257,158646,2,0,P|445:312|381:331,1,110,2|10,1:2|0:0,0:0:0:0:
299,294,159312,1,2,1:2:0:0:
276,174,159646,1,14,0:0:0:0:
164,220,159979,6,0,P|148:301|100:345,1,110,6|8,1:2|1:2,0:0:0:0:
72,330,160479,1,8,0:0:0:0:
72,330,160646,2,0,L|6:308,2,55,8|8|8,1:2|0:0|1:2,0:0:0:0:
184,373,161312,2,0,P|253:350|305:339,1,110,8|8,1:2|1:2,0:0:0:0:
342,312,161812,1,8,0:0:0:0:
342,312,161979,2,0,L|330:248,2,55,8|8|8,1:2|0:0|1:2,0:0:0:0:
390,347,162479,5,8,0:0:0:0:
390,347,162646,1,2,0:2:0:0:
479,189,163146,1,2,0:0:0:0:
479,189,163312,2,0,L|458:117,1,55,2|0,0:0|0:0,0:0:0:0:
434,82,163646,1,2,0:0:0:0:
334,13,163979,6,0,P|262:68|259:117,1,110,4|0,1:2|1:2,0:0:0:0:
240,140,164479,1,8,0:0:0:0:
240,140,164646,2,0,L|265:197,2,55,0|8|0,1:2|0:0|1:2,0:0:0:0:
145,65,165312,1,0,1:2:0:0:
40,127,165646,1,0,1:2:0:0:
63,245,165979,2,0,P|140:254|180:284,1,110,0|0,1:2|1:2,0:0:0:0:
217,303,166479,5,8,0:0:0:0:
217,303,166646,2,0,P|278:282|311:229,1,110,4|0,1:2|1:2,0:0:0:0:
321,127,167312,1,0,1:2:0:0:
441,138,167646,2,0,P|454:189|452:207,1,55,0|8,1:2|0:0,0:0:0:0:
498,231,167979,2,0,P|467:292|411:320,1,110,4|0,1:2|1:2,0:0:0:0:
375,294,168479,1,8,0:0:0:0:
375,294,168646,2,0,L|353:239,2,55,4|8|0,1:2|0:0|1:2,0:0:0:0:
275,363,169312,5,4,1:2:0:0:
193,273,169646,1,0,1:2:0:0:
260,172,169979,2,0,P|259:108|226:49,1,110,0|0,1:2|1:2,0:0:0:0:
124,30,170646,1,0,1:2:0:0:
22,95,170979,1,0,1:2:0:0:
26,215,171312,2,0,P|106:238|132:264,1,110,0|0,1:2|1:2,0:0:0:0:
182,238,171812,1,8,0:0:0:0:
182,238,171979,2,0,L|206:109,1,110,4|0,1:2|1:2,0:0:0:0:
303,63,172646,1,0,1:2:0:0:
416,105,172979,2,0,L|404:178,1,55,0|8,1:2|0:0,0:0:0:0:
440,209,173312,6,0,L|417:326,1,110,4|0,1:2|0:0,0:0:0:0:
455,372,173812,1,8,0:2:0:0:
455,372,173979,2,0,L|531:390,2,55,0|0|8,1:2|1:2|0:0,0:0:0:0:
335,349,174646,5,6,1:2:0:0:
247,265,174979,1,10,0:0:0:0:
277,148,175312,2,0,P|332:164|356:203,1,55,2|0,1:2|1:2,0:0:0:0:
369,207,175646,2,0,P|422:206|435:197,1,55,10|0,0:0|0:0,0:0:0:0:
480,190,175979,2,0,L|494:62,1,110,2|8,1:2|0:0,0:0:0:0:
385,22,176646,1,2,1:2:0:0:
278,79,176979,1,10,0:0:0:0:
169,25,177312,6,0,P|103:36|91:98,1,110,2|8,1:2|0:0,0:0:0:0:
48,117,177812,1,2,0:0:0:0:
48,117,177979,2,0,L|72:187,1,55,2|0,1:2|1:2,0:0:0:0:
85,226,178312,1,10,0:0:0:0:
188,163,178646,2,0,P|260:177|283:230,1,110,2|8,1:2|0:0,0:0:0:0:
333,228,179146,1,2,0:0:0:0:
333,228,179312,2,0,L|391:210,2,55,2|0|12,1:2|0:0|0:0,0:0:0:0:
227,287,179979,6,0,P|183:312|154:358,2,82.5
245,229,180646,2,0,P|287:203|316:157,2,82.5
191,203,181312,1,2,1:2:0:0:
133,96,181646,1,8,0:0:0:0:
250,66,181979,2,0,P|297:85|312:116,1,55,2|0,1:2|0:0,0:0:0:0:
341,131,182312,2,0,P|384:135|409:125,1,55,10|0,0:0|0:0,0:0:0:0:
441,92,182646,5,4,1:2:0:0:
501,196,182979,1,10,0:0:0:0:
420,286,183312,1,10,0:0:0:0:
313,228,183646,1,14,0:0:0:0:
315,107,183979,2,0,P|259:87|201:92,1,110,6|10,1:2|0:0,0:0:0:0:
152,67,184479,1,0,0:0:0:0:
152,67,184646,2,0,P|124:111|121:129,1,55,10|8,0:2|0:0,0:0:0:0:
78,153,184979,1,10,0:0:0:0:
169,231,185312,6,0,P|230:204|278:196,1,110,6|10,1:2|0:0,0:0:0:0:
378,137,185979,2,0,P|399:181|400:199,1,55,2|0,1:2|1:2,0:0:0:0:
425,241,186312,1,10,0:0:0:0:
366,347,186646,2,0,L|239:313,1,110,2|8,1:2|0:0,0:0:0:0:
200,332,187146,1,8,0:0:0:0:
200,332,187312,2,0,P|171:266|191:196,1,110,0|8,1:2|0:0,0:0:0:0:
283,177,187979,1,2,1:2:0:0:
206,83,188312,1,10,0:0:0:0:
87,107,188646,2,0,P|53:177|45:228,1,110,2|10,1:2|0:0,0:0:0:0:
136,289,189312,6,0,L|302:247,1,165,0|8,1:2|0:0,0:0:0:0:
356,250,189979,1,2,1:2:0:0:
274,160,190312,1,14,0:0:0:0:
370,85,190646,2,0,P|433:129|463:197,1,110,6|8,1:2|0:0,0:0:0:0:
499,191,191146,1,0,0:0:0:0:
499,191,191312,2,0,L|487:253,2,55,0|0|8,1:2|1:2|0:0,0:0:0:0:
501,69,191979,1,0,1:2:0:0:
397,7,192312,1,8,0:0:0:0:
277,27,192646,2,0,P|233:88|222:130,1,110,10|8,0:0|0:3,0:0:0:0:
127,46,193312,5,6,1:2:0:0:
40,130,193646,2,0,P|42:172|48:191,1,55,8|0,0:0|0:0,0:0:0:0:
10,233,193979,2,0,P|27:256|55:272,1,55,0|0,1:2|1:2,0:0:0:0:
91,313,194312,1,8,0:0:0:0:
184,235,194646,2,0,P|230:211|296:231,1,110,6|8,1:2|0:0,0:0:0:0:
334,256,195146,1,0,1:2:0:0:
334,256,195312,2,0,L|327:312,2,55,10|0|8,0:0|1:2|0:3,0:0:0:0:
428,180,195979,5,6,1:2:0:0:
256,192,196146,12,2,197312,0:0:0:0:
