osu file format v14

[General]
AudioFilename: audio.mp3
AudioLeadIn: 0
PreviewTime: 55979
Countdown: 0
SampleSet: Soft
StackLeniency: 0.7
Mode: 0
LetterboxInBreaks: 0
WidescreenStoryboard: 1

[Editor]
DistanceSpacing: 1.2
BeatDivisor: 4
GridSize: 32
TimelineZoom: 1.9

[Metadata]
Title:For 4 Forever
TitleUnicode:For 4 Forever
Artist:Tanaka Chiemi, Murakami Natsumi, Sakura Ayane, Han Megumi
ArtistUnicode:田中ちえ美、村上奈津実、佐倉綾音、潘めぐみ
Creator:Lancien
Version:Jeby's Hard
Source:4人はそれぞれウソをつく
Tags:4-nin wa Sorezore Uso wo Tsuku The Little Lies We All Tell ed ending Teje Hayato Yamamoto リッカ Rikka 千代 Chiyo 関根 Sekine 翼 Tsubasa anime japanese jeby pop jpop
BeatmapID:3896823
BeatmapSetID:1887753

[Difficulty]
HPDrainRate:4
CircleSize:3.8
OverallDifficulty:6
ApproachRate:8
SliderMultiplier:1.41
SliderTickRate:1

[Events]
//Background and Video events
0,0,"bg.png",0,0
//Break Periods
2,144179,151229
//Storyboard Layer 0 (Background)
//Storyboard Layer 1 (Fail)
//Storyboard Layer 2 (Pass)
//Storyboard Layer 3 (Foreground)
//Storyboard Layer 4 (Overlay)
//Storyboard Sound Samples

[TimingPoints]
1313,333.333333333333,4,2,1,55,1,0
1313,-125,4,2,1,55,0,0
9312,-90.9090909090909,4,2,1,70,0,0
11979,-100,4,2,1,70,0,0
22646,-111.111111111111,4,2,1,60,0,0
33312,-100,4,2,1,70,0,0
41312,-90.9090909090909,4,2,1,70,0,0
43979,-100,4,2,1,60,0,0
51979,-90.9090909090909,4,2,1,60,0,0
55146,-90.9090909090909,4,2,1,50,0,0
55979,-80,4,2,1,75,0,1
66646,-86.9565217391304,4,2,1,75,0,0
77312,-100,4,2,1,70,0,0
87979,-111.111111111111,4,2,1,60,0,0
89146,-111.111111111111,4,2,1,70,0,0
90312,-111.111111111111,4,2,1,60,0,0
98646,-100,4,2,1,70,0,0
106646,-90.9090909090909,4,2,1,70,0,0
109312,-100,4,2,1,60,0,0
117312,-90.9090909090909,4,2,1,70,0,0
119979,-80,4,2,1,75,0,1
130646,-86.9565217391304,4,2,1,75,0,0
141312,-111.111111111111,4,2,1,55,0,0
151646,-111.111111111111,4,2,1,60,0,0
151979,-100,4,2,1,70,0,0
159979,-86.9565217391304,4,2,1,70,0,0
160312,-86.9565217391304,4,2,1,60,0,0
161312,-86.9565217391304,4,2,1,65,0,0
161979,-86.9565217391304,4,2,1,75,0,0
162646,-86.9565217391304,4,2,1,55,0,0
163979,-80,4,2,1,75,0,1
174646,-86.9565217391304,4,2,1,75,0,0
185312,-100,4,2,1,70,0,0
195979,-100,4,2,1,65,0,0
197312,-100,4,2,1,50,0,0

[Colours]
Combo1 : 255,255,151
Combo2 : 255,170,255

[HitObjects]
61,176,1313,6,0,L|173:166,1,112.8,2|0,0:0|0:0,0:0:0:0:
255,173,1812,1,2,0:0:0:0:
255,173,1979,2,0,P|241:228|265:285,1,112.8,2|0,0:0|0:0,0:0:0:0:
313,337,2479,2,0,P|368:323|425:347,1,112.8,2|2,0:0|0:0,0:0:0:0:
480,292,2979,2,0,B|484:254|472:229|472:229|479:179,1,112.8,2|2,0:0|0:0,0:0:0:0:
353,102,3646,1,0,0:0:0:0:
353,102,3812,1,0,0:0:0:0:
353,102,3979,6,0,P|285:112|241:112,2,112.8,2|0|2,0:0|0:0|0:0,0:0:0:0:
448,228,4979,1,0,0:0:0:0:
360,359,5312,2,0,P|428:349|472:349,2,112.8,2|0|2,0:0|0:0|0:0,0:0:0:0:
271,227,6312,1,0,0:0:0:0:
209,81,6646,6,0,P|152:68|96:89,1,112.8,2|0,0:0|0:0,0:0:0:0:
55,151,7146,1,2,0:0:0:0:
55,151,7312,2,0,L|65:263,1,112.8,2|0,0:0|0:0,0:0:0:0:
20,329,7812,2,0,P|80:307|132:319,1,112.8,2|0,0:0|0:0,0:0:0:0:
191,361,8312,2,0,B|204:320|204:320|195:290|199:248,1,112.8,2|2,0:0|0:0,0:0:0:0:
259,107,8979,1,0,0:0:0:0:
259,107,9146,1,0,0:0:0:0:
259,107,9312,6,0,B|307:127|307:127|374:117,1,116.325003549957,6|0,1:2|0:0,0:0:0:0:
401,118,9646,2,0,L|406:195,1,77.5500023666383,8|8,0:0|0:0,0:0:0:0:
491,235,9979,2,0,L|485:312,1,77.5500023666383,8|8,0:0|0:0,0:0:0:0:
404,351,10312,1,8,0:0:0:0:
404,351,10396,1,0,1:0:0:0:
404,351,10479,1,8,0:0:0:0:
344,279,10646,6,0,L|266:273,1,77.5500023666383,8|8,0:0|0:0,0:0:0:0:
219,353,10979,2,0,L|141:358,1,77.5500023666383,8|8,0:0|0:0,0:0:0:0:
78,290,11312,1,8,0:2:0:0:
8,352,11479,1,4,1:2:0:0:
17,98,11979,6,0,P|87:76|157:85,1,141,6|8,1:2|0:0,0:0:0:0:
223,143,12479,1,0,0:0:0:0:
306,180,12646,2,0,L|318:39,1,141,0|8,1:2|0:0,0:0:0:0:
488,107,13312,6,0,L|481:177,1,70.5,0|0,1:2|0:0,0:0:0:0:
454,265,13646,2,0,B|403:249|403:249|351:258,1,105.75,8|8,0:0|0:0,0:0:0:0:
321,269,13979,2,0,P|325:236|314:198,1,70.5,0|0,1:2|1:2,0:0:0:0:
281,115,14312,1,8,0:0:0:0:
187,273,14646,6,0,P|123:300|46:285,1,141,0|8,1:2|0:0,0:0:0:0:
14,206,15146,1,0,0:0:0:0:
97,168,15312,2,0,L|110:28,1,141,0|8,1:2|0:0,0:0:0:0:
292,49,15979,5,0,1:2:0:0:
428,170,16312,2,0,P|434:223|418:273,1,105.75,8|8,0:0|0:0,0:0:0:0:
415,304,16646,2,0,L|486:312,2,70.5,0|0|12,1:2|1:2|0:0,0:0:0:0:
276,184,17312,5,4,1:2:0:0:
276,184,17646,2,0,P|239:181|206:190,1,70.5,8|0,0:0|0:0,0:0:0:0:
121,216,17979,1,0,1:2:0:0:
121,216,18146,1,0,1:2:0:0:
51,154,18312,2,0,P|54:120|45:86,1,70.5,8|0,0:0|0:0,0:0:0:0:
7,237,18646,5,0,1:2:0:0:
7,237,18812,1,0,0:0:0:0:
49,318,18979,2,0,P|83:321|117:312,1,70.5,8|8,0:0|0:0,0:0:0:0:
202,269,19312,1,0,1:2:0:0:
202,269,19396,1,0,1:0:0:0:
202,269,19479,1,0,1:2:0:0:
275,323,19646,2,0,L|270:375,2,35.25,8|0|0,0:0|1:0|1:0,1:0:0:0:
358,269,19979,6,8,P|378:209|358:128,1,141,6|8,1:2|0:0,0:0:0:0:
347,43,20479,1,0,0:0:0:0:
256,59,20646,2,0,B|214:87|183:70|191:62|158:47|115:72,1,141,0|8,1:2|0:0,0:0:0:0:
26,224,21312,6,0,B|5:275|5:275|15:336,1,105.75,6|0,1:2|0:0,0:0:0:0:
24,355,21646,2,0,P|58:359|91:349,1,70.5,8|0,0:0|1:2,0:0:0:0:
159,286,21979,1,8,0:0:0:0:
159,286,22146,1,0,1:2:0:0:
232,348,22312,1,8,0:3:0:0:
232,348,22479,1,4,0:3:0:0:
299,280,22646,6,0,P|285:220|299:153,1,126.899996127319,6|0,1:2|1:2,0:0:0:0:
453,72,23312,2,0,P|467:132|453:199,1,126.899996127319,2|0,1:2|1:2,0:0:0:0:
452,287,23812,1,2,0:0:0:0:
452,287,23979,2,0,L|388:292,1,63.4499980636597,0|2,1:2|0:0,0:0:0:0:
322,233,24312,1,2,1:2:0:0:
192,354,24646,1,2,1:2:0:0:
43,275,24979,5,2,1:2:0:0:
43,275,25146,1,2,0:0:0:0:
43,275,25312,2,0,P|44:238|48:211,1,63.4499980636597,2|2,1:2|0:0,0:0:0:0:
135,189,25646,2,0,P|133:152|129:125,1,63.4499980636597,2|2,1:2|0:0,0:0:0:0:
70,66,25979,1,2,1:2:0:0:
70,66,26146,1,2,0:0:0:0:
250,56,26479,5,2,0:0:0:0:
250,56,26646,2,0,L|313:61,2,63.4499980636597,0|2|0,0:0|0:0|1:2,0:0:0:0:
180,110,27146,1,2,0:0:0:0:
180,110,27312,2,0,P|196:165|180:236,1,126.899996127319,2|2,1:2|1:2,0:0:0:0:
201,318,27812,1,2,0:3:0:0:
285,274,27979,6,0,P|348:275|411:284,1,126.899996127319,2|0,1:2|1:2,0:0:0:0:
473,117,28646,2,0,P|410:107|346:106,1,126.899996127319,2|0,1:2|1:2,0:0:0:0:
264,131,29146,1,2,0:0:0:0:
264,131,29312,2,0,L|257:67,1,63.4499980636597,0|2,1:2|0:0,0:0:0:0:
277,219,29646,2,0,B|238:210|210:225|210:225|178:210|136:220,1,126.899996127319,2|2,1:2|1:2,0:0:0:0:
12,127,30312,5,0,1:2:0:0:
12,127,30479,1,2,0:0:0:0:
12,127,30646,2,2,P|10:95|6:63,1,63.4499980636597,0|0,1:2|0:0,0:0:0:0:
80,183,30979,2,0,P|82:220|86:247,1,63.4499980636597,2|2,1:2|0:0,0:0:0:0:
76,334,31312,2,0,L|170:325,1,95.1749970954896,2|0,1:2|0:0,0:0:0:0:
203,323,31646,5,0,1:2:0:0:
251,250,31812,1,2,0:0:0:0:
251,250,31979,2,0,P|229:190|235:128,1,126.899996127319,2|2,1:2|1:2,0:0:0:0:
392,43,32646,2,0,P|402:72|399:103,1,63.4499980636597,2|2,1:2|0:0,0:0:0:0:
389,192,32979,1,10,0:0:0:0:
262,336,33312,6,0,B|221:315|221:315|122:323,1,141,6|8,1:2|0:0,0:0:0:0:
38,347,33812,1,0,0:0:0:0:
62,258,33979,2,0,B|83:216|83:216|74:117,1,141,2|8,1:2|0:0,0:0:0:0:
245,55,34646,2,0,P|303:49|350:64,2,105.75,2|2|2,1:2|0:0|0:0,0:0:0:0:
160,91,35312,2,0,L|172:231,1,141,2|10,1:2|0:0,0:0:0:0:
324,334,35979,6,0,P|382:339|429:324,2,105.75,2|2|2,1:2|0:0|0:0,0:0:0:0:
263,263,36646,2,0,L|250:122,1,141,2|10,1:2|0:0,0:0:0:0:
87,40,37312,2,0,B|65:77|65:77|77:145,1,105.75,2|0,1:2|0:0,0:0:0:0:
83,170,37646,2,0,L|153:176,1,70.5,10|8,0:0|0:0,0:0:0:0:
239,137,37979,1,2,0:2:0:0:
239,137,38146,1,6,1:2:0:0:
239,137,38312,1,10,0:0:0:0:
404,56,38646,5,6,1:2:0:0:
451,232,38979,2,0,P|474:295|451:373,2,141,10|2|10,0:0|1:2|0:0,0:0:0:0:
404,56,39979,2,0,L|263:43,1,141,2|10,1:2|0:0,0:0:0:0:
175,51,40479,1,0,0:0:0:0:
175,51,40646,2,0,L|187:191,1,141,2|10,1:2|0:0,0:0:0:0:
117,250,41146,1,0,0:0:0:0:
181,327,41312,6,0,P|238:319|293:335,1,116.325003549957,6|0,1:2|0:0,0:0:0:0:
327,344,41646,2,0,P|322:305|332:268,1,77.5500023666383,8|2,0:0|0:0,0:0:0:0:
330,167,41979,2,0,L|407:173,1,77.5500023666383,2|0,1:2|0:0,0:0:0:0:
504,137,42312,1,10,0:0:0:0:
504,137,42479,1,6,1:2:0:0:
495,245,42646,6,0,P|502:286|501:322,1,77.5500023666383,2|0,0:0|0:0,0:0:0:0:
408,323,42979,1,12,0:0:0:0:
408,323,43062,1,0,1:0:0:0:
408,323,43146,1,10,0:0:0:0:
310,298,43312,2,0,P|302:336|304:374,1,77.5500023666383,2|0,1:2|1:2,0:0:0:0:
320,204,43646,2,0,P|320:185|316:159,3,38.7750011833191,8|8|8|8,0:0|0:0|0:0|0:0,0:0:0:0:
311,130,43979,6,0,L|240:123,1,70.5,4|0,1:2|1:2,0:0:0:0:
153,114,44312,1,8,0:0:0:0:
153,114,44479,2,0,P|132:188|140:254,1,141,0|0,0:0|1:2,0:0:0:0:
107,339,44979,1,10,0:0:0:0:
107,339,45146,2,0,B|144:360|177:345|169:337|200:320|242:348,1,141,2|2,0:0|1:2,0:0:0:0:
241,255,45646,2,0,P|249:219|248:184,1,70.5,10|10,0:0|0:0,0:0:0:0:
258,94,45979,2,0,B|311:106|311:106|347:79|398:81,2,141,2|10|2,1:2|0:0|1:2,0:0:0:0:
75,39,46979,5,8,0:0:0:0:
75,39,47146,1,0,0:0:0:0:
75,39,47312,2,0,L|65:144,1,105.75,2|2,0:0|0:0,0:0:0:0:
60,179,47646,2,0,P|95:176|130:185,1,70.5,8|2,0:0|0:0,0:0:0:0:
220,180,47979,2,0,P|215:232|229:285,1,105.75,2|2,0:0|0:0,0:0:0:0:
231,318,48312,2,0,L|304:324,1,70.5,8|10,0:0|0:0,0:0:0:0:
388,293,48646,2,0,B|404:214|404:214|389:156,2,141,2|10|6,1:2|0:0|1:2,0:0:0:0:
215,336,49646,5,8,0:0:0:0:
215,336,49812,1,8,0:0:0:0:
215,336,49979,2,0,B|160:317|160:317|94:324,1,105.75,2|2,0:0|0:0,0:0:0:0:
78,330,50312,2,0,L|71:259,1,70.5,8|2,0:0|0:0,0:0:0:0:
58,168,50646,2,0,B|112:149|112:149|178:156,1,105.75,2|2,0:0|0:0,0:0:0:0:
195,162,50979,2,8,L|202:91,1,70.5,8|10,0:0|0:0,0:0:0:0:
277,40,51312,2,0,P|347:26|417:39,1,141,2|14,1:2|0:0,0:0:0:0:
467,112,51812,1,0,0:0:0:0:
367,124,51979,6,0,B|360:193|360:193|377:239,1,116.325003549957,6|0,1:2|0:0,0:0:0:0:
378,272,52312,2,0,L|300:278,1,77.5500023666383,8|0,0:0|1:2,0:0:0:0:
212,239,52646,1,10,0:0:0:0:
212,239,52812,1,0,1:2:0:0:
188,340,52979,1,8,0:0:0:0:
188,340,53146,1,0,1:2:0:0:
95,283,53312,6,0,P|87:322|89:360,1,77.5500023666383,14|0,0:0|1:2,0:0:0:0:
19,228,53646,2,0,P|26:187|25:150,1,77.5500023666383,12|0,0:0|1:2,0:0:0:0:
46,58,53979,1,8,0:0:0:0:
46,58,54062,1,8,0:0:0:0:
46,58,54146,1,8,0:3:0:0:
145,47,54312,2,0,L|184:43,3,38.7750011833191,8|8|8|0,0:0|0:0|0:3|0:0,0:0:0:0:
222,39,54646,1,0,1:2:0:0:
222,39,55979,6,0,L|229:126,1,88.125,4|8,1:2|0:0,0:0:0:0:
231,166,56229,1,8,0:0:0:0:
231,166,56312,2,0,P|276:155|318:158,1,88.125,0|8,1:2|0:0,0:0:0:0:
421,181,56646,2,0,L|413:268,1,88.125,0|8,1:2|0:0,0:0:0:0:
411,307,56896,1,8,0:0:0:0:
411,307,56979,2,0,P|365:296|323:299,1,88.125,0|8,1:2|0:0,0:0:0:0:
239,359,57312,6,0,L|152:351,1,88.125,0|8,1:2|0:0,0:0:0:0:
127,332,57562,1,8,0:0:0:0:
127,332,57646,2,0,L|40:340,1,88.125,0|8,1:2|0:0,0:0:0:0:
24,235,57979,2,0,L|111:227,1,88.125,0|8,1:2|0:0,0:0:0:0:
136,208,58229,1,8,0:0:0:0:
136,208,58313,2,0,L|223:216,1,88.125,0|8,1:2|0:0,0:0:0:0:
311,305,58646,5,4,1:2:0:0:
311,305,58729,1,0,1:0:0:0:
311,305,58812,1,8,0:0:0:0:
378,223,58979,2,0,L|421:226,2,44.0625,0|0|8,1:2|0:0|0:0,0:0:0:0:
321,145,59312,1,0,1:2:0:0:
321,145,59395,1,0,1:2:0:0:
321,145,59478,1,8,0:0:0:0:
250,65,59646,2,0,L|253:21,2,44.0625,0|0|8,1:2|0:0|0:0,0:0:0:0:
147,106,59979,6,0,P|98:99|59:113,1,88.125,4|8,1:2|0:0,0:0:0:0:
33,129,60229,1,8,0:0:0:0:
33,129,60312,1,0,1:2:0:0:
6,231,60479,1,8,0:0:0:0:
110,243,60646,2,0,P|116:291|102:330,1,88.125,4|8,1:2|0:0,0:0:0:0:
213,362,60979,1,0,1:2:0:0:
213,362,61062,1,0,1:2:0:0:
213,362,61146,1,8,0:0:0:0:
317,316,61312,6,0,P|362:305|404:308,1,88.125,4|8,1:2|0:0,0:0:0:0:
442,315,61562,1,8,0:0:0:0:
442,315,61646,2,0,L|450:228,1,88.125,0|8,1:2|0:0,0:0:0:0:
456,121,61979,2,0,P|412:123|369:112,1,88.125,0|8,1:2|0:0,0:0:0:0:
337,112,62229,1,8,0:0:0:0:
337,112,62313,2,0,L|329:199,1,88.125,0|8,1:2|0:0,0:0:0:0:
298,301,62646,6,0,P|250:295|211:309,1,88.125,0|8,1:2|0:0,0:0:0:0:
190,335,62896,1,8,0:0:0:0:
190,335,62979,2,0,P|142:341|103:327,1,88.125,0|8,1:2|0:0,0:0:0:0:
44,241,63312,2,0,P|50:193|36:154,1,88.125,0|8,1:2|0:0,0:0:0:0:
24,128,63562,1,8,0:0:0:0:
24,128,63645,2,0,P|18:80|32:41,1,88.125,0|8,1:2|0:0,0:0:0:0:
152,36,63979,5,4,1:2:0:0:
152,36,64062,1,0,1:0:0:0:
152,36,64145,1,8,0:0:0:0:
228,108,64312,2,0,L|271:105,2,44.0625,0|0|8,1:2|0:0|0:0,0:0:0:0:
156,187,64646,1,0,1:2:0:0:
156,187,64729,1,0,1:0:0:0:
156,187,64812,1,8,0:0:0:0:
81,262,64979,2,0,L|38:259,2,44.0625,0|0|8,1:2|0:0|0:0,0:0:0:0:
168,335,65312,6,0,B|209:327|209:327|252:342,1,88.125,4|0,1:2|0:0,0:0:0:0:
287,355,65562,1,8,0:0:0:0:
287,355,65645,1,8,0:0:0:0:
365,283,65812,1,8,0:2:0:0:
275,227,65979,2,0,L|267:139,1,88.125,0|0,1:2|1:2,0:0:0:0:
311,42,66312,2,0,L|354:38,3,44.0625,8|8|8|8,0:0|0:0|0:0|0:0,0:0:0:0:
387,30,66646,6,0,P|401:70|394:110,1,81.0750015463829,6|0,1:2|0:0,0:0:0:0:
421,201,66979,2,0,P|459:186|499:193,1,81.0750015463829,10|0,0:0|0:0,0:0:0:0:
349,266,67312,2,0,P|308:280|268:273,1,81.0750015463829,2|0,1:2|1:2,0:0:0:0:
182,236,67645,2,0,P|196:195|189:155,1,81.0750015463829,10|0,0:0|0:0,0:0:0:0:
211,54,67979,6,0,L|89:43,1,121.612502319574,2|0,1:2|0:0,0:0:0:0:
58,40,68312,1,8,0:0:0:0:
85,142,68479,1,0,1:0:0:0:
85,142,68562,1,0,1:0:0:0:
85,142,68646,2,0,P|101:186|93:233,1,81.0750015463829,2|0,1:2|1:2,0:0:0:0:
84,315,68979,2,0,L|3:322,1,81.0750015463829,10|0,0:0|0:0,0:0:0:0:
181,308,69312,6,0,L|261:300,1,81.0750015463829,2|0,1:2|0:0,0:0:0:0:
351,350,69646,1,8,0:0:0:0:
351,350,69812,1,2,0:0:0:0:
398,264,69979,2,0,B|404:240|404:240|392:208|392:208|397:178,1,81.0750015463829,2|0,1:2|1:2,0:0:0:0:
399,157,70229,1,0,1:0:0:0:
399,157,70312,2,0,P|355:143|318:149,1,81.0750015463829,10|0,0:0|0:0,0:0:0:0:
268,55,70646,6,0,B|280:146|280:146|240:216,1,162.150003092766,2|8,1:2|0:0,0:0:0:0:
337,261,71146,1,2,0:0:0:0:
337,261,71229,1,2,0:0:0:0:
337,261,71312,2,0,P|380:256|423:268,1,81.0750015463829,2|0,1:2|0:0,0:0:0:0:
458,354,71646,2,0,P|414:358|371:346,1,81.0750015463829,12|0,0:0|0:0,0:0:0:0:
273,335,71979,6,0,P|230:285|231:220,2,121.612502319574,6|2|2,1:2|0:0|0:0,0:0:0:0:
337,261,72646,2,0,P|341:195|388:150,2,121.612502319574,2|2|2,1:2|0:0|0:0,0:0:0:0:
348,354,73312,2,0,L|469:343,1,121.612502319574,2|0,1:2|0:0,0:0:0:0:
487,316,73646,2,0,B|491:276|491:276|478:237,1,81.0750015463829,8|0,0:0|0:0,0:0:0:0:
457,142,73979,2,0,P|414:147|371:135,1,81.0750015463829,2|0,1:2|1:2,0:0:0:0:
355,49,74312,2,0,P|312:44|269:56,1,81.0750015463829,10|0,0:0|0:0,0:0:0:0:
187,110,74646,5,4,1:2:0:0:
187,110,74812,1,2,1:2:0:0:
261,173,74979,2,0,L|268:253,1,81.0750015463829,10|2,0:0|1:2,0:0:0:0:
253,353,75312,1,10,0:0:0:0:
253,353,75479,1,0,1:2:0:0:
158,331,75646,2,0,P|118:340|78:334,1,81.0750015463829,14|0,0:0|1:2,0:0:0:0:
34,239,75979,6,0,L|26:158,1,81.0750015463829,6|0,1:2|0:0,0:0:0:0:
123,145,76312,2,0,L|130:64,1,81.0750015463829,10|0,0:0|0:0,0:0:0:0:
219,24,76646,1,10,0:2:0:0:
219,24,76729,1,0,1:0:0:0:
219,24,76812,1,8,0:0:0:0:
293,86,76979,2,0,L|289:126,3,40.5375007731915,10|8|8|8,0:0|0:0|0:0|0:0,0:0:0:0:
289,158,77312,6,0,B|356:138|356:138|426:146,1,141,6|10,1:2|0:0,0:0:0:0:
476,223,77812,1,0,0:0:0:0:
423,298,77979,2,0,B|355:317|355:317|285:309,1,141,2|10,1:2|0:0,0:0:0:0:
101,322,78646,2,0,P|109:270|91:216,1,105.75,2|0,1:2|0:0,0:0:0:0:
90,188,78979,2,0,L|160:181,1,70.5,8|8,0:0|0:0,0:0:0:0:
251,174,79312,2,0,L|244:103,1,70.5,0|0,1:2|1:2,0:0:0:0:
234,11,79646,1,8,0:0:0:0:
416,31,79979,6,0,B|444:73|427:104|419:96|404:129|429:172,1,141,2|10,1:2|0:0,0:0:0:0:
370,239,80479,1,0,0:0:0:0:
412,320,80646,2,0,B|370:348|339:331|347:323|314:308|271:333,1,141,2|10,1:2|0:0,0:0:0:0:
94,330,81312,1,0,1:2:0:0:
220,196,81646,2,0,L|210:90,1,105.75,10|8,0:0|0:0,0:0:0:0:
212,59,81979,2,0,P|246:62|279:52,2,70.5,2|0|14,1:2|1:2|0:0,0:0:0:0:
33,36,82646,5,6,1:2:0:0:
33,36,82979,2,0,P|30:73|39:106,1,70.5,8|0,0:0|0:0,0:0:0:0:
117,160,83312,1,0,1:2:0:0:
117,160,83479,1,0,1:2:0:0:
52,224,83646,2,0,P|55:258|46:292,1,70.5,8|0,0:0|0:0,0:0:0:0:
122,353,83979,5,0,1:2:0:0:
122,353,84146,1,0,1:2:0:0:
190,292,84312,2,0,P|187:258|196:224,1,70.5,8|0,0:0|0:0,0:0:0:0:
271,357,84646,1,10,0:0:0:0:
271,357,84729,1,0,1:0:0:0:
271,357,84812,1,0,0:0:0:0:
320,279,84979,2,0,L|372:284,2,35.25,8|0|0,0:3|0:0|0:0,0:0:0:0:
266,196,85312,6,0,B|241:126|241:126|253:55,1,141,6|8,1:2|0:0,0:0:0:0:
340,32,85812,1,0,0:0:0:0:
402,98,85979,2,0,B|426:167|426:167|414:238,1,141,0|8,1:2|0:0,0:0:0:0:
262,336,86646,6,0,P|205:345|156:326,1,105.75,6|0,1:2|0:0,0:0:0:0:
139,305,86979,2,0,P|145:265|132:231,1,70.5,8|0,0:0|1:2,0:0:0:0:
96,159,87312,1,10,0:0:0:0:
96,159,87479,1,0,1:2:0:0:
139,79,87646,1,8,0:3:0:0:
139,79,87813,1,0,0:0:0:0:
213,137,87979,6,0,B|262:64|262:64|315:135|315:135|294:209,1,253.799992254639,6|0,1:2|0:0,0:0:0:0:
294,209,89146,2,0,P|362:196|420:220,1,126.899996127319,10|10,0:0|0:0,0:0:0:0:
478,292,89646,1,10,0:0:0:0:
478,292,89729,1,8,0:0:0:0:
478,292,89812,1,2,1:2:0:0:
389,300,89979,2,0,L|394:363,1,63.4499980636597,6|0,0:3|0:0,0:0:0:0:
382,211,90312,1,0,0:0:0:0:
250,329,90646,5,6,1:2:0:0:
250,329,90729,1,0,1:0:0:0:
250,329,90812,1,2,0:0:0:0:
202,253,90979,2,0,P|200:221|196:189,1,63.4499980636597,2|2,1:2|0:0,0:0:0:0:
203,104,91312,1,2,1:2:0:0:
203,104,91479,1,2,0:0:0:0:
373,47,91812,5,2,0:0:0:0:
373,47,91979,2,0,P|404:38|436:41,2,63.4499980636597,0|2|0,0:0|0:0|1:2,0:0:0:0:
287,54,92479,1,2,0:0:0:0:
287,54,92646,2,0,P|296:116|297:180,1,126.899996127319,2|2,1:2|1:2,0:0:0:0:
355,247,93146,1,2,0:3:0:0:
289,315,93312,6,0,B|252:336|219:321|227:313|196:296|154:324,1,126.899996127319,2|0,1:2|1:2,0:0:0:0:
96,272,93812,1,2,0:0:0:0:
96,272,93979,2,0,P|84:199|107:145,1,126.899996127319,2|0,1:2|1:2,0:0:0:0:
127,68,94479,1,2,0:0:0:0:
127,68,94646,2,0,L|63:62,1,63.4499980636597,0|2,1:2|0:0,0:0:0:0:
196,123,94979,2,0,B|233:111|233:111|256:123|290:114,1,95.1749970954896,2|0,1:2|0:0,0:0:0:0:
319,121,95312,2,0,B|356:133|356:133|379:121|413:129,1,95.1749970954896,2|0,1:2|0:0,0:0:0:0:
443,131,95646,5,0,1:2:0:0:
473,218,95812,1,2,0:0:0:0:
473,218,95979,2,2,P|480:251|478:281,1,63.4499980636597,0|0,1:2|0:0,0:0:0:0:
390,289,96312,2,0,P|382:322|384:352,1,63.4499980636597,2|2,1:2|0:0,0:0:0:0:
294,354,96646,2,0,B|234:336|234:336|170:343,1,126.899996127319,2|0,1:2|1:2,0:0:0:0:
44,218,97312,6,0,P|30:187|33:155,1,63.4499980636597,2|0,1:2|0:0,0:0:0:0:
29,69,97646,2,0,P|61:72|89:90,1,63.4499980636597,2|0,1:2|0:0,0:0:0:0:
165,130,97979,2,0,P|145:156|115:171,1,63.4499980636597,2|10,1:2|0:0,0:0:0:0:
44,218,98312,2,0,L|48:264,3,31.7249990318299,8|8|8|8,0:0|0:0|0:2|0:0,0:0:0:0:
49,281,98646,6,0,B|91:260|91:260|190:269,1,141,6|8,1:2|0:0,0:0:0:0:
268,306,99146,1,0,0:0:0:0:
275,215,99312,2,0,P|299:152|287:74,1,141,2|8,1:2|0:0,0:0:0:0:
109,44,99979,2,0,L|3:34,2,105.75,2|2|2,1:2|0:0|0:0,0:0:0:0:
200,54,100646,2,0,P|207:129|188:190,1,141,2|10,1:2|0:0,0:0:0:0:
351,272,101312,6,0,L|457:282,2,105.75,2|2|2,1:2|0:0|0:0,0:0:0:0:
260,262,101979,2,0,P|253:187|272:126,1,141,2|10,1:2|0:0,0:0:0:0:
441,53,102646,2,0,B|431:97|452:123|452:123|441:158,1,105.75,2|0,1:2|0:0,0:0:0:0:
440,185,102979,2,0,P|408:174|370:179,1,70.5,10|8,0:0|0:0,0:0:0:0:
298,228,103312,1,2,1:2:0:0:
298,228,103479,1,6,1:2:0:0:
298,228,103645,1,10,0:0:0:0:
150,336,103979,5,6,1:2:0:0:
55,179,104312,2,0,P|32:116|55:38,2,141,10|2|10,0:0|1:2|0:0,0:0:0:0:
150,336,105312,2,0,L|290:323,1,141,2|10,1:2|0:0,0:0:0:0:
385,334,105812,1,0,0:0:0:0:
385,334,105979,2,0,L|373:194,1,141,2|10,1:2|0:0,0:0:0:0:
391,103,106479,1,0,0:0:0:0:
310,42,106646,6,0,P|258:58|194:52,1,116.325003549957,6|0,1:2|0:0,0:0:0:0:
162,45,106979,2,0,L|154:126,1,77.5500023666383,8|2,0:0|0:0,0:0:0:0:
124,218,107312,2,0,P|85:213|48:223,1,77.5500023666383,2|0,1:2|0:0,0:0:0:0:
13,320,107646,1,10,0:0:0:0:
13,320,107812,1,6,1:2:0:0:
119,341,107979,6,0,P|158:346|195:336,1,77.5500023666383,2|0,0:0|0:0,0:0:0:0:
287,290,108312,1,12,0:0:0:0:
287,290,108396,1,0,1:0:0:0:
287,290,108479,1,10,0:0:0:0:
317,193,108646,2,0,L|394:199,1,77.5500023666383,2|0,1:2|1:2,0:0:0:0:
223,188,108979,2,0,L|218:149,3,38.7750011833191,8|8|8|8,0:0|0:0|0:0|0:0,0:0:0:0:
214,118,109312,6,0,P|180:108|143:111,1,70.5,4|0,1:2|1:2,0:0:0:0:
57,124,109646,1,8,0:0:0:0:
57,124,109812,2,0,B|68:203|68:203|44:268,1,141,0|0,0:0|1:2,0:0:0:0:
82,350,110312,1,10,0:0:0:0:
82,350,110479,2,0,B|122:333|122:333|169:365|234:350,1,141,2|2,0:0|1:2,0:0:0:0:
306,341,110979,2,0,P|314:305|313:270,1,70.5,10|10,0:0|0:0,0:0:0:0:
320,180,111312,2,0,P|393:159|460:167,2,141,2|10|2,1:2|0:0|1:2,0:0:0:0:
157,257,112312,5,8,0:0:0:0:
157,257,112479,1,0,0:0:0:0:
157,257,112645,2,0,P|138:200|147:152,1,105.75,2|2,0:0|0:0,0:0:0:0:
155,125,112979,2,0,L|228:131,1,70.5,8|10,0:0|0:0,0:0:0:0:
292,193,113312,2,0,P|311:136|302:88,1,105.75,2|2,0:0|0:0,0:0:0:0:
298,60,113646,2,0,L|371:53,1,70.5,8|10,0:0|0:0,0:0:0:0:
459,42,113979,2,0,B|475:121|475:121|460:179,2,141,2|10|6,1:2|0:0|1:2,0:0:0:0:
282,53,114979,5,8,0:0:0:0:
282,53,115145,1,8,0:0:0:0:
282,53,115312,2,0,B|227:34|227:34|161:41,1,105.75,2|2,0:0|0:0,0:0:0:0:
147,38,115646,2,0,P|150:72|137:105,1,70.5,8|2,0:0|0:0,0:0:0:0:
100,189,115979,2,0,B|155:208|155:208|221:201,1,105.75,2|2,0:0|0:0,0:0:0:0:
234,202,116313,2,0,P|230:236|243:269,1,70.5,8|10,0:0|0:0,0:0:0:0:
300,341,116646,2,0,P|370:355|440:342,1,141,2|14,1:2|0:0,0:0:0:0:
480,261,117146,1,0,0:0:0:0:
397,203,117312,6,0,B|418:164|418:164|397:86,1,116.325003549957,6|0,1:2|0:0,0:0:0:0:
388,60,117646,2,0,L|310:66,1,77.5500023666383,8|0,0:0|1:2,0:0:0:0:
215,48,117979,1,10,0:0:0:0:
215,48,118146,1,0,1:2:0:0:
178,143,118312,1,8,0:0:0:0:
178,143,118479,1,0,1:2:0:0:
71,119,118646,6,0,P|79:158|77:196,1,77.5500023666383,14|8,0:0|1:2,0:0:0:0:
43,295,118979,1,8,0:0:0:0:
43,295,119062,1,0,1:0:0:0:
43,295,119146,1,4,1:2:0:0:
128,347,119312,2,0,L|166:343,3,38.7750011833191,8|8|8|0,0:0|0:0|0:0|0:0,0:0:0:0:
194,321,119646,2,0,L|232:324,3,38.7750011833191,4|8|8|0,1:2|0:0|0:0|0:0,0:0:0:0:
267,322,119979,6,0,L|274:235,1,88.125,4|8,1:2|0:0,0:0:0:0:
279,202,120229,1,8,0:0:0:0:
279,202,120312,2,0,P|324:213|366:210,1,88.125,0|8,1:2|0:0,0:0:0:0:
470,193,120646,2,0,L|463:106,1,88.125,0|8,1:2|0:0,0:0:0:0:
458,73,120896,1,8,0:0:0:0:
458,73,120979,2,0,P|413:84|371:81,1,88.125,0|8,1:2|0:0,0:0:0:0:
266,67,121312,6,0,L|274:154,1,88.125,0|8,1:2|0:0,0:0:0:0:
296,188,121562,1,8,0:0:0:0:
296,188,121646,2,0,L|288:275,1,88.125,0|8,1:2|0:0,0:0:0:0:
187,308,121979,2,0,L|195:221,1,88.125,0|8,1:2|0:0,0:0:0:0:
184,191,122229,1,8,0:0:0:0:
184,191,122313,2,0,L|176:104,1,88.125,0|8,1:2|0:0,0:0:0:0:
96,35,122646,5,4,1:2:0:0:
96,35,122729,1,0,1:0:0:0:
96,35,122812,1,8,0:0:0:0:
18,107,122979,2,0,L|15:64,2,44.0625,0|0|8,1:2|0:0|0:0,0:0:0:0:
92,196,123312,1,0,1:2:0:0:
92,196,123395,1,0,1:0:0:0:
92,196,123478,1,8,0:0:0:0:
44,291,123646,2,0,L|131:298,1,88.125,0|8,1:2|0:0,0:0:0:0:
240,336,123979,6,0,B|223:220|223:220|258:154|258:154|308:238,1,264.375,4|8,1:2|0:0,0:0:0:0:
346,311,124646,2,0,P|393:319|433:318,1,88.125,4|8,1:2|0:0,0:0:0:0:
484,229,124979,1,0,1:2:0:0:
484,229,125062,1,0,1:0:0:0:
484,229,125146,1,8,0:0:0:0:
478,115,125312,6,0,P|433:126|391:123,1,88.125,4|8,1:2|0:0,0:0:0:0:
360,118,125562,1,8,0:0:0:0:
360,118,125646,2,0,L|352:205,1,88.125,0|8,1:2|0:0,0:0:0:0:
346,311,125979,2,0,P|301:300|259:303,1,88.125,0|8,1:2|0:0,0:0:0:0:
227,309,126229,1,8,0:0:0:0:
227,309,126313,2,0,L|219:222,1,88.125,0|8,1:2|0:0,0:0:0:0:
246,119,126646,6,0,P|198:125|159:111,1,88.125,0|8,1:2|0:0,0:0:0:0:
146,85,126896,1,8,0:0:0:0:
146,85,126979,2,0,P|98:79|59:93,1,88.125,0|8,1:2|0:0,0:0:0:0:
17,188,127312,2,0,P|65:182|104:196,1,88.125,0|8,1:2|0:0,0:0:0:0:
129,224,127562,1,8,0:0:0:0:
129,224,127645,2,0,P|177:230|216:216,1,88.125,0|8,1:2|0:0,0:0:0:0:
293,134,127979,5,4,1:2:0:0:
293,134,128062,1,0,1:0:0:0:
293,134,128146,1,8,0:0:0:0:
368,207,128312,2,0,L|371:250,2,44.0625,0|0|8,1:2|0:0|0:0,0:0:0:0:
443,132,128646,1,0,1:2:0:0:
443,132,128729,1,0,1:0:0:0:
443,132,128813,1,8,0:0:0:0:
360,66,128979,2,0,L|356:22,2,44.0625,0|0|8,1:2|0:0|0:0,0:0:0:0:
263,128,129312,6,0,L|175:119,1,88.125,4|0,1:2|0:0,0:0:0:0:
145,113,129561,1,0,1:0:0:0:
145,113,129645,1,0,1:0:0:0:
57,53,129812,1,8,0:2:0:0:
43,159,129979,2,0,B|35:200|35:200|51:246,1,88.125,0|0,1:2|1:2,0:0:0:0:
67,348,130312,2,0,L|110:344,3,44.0625,8|8|8|8,0:0|0:0|0:0|0:0,0:0:0:0:
142,334,130646,6,0,P|128:294|135:254,1,81.0750015463829,6|0,1:2|0:0,0:0:0:0:
221,214,130979,2,0,P|235:174|228:134,1,81.0750015463829,10|0,0:0|0:0,0:0:0:0:
165,62,131312,2,0,P|127:75|87:70,1,81.0750015463829,2|0,1:2|1:2,0:0:0:0:
261,46,131645,2,0,P|301:32|341:39,1,81.0750015463829,10|0,0:0|0:0,0:0:0:0:
444,44,131979,6,0,L|433:166,1,121.612502319574,2|0,1:2|0:0,0:0:0:0:
430,197,132312,1,8,0:0:0:0:
393,291,132479,1,0,1:0:0:0:
393,291,132562,1,0,1:0:0:0:
393,291,132646,2,0,P|349:307|301:299,1,81.0750015463829,2|0,1:2|1:2,0:0:0:0:
260,223,132979,2,0,L|253:142,1,81.0750015463829,10|0,0:0|0:0,0:0:0:0:
202,301,133312,6,0,L|111:310,1,81.0750015463829,2|0,1:2|0:0,0:0:0:0:
44,258,133646,1,8,0:0:0:0:
44,258,133812,1,2,0:0:0:0:
92,173,133979,2,0,B|83:124|83:124|100:75,1,81.0750015463829,2|0,1:2|1:2,0:0:0:0:
115,70,134229,1,0,1:0:0:0:
115,70,134312,2,0,L|206:61,1,81.0750015463829,10|0,0:0|0:0,0:0:0:0:
294,23,134646,6,0,B|324:69|306:103|297:94|280:130|308:178,1,162.150003092766,2|8,1:2|0:0,0:0:0:0:
328,281,135146,1,2,0:0:0:0:
328,281,135229,1,2,0:0:0:0:
327,281,135312,2,0,P|367:275|407:284,1,81.0750015463829,2|0,1:2|0:0,0:0:0:0:
246,335,135646,2,0,P|203:340|160:328,1,81.0750015463829,12|0,0:0|0:0,0:0:0:0:
99,249,135979,6,0,P|56:299|57:364,2,121.612502319574,6|2|2,1:2|0:0|0:0,0:0:0:0:
126,154,136646,2,0,P|60:158|14:205,2,121.612502319574,2|2|2,1:2|0:0|0:0,0:0:0:0:
199,218,137312,2,0,B|218:159|218:159|211:96,1,121.612502319574,2|0,1:2|0:0,0:0:0:0:
213,67,137646,2,0,L|297:74,1,81.0750015463829,8|0,0:0|0:0,0:0:0:0:
391,72,137979,2,0,P|386:115|398:158,1,81.0750015463829,2|0,1:2|1:2,0:0:0:0:
486,183,138312,2,0,P|491:226|479:269,1,81.0750015463829,10|0,0:0|0:0,0:0:0:0:
397,325,138646,5,4,1:2:0:0:
397,325,138812,1,2,1:2:0:0:
325,259,138979,2,0,L|239:266,1,81.0750015463829,10|2,0:0|1:2,0:0:0:0:
174,334,139312,1,10,0:0:0:0:
174,334,139479,1,0,1:2:0:0:
92,281,139646,2,0,P|83:241|89:201,1,81.0750015463829,14|0,0:0|1:2,0:0:0:0:
86,96,139979,6,0,L|172:103,1,81.0750015463829,6|0,1:2|0:0,0:0:0:0:
245,44,140312,2,0,L|331:37,1,81.0750015463829,10|0,0:0|0:0,0:0:0:0:
406,110,140646,1,10,0:2:0:0:
406,110,140729,1,2,0:2:0:0:
406,110,140812,1,8,0:0:0:0:
330,171,140979,2,0,L|326:210,3,40.5375007731915,10|8|8|8,0:0|0:0|0:0|0:0,0:0:0:0:
322,243,141312,5,6,1:2:0:0:
256,192,141479,12,0,143979,1:2:0:0:
397,80,151979,6,0,L|404:151,1,70.5,4|0,1:2|0:0,0:0:0:0:
407,239,152312,1,8,0:0:0:0:
407,239,152479,2,0,B|367:256|367:256|320:224|255:239,1,141,2|0,0:0|1:2,0:0:0:0:
194,278,152979,1,10,0:0:0:0:
194,278,153146,2,0,P|173:205|181:138,1,141,2|2,0:0|1:2,0:0:0:0:
156,52,153646,2,0,P|120:44|85:45,1,70.5,10|10,0:0|0:0,0:0:0:0:
3,84,153979,2,0,B|12:123|-3:151|-3:151|12:183|2:225,2,141,2|10|2,1:2|0:0|1:2,0:0:0:0:
181,42,154979,5,8,0:0:0:0:
181,42,155146,1,0,0:0:0:0:
181,42,155312,2,0,P|233:37|286:51,1,105.75,2|2,0:0|0:0,0:0:0:0:
315,66,155645,2,0,L|321:139,1,70.5,8|2,0:0|0:0,0:0:0:0:
299,226,155979,1,2,0:0:0:0:
478,263,156312,2,8,P|482:299|472:336,1,70.5,8|10,0:0|0:0,0:0:0:0:
381,339,156646,2,0,B|344:360|311:345|319:337|288:320|246:348,2,141,2|10|6,1:2|0:0|1:2,0:0:0:0:
461,173,157646,5,8,0:0:0:0:
461,173,157812,1,0,1:2:0:0:
461,173,157979,2,0,B|466:112|466:112|452:63,1,105.75,2|0,1:2|0:0,0:0:0:0:
447,34,158312,2,0,L|370:27,1,70.5,10|2,0:0|0:0,0:0:0:0:
285,40,158646,2,0,B|290:101|290:101|276:149,1,105.75,2|0,1:2|0:0,0:0:0:0:
271,179,158979,2,0,L|194:185,1,70.5,10|0,0:0|0:0,0:0:0:0:
109,198,159312,2,0,P|126:265|120:335,1,141,2|14,1:2|0:0,0:0:0:0:
330,348,159979,5,6,1:2:0:0:
330,348,160312,2,0,P|372:351|410:340,1,81.0750015463829,8|8,1:2|0:0,0:0:0:0:
476,260,160646,1,8,1:2:0:0:
476,260,160812,1,8,0:0:0:0:
412,182,160979,1,8,1:2:0:0:
412,182,161145,1,8,0:0:0:0:
391,70,161312,6,0,P|430:59|470:63,1,81.0750015463829,8|8,1:2|0:0,0:0:0:0:
309,137,161646,2,0,P|270:147|230:144,1,81.0750015463829,8|8,1:2|0:0,0:0:0:0:
154,77,161979,1,8,1:2:0:0:
154,77,162146,1,8,0:0:0:0:
76,146,162312,1,8,1:2:0:0:
76,146,162479,1,8,0:0:0:0:
76,146,163979,6,0,P|121:135|163:138,1,88.125,4|8,1:2|0:0,0:0:0:0:
201,139,164229,1,8,0:0:0:0:
201,139,164312,2,0,L|208:226,1,88.125,0|8,0:2|0:0,0:0:0:0:
240,328,164646,2,0,P|285:339|327:336,1,88.125,0|8,0:2|0:0,0:0:0:0:
365,335,164896,1,8,0:0:0:0:
365,335,164979,2,0,L|372:248,1,88.125,0|8,0:2|0:0,0:0:0:0:
422,153,165312,6,0,P|374:159|335:145,1,88.125,0|8,1:2|0:0,0:0:0:0:
318,122,165562,1,8,0:0:0:0:
318,122,165645,2,0,P|270:116|231:130,1,88.125,0|8,1:2|0:0,0:0:0:0:
128,109,165979,2,0,P|134:157|120:196,1,88.125,0|8,1:2|0:0,0:0:0:0:
97,213,166229,1,8,0:0:0:0:
97,213,166312,2,0,P|91:261|105:300,1,88.125,0|8,1:2|0:0,0:0:0:0:
215,355,166646,5,4,1:2:0:0:
215,355,166729,1,0,1:0:0:0:
215,355,166812,1,8,0:0:0:0:
269,263,166979,2,0,L|265:220,2,44.0625,0|0|8,1:2|0:0|0:0,0:0:0:0:
351,345,167312,1,0,1:2:0:0:
351,345,167395,1,0,1:0:0:0:
351,345,167479,1,8,0:0:0:0:
399,249,167646,2,0,L|442:245,2,44.0625,0|0|8,1:2|0:0|0:0,0:0:0:0:
336,152,167979,6,0,P|343:103|329:64,1,88.125,4|8,1:2|0:0,0:0:0:0:
316,40,168229,1,8,0:0:0:0:
316,40,168312,1,0,1:2:0:0:
212,15,168479,1,8,0:0:0:0:
173,113,168646,2,0,P|166:162|180:201,1,88.125,4|8,1:2|0:0,0:0:0:0:
259,281,168979,1,0,1:2:0:0:
259,281,169062,1,0,1:2:0:0:
259,281,169146,1,8,0:0:0:0:
172,355,169312,6,0,L|85:348,1,88.125,4|8,1:2|0:0,0:0:0:0:
52,350,169562,1,8,0:0:0:0:
52,350,169646,2,0,P|63:305|60:263,1,88.125,0|8,1:2|0:0,0:0:0:0:
46,158,169979,2,0,L|133:151,1,88.125,0|8,1:2|0:0,0:0:0:0:
173,152,170229,1,8,0:0:0:0:
173,152,170313,2,0,P|162:107|165:65,1,88.125,0|8,1:2|0:0,0:0:0:0:
265,33,170646,6,0,L|352:40,1,88.125,0|8,1:2|0:0,0:0:0:0:
384,65,170896,1,8,0:0:0:0:
384,65,170979,2,0,L|471:58,1,88.125,0|8,1:2|0:0,0:0:0:0:
487,162,171312,2,0,L|400:169,1,88.125,0|8,1:2|0:0,0:0:0:0:
372,190,171562,1,8,0:0:0:0:
372,190,171645,2,0,L|285:183,1,88.125,0|8,1:2|0:0,0:0:0:0:
209,109,171979,5,4,1:2:0:0:
209,109,172062,1,0,1:0:0:0:
209,109,172146,1,8,0:0:0:0:
114,61,172312,2,0,L|111:18,2,44.0625,0|0|8,1:2|0:0|0:0,0:0:0:0:
82,167,172646,1,0,1:2:0:0:
82,167,172729,1,0,1:2:0:0:
82,167,172813,1,8,0:0:0:0:
179,207,172979,2,0,L|176:250,2,44.0625,0|0|8,1:2|0:0|0:0,0:0:0:0:
257,123,173312,6,0,B|298:115|298:115|344:131,1,88.125,4|0,1:2|0:0,0:0:0:0:
378,147,173562,1,0,1:0:0:0:
378,147,173646,1,0,1:0:0:0:
448,224,173812,1,8,1:2:0:0:
348,259,173979,2,0,B|356:300|356:300|340:346,1,88.125,0|0,1:2|1:2,0:0:0:0:
234,347,174312,2,0,L|190:343,3,44.0625,8|8|8|8,0:0|0:0|0:0|0:0,0:0:0:0:
158,336,174646,6,0,P|172:296|165:256,1,81.0750015463829,6|0,1:2|0:0,0:0:0:0:
119,172,174979,2,0,P|81:158|41:163,1,81.0750015463829,10|0,0:0|0:0,0:0:0:0:
216,177,175312,2,0,P|256:191|296:184,1,81.0750015463829,2|0,1:2|1:2,0:0:0:0:
387,213,175646,2,0,P|373:253|380:293,1,81.0750015463829,10|0,0:0|0:0,0:0:0:0:
482,268,175979,6,0,L|493:146,1,121.612502319574,2|0,1:2|0:0,0:0:0:0:
496,115,176312,1,8,0:0:0:0:
434,53,176479,1,0,1:0:0:0:
434,53,176562,1,0,1:0:0:0:
434,53,176645,2,0,L|353:46,1,81.0750015463829,2|0,1:2|1:2,0:0:0:0:
265,92,176980,2,0,P|267:133|252:170,1,81.0750015463829,10|0,0:0|0:0,0:0:0:0:
186,36,177312,6,0,P|146:38|109:23,1,81.0750015463829,2|0,1:2|0:0,0:0:0:0:
20,59,177646,1,8,0:0:0:0:
20,59,177812,1,2,0:0:0:0:
72,141,177979,2,0,B|86:185|86:185|80:222,1,81.0750015463829,2|0,1:2|1:2,0:0:0:0:
80,255,178229,1,0,1:0:0:0:
80,255,178312,2,0,L|161:263,1,81.0750015463829,10|0,0:0|0:0,0:0:0:0:
258,304,178646,6,0,B|271:248|271:248|251:193|251:193|258:141,1,162.150003092766,2|8,1:2|0:0,0:0:0:0:
315,71,179146,1,2,0:0:0:0:
315,71,179229,1,2,0:0:0:0:
315,71,179312,2,0,L|401:78,1,81.0750015463829,2|0,1:2|0:0,0:0:0:0:
443,163,179646,2,0,L|357:156,1,81.0750015463829,12|0,0:0|0:0,0:0:0:0:
257,147,179979,6,0,P|214:97|215:32,2,121.612502319574,6|0|0,1:2|0:0|0:0,0:0:0:0:
284,242,180646,2,0,P|218:238|172:191,2,121.612502319574,2|2|2,1:2|0:0|0:0,0:0:0:0:
372,202,181312,2,0,P|400:263|384:324,1,121.612502319574,2|0,1:2|0:0,0:0:0:0:
376,344,181646,2,0,L|295:351,1,81.0750015463829,8|0,0:0|0:0,0:0:0:0:
197,356,181979,2,0,B|187:313|187:313|196:270,1,81.0750015463829,2|0,1:2|0:0,0:0:0:0:
106,234,182312,2,0,B|115:191|115:191|106:148,1,81.0750015463829,10|0,0:0|0:0,0:0:0:0:
66,62,182646,5,4,1:2:0:0:
66,62,182812,1,2,1:2:0:0:
160,35,182979,2,0,P|200:26|240:32,1,81.0750015463829,10|2,0:0|1:2,0:0:0:0:
316,91,183312,1,10,0:0:0:0:
316,91,183479,1,0,1:2:0:0:
237,148,183646,2,0,L|230:234,1,81.0750015463829,14|0,0:0|0:0,0:0:0:0:
158,306,183979,6,0,P|118:297|78:302,1,81.0750015463829,6|0,1:2|0:0,0:0:0:0:
247,343,184312,2,0,P|287:352|327:346,1,81.0750015463829,10|0,0:0|0:0,0:0:0:0:
417,302,184646,1,10,0:2:0:0:
417,302,184729,1,0,0:0:0:0:
417,302,184812,1,8,0:0:0:0:
353,227,184979,2,0,L|349:187,3,40.5375007731915,10|8|8|8,0:0|0:0|0:0|0:0,0:0:0:0:
344,155,185312,6,0,B|283:178|283:178|203:167,1,141,6|10,1:2|0:0,0:0:0:0:
132,115,185812,1,0,0:0:0:0:
64,177,185979,2,0,L|57:247,1,70.5,2|0,1:2|1:2,0:0:0:0:
30,334,186312,1,10,0:0:0:0:
209,294,186646,6,0,P|249:287|279:287,1,70.5,2|0,1:2|0:0,0:0:0:0:
366,314,186979,2,0,P|366:278|372:244,1,70.5,8|8,0:0|0:0,0:0:0:0:
442,184,187312,1,0,1:2:0:0:
442,184,187396,1,0,1:2:0:0:
442,184,187479,1,0,1:2:0:0:
379,116,187646,2,0,L|309:109,1,70.5,8|0,0:0|0:0,0:0:0:0:
256,25,187979,6,0,P|269:101|243:165,1,141,2|10,1:2|0:0,0:0:0:0:
204,240,188479,1,0,0:0:0:0:
139,175,188646,2,0,P|103:175|69:181,1,70.5,2|0,1:2|1:2,0:0:0:0:
9,251,188979,1,10,0:0:0:0:
165,346,189312,6,0,L|235:339,1,70.5,0|0,1:2|0:0,0:0:0:0:
287,263,189646,2,0,L|357:269,1,70.5,10|8,0:0|0:0,0:0:0:0:
431,339,189979,1,2,1:2:0:0:
431,339,190062,1,0,2:0:0:0:
431,339,190146,1,0,1:2:0:0:
463,253,190312,2,0,P|473:222|469:182,1,70.5,14|8,0:0|0:0,0:0:0:0:
426,100,190646,5,6,1:2:0:0:
426,100,190979,2,0,P|389:103|356:94,1,70.5,8|0,0:0|0:0,0:0:0:0:
284,46,191312,1,0,1:2:0:0:
284,46,191479,1,0,1:2:0:0:
221,113,191646,2,0,P|224:148|215:182,1,70.5,8|0,0:0|0:0,0:0:0:0:
168,46,191979,5,0,1:2:0:0:
168,46,192146,1,0,1:2:0:0:
107,114,192312,2,0,P|109:148|100:182,1,70.5,8|0,0:0|0:0,0:0:0:0:
37,249,192646,1,10,0:0:0:0:
37,249,192729,1,10,0:0:0:0:
37,249,192812,1,0,1:0:0:0:
103,312,192979,2,0,L|106:347,2,35.25,8|0|0,0:3|0:0|0:0,0:0:0:0:
176,245,193312,6,0,B|218:217|249:234|241:242|274:257|317:232,1,141,6|8,1:2|0:0,0:0:0:0:
371,304,193812,1,0,0:0:0:0:
415,223,193979,2,0,B|387:181|404:150|412:158|427:125|402:82,1,141,0|8,1:2|0:0,0:0:0:0:
231,29,194646,6,0,L|125:38,1,105.75,6|0,1:2|0:0,0:0:0:0:
95,46,194979,2,0,P|101:85|88:120,1,70.5,8|0,0:0|1:2,0:0:0:0:
59,202,195312,1,10,0:0:0:0:
59,202,195479,1,0,1:2:0:0:
126,271,195646,1,8,0:3:0:0:
126,271,195812,1,0,0:0:0:0:
185,192,195979,5,6,1:2:0:0:
256,192,196146,12,0,197312,0:0:0:0:
