osu file format v14

[General]
AudioFilename: audio.mp3
AudioLeadIn: 0
PreviewTime: 55979
Countdown: 0
SampleSet: Soft
StackLeniency: 0.7
Mode: 0
LetterboxInBreaks: 0
WidescreenStoryboard: 0

[Editor]
DistanceSpacing: 1.4
BeatDivisor: 4
GridSize: 32
TimelineZoom: 1.9

[Metadata]
Title:For 4 Forever
TitleUnicode:For 4 Forever
Artist:Tanaka Chiemi, Murakami Natsumi, Sakura Ayane, Han Megumi
ArtistUnicode:田中ちえ美、村上奈津実、佐倉綾音、潘めぐみ
Creator:Lancien
Version:Insane
Source:4人はそれぞれウソをつく
Tags:4-nin wa Sorezore Uso wo Tsuku The Little Lies We All Tell ed ending Teje Hayato Yamamoto リッカ Rikka 千代 Chiyo 関根 Sekine 翼 Tsubasa anime japanese jeby pop jpop
BeatmapID:3887417
BeatmapSetID:1887753

[Difficulty]
HPDrainRate:6
CircleSize:4
OverallDifficulty:8
ApproachRate:9
SliderMultiplier:1.7
SliderTickRate:1

[Events]
//Background and Video events
0,0,"bg.png",0,0
//Break Periods
//Storyboard Layer 0 (Background)
//Storyboard Layer 1 (Fail)
//Storyboard Layer 2 (Pass)
//Storyboard Layer 3 (Foreground)
//Storyboard Layer 4 (Overlay)
//Storyboard Sound Samples

[TimingPoints]
1313,333.333333333333,4,2,1,55,1,0
1313,-133.333333333333,4,2,1,55,0,0
9312,-100,4,2,1,70,0,0
22646,-100,4,2,1,60,0,0
33312,-100,4,2,1,70,0,0
43979,-100,4,2,1,60,0,0
55146,-133.333333333333,4,2,1,50,0,0
55979,-100,4,2,1,75,0,1
66646,-100,4,2,1,75,0,0
71979,-83.3333333333333,4,2,1,75,0,0
74646,-100,4,2,1,75,0,0
77312,-100,4,2,1,70,0,0
87979,-133.333333333333,4,2,1,60,0,0
89146,-100,4,2,1,70,0,0
90312,-100,4,2,1,60,0,0
98646,-100,4,2,1,70,0,0
109312,-100,4,2,1,60,0,0
117312,-100,4,2,1,70,0,0
119979,-100,4,2,1,75,0,1
130646,-100,4,2,1,75,0,0
135979,-83.3333333333333,4,2,1,75,0,0
138646,-100,4,2,1,75,0,0
141312,-100,4,2,1,55,0,0
151646,-100,4,2,1,60,0,0
151979,-100,4,2,1,70,0,0
160312,-100,4,2,1,60,0,0
161312,-100,4,2,1,65,0,0
161979,-100,4,2,1,75,0,0
162646,-133.333333333333,4,2,1,55,0,0
163979,-100,4,2,1,75,0,1
174646,-100,4,2,1,75,0,0
185312,-100,4,2,1,70,0,0
195979,-133.333333333333,4,2,1,65,0,0
197312,-133.333333333333,4,2,1,50,0,0

[Colours]
Combo1 : 255,255,151
Combo2 : 255,170,255

[HitObjects]
77,222,1313,6,0,P|139:193|202:131,1,127.500004863739,2|0,0:0|0:0,0:0:0:0:
251,187,1812,1,2,0:0:0:0:
348,104,1979,2,0,B|376:147|376:147|355:232,1,127.500004863739,2|0,0:0|0:0,0:0:0:0:
466,337,2479,2,0,B|385:310|385:310|326:328,1,127.500004863739,2|2,0:0|0:0,0:0:0:0:
246,374,2979,2,0,L|225:285,1,63.7500024318696,2|0,0:0|0:0,0:0:0:0:
176,219,3312,2,0,B|75:258|128:281|4:315,1,191.250007295609,2|0,0:0|0:0,0:0:0:0:
137,143,3979,6,0,P|185:176|265:208,1,127.500004863739,2|0,0:0|0:0,0:0:0:0:
313,144,4479,1,2,0:0:0:0:
426,272,4646,2,0,P|470:201|476:134,1,127.500004863739,2|0,0:0|0:0,0:0:0:0:
451,89,5146,1,0,0:0:0:0:
313,144,5312,6,0,B|276:157|276:157|201:112|229:15,1,191.250007295609,2|0,0:0|0:0,0:0:0:0:
78,82,5979,2,0,P|124:120|195:102,1,127.500004863739,2|0,0:0|0:0,0:0:0:0:
313,144,6646,6,0,P|289:186|265:284,1,127.500004863739,2|0,0:0|0:0,0:0:0:0:
198,298,7146,1,2,0:0:0:0:
348,375,7312,2,0,P|360:331|361:301,1,63.7500024318696,2|0,0:0|0:0,0:0:0:0:
356,239,7646,1,0,0:0:0:0:
248,189,7812,2,0,P|173:198|115:244,1,127.500004863739,2|0,0:0|0:0,0:0:0:0:
55,212,8312,2,0,P|38:155|43:128,1,63.7500024318696,2|0,0:0|0:0,0:0:0:0:
126,118,8646,2,0,B|80:90|88:19|88:19|48:83|-11:75,1,223.125008511544,2|0,0:0|0:0,0:0:0:0:
38,151,9312,6,0,P|106:138|210:187,1,170,6|8,1:2|0:0,0:0:0:0:
256,97,9812,1,8,0:0:0:0:
336,256,9979,1,8,0:0:0:0:
423,86,10146,1,8,0:0:0:0:
310,170,10312,1,8,0:0:0:0:
489,171,10479,1,8,0:0:0:0:
354,36,10646,2,0,P|379:89|394:127,1,85,8|8,0:0|0:0,0:0:0:0:
453,269,10979,2,0,P|470:224|493:180,1,85,8|8,0:0|0:0,0:0:0:0:
505,62,11312,5,8,0:2:0:0:
310,170,11479,1,4,1:2:0:0:
115,23,11979,6,0,B|166:140|99:74|154:205,1,170,6|8,1:2|0:0,0:0:0:0:
221,94,12479,1,0,0:0:0:0:
140,337,12646,2,0,P|125:283|106:239,1,85,0|0,1:2|1:2,0:0:0:0:
44,157,12979,2,0,P|107:160|194:202,1,127.5,8|0,0:0|0:0,0:0:0:0:
223,238,13312,6,0,B|321:203|257:165|370:136,1,170,0|8,1:2|0:0,0:0:0:0:
349,272,13812,1,8,0:0:0:0:
349,272,13896,1,8,0:0:0:0:
349,272,13979,1,0,1:2:0:0:
266,129,14146,1,0,1:2:0:0:
446,182,14312,1,8,0:0:0:0:
394,9,14479,5,0,1:0:0:0:
394,9,14562,1,0,1:0:0:0:
394,9,14646,2,0,P|370:67|364:182,2,170,0|8|0,1:2|0:0|1:2,0:0:0:0:
469,49,15479,1,0,1:2:0:0:
324,94,15646,2,0,P|271:81|233:55,1,85,8|0,0:0|0:0,0:0:0:0:
120,147,15979,6,0,P|140:215|242:237,1,170,0|8,1:2|0:0,0:0:0:0:
345,293,16479,1,8,0:0:0:0:
345,293,16562,1,8,0:0:0:0:
345,293,16646,1,0,1:2:0:0:
204,159,16812,1,0,1:2:0:0:
117,343,16979,2,0,P|132:305|136:239,1,85,12|0,0:0|0:0,0:0:0:0:
49,73,17312,6,0,B|151:92|94:119|222:155,2,170,4|8|0,1:2|0:0|1:2,0:0:0:0:
177,38,18146,1,0,1:2:0:0:
51,179,18312,2,0,P|33:115|17:80,1,85,8|0,0:0|0:0,0:0:0:0:
257,86,18646,2,0,P|278:116|224:230,1,170,0|8,1:2|0:0,0:0:0:0:
155,198,19146,1,8,0:0:0:0:
155,198,19229,1,8,0:0:0:0:
155,198,19312,1,0,1:2:0:0:
332,307,19479,1,0,1:2:0:0:
180,363,19646,2,0,P|165:305|180:267,1,85,8|0,0:0|0:0,0:0:0:0:
316,220,19979,6,8,P|387:243|424:305,1,127.5,6|0,1:2|0:0,0:0:0:0:
428,319,20312,1,8,0:0:0:0:
444,174,20479,1,0,0:0:0:0:
315,304,20646,2,0,P|297:251|270:204,1,85,0|0,1:2|1:2,0:0:0:0:
468,76,20979,2,0,P|441:137|440:172,1,85,8|0,0:0|0:0,0:0:0:0:
207,43,21312,6,0,B|322:73|258:98|379:135,1,170,6|8,1:2|0:0,0:0:0:0:
417,168,21812,1,0,1:2:0:0:
267,210,21979,2,0,P|262:145|290:102,1,85,8|0,0:0|1:2,0:0:0:0:
453,10,22312,2,0,P|442:65|414:96,1,85,8|4,0:3|0:3,0:0:0:0:
190,119,22646,6,0,P|271:90|335:23,2,170,6|0|2,1:2|1:2|1:2,0:0:0:0:
117,73,23479,1,0,1:0:0:0:
117,73,23562,1,0,1:0:0:0:
117,73,23646,1,0,1:2:0:0:
34,142,23812,2,0,P|51:202|61:244,1,85,2|0,0:0|1:2,0:0:0:0:
134,289,24146,1,2,0:0:0:0:
134,289,24312,2,0,P|143:240|155:199,1,85,2|0,1:2|0:0,0:0:0:0:
269,199,24646,6,0,P|248:140|191:118,1,127.5,2|0,1:2|0:0,0:0:0:0:
117,83,24979,2,0,P|104:40|102:-5,1,85,2|2,1:2|0:0,0:0:0:0:
297,58,25312,1,2,1:2:0:0:
441,56,25479,6,0,L|493:30,2,42.5,2|2|2,0:0|0:0|1:2,0:0:0:0:
304,144,25812,2,0,L|238:124,2,42.5,2|0|2,0:0|0:0|1:2,0:0:0:0:
455,159,26146,1,2,0:0:0:0:
455,159,26229,1,2,0:0:0:0:
455,159,26312,1,0,1:2:0:0:
297,58,26479,2,0,P|328:127|339:234,1,170,2|2,0:0|0:0,0:0:0:0:
474,315,26979,2,0,P|422:299|383:302,1,85,0|2,1:2|0:0,0:0:0:0:
251,371,27312,2,0,P|232:315|241:192,1,170,2|2,1:2|1:2,0:0:0:0:
313,155,27812,5,2,0:3:0:0:
313,155,27979,2,0,B|216:120|277:92|143:58,1,170,2|0,1:2|1:2,0:0:0:0:
31,28,28479,1,2,0:0:0:0:
31,28,28646,2,0,P|53:75|56:122,1,85,2|0,1:2|0:0,0:0:0:0:
16,180,28979,1,0,1:2:0:0:
16,180,29146,2,0,P|17:222|34:261,1,85,2|0,0:0|1:2,0:0:0:0:
7,373,29479,1,2,0:0:0:0:
7,373,29646,2,0,P|56:343|96:346,1,85,2|0,1:2|0:0,0:0:0:0:
279,230,29979,6,0,P|211:234|249:177,1,170,2|0,1:2|1:2,0:0:0:0:
130,268,30479,1,2,0:0:0:0:
272,352,30646,2,2,P|313:366|361:358,1,85,2|0,1:2|0:0,0:0:0:0:
144,251,30979,2,0,P|93:264|65:306,1,85,2|2,1:2|0:0,0:0:0:0:
246,199,31312,2,0,P|270:153|281:24,1,170,2|0,1:2|1:2,0:0:0:0:
366,22,31812,5,2,0:0:0:0:
490,32,31979,2,0,P|412:49|373:143,1,170,2|2,1:2|1:2,0:0:0:0:
296,107,32479,1,0,0:0:0:0:
446,171,32646,2,0,P|468:214|480:263,1,85,2|2,1:2|0:0,0:0:0:0:
300,232,32979,2,0,P|287:283|286:328,1,85,10|0,0:0|0:0,0:0:0:0:
155,193,33312,6,0,B|242:155|207:120|322:96,2,170,6|8|2,1:2|0:0|1:2,0:0:0:0:
96,129,34146,1,0,1:2:0:0:
42,226,34312,2,0,P|51:276|70:321,1,85,8|0,0:0|0:0,0:0:0:0:
205,127,34646,2,0,P|193:69|153:7,2,127.5,2|2|2,1:2|0:0|0:0,0:0:0:0:
61,51,35312,2,0,P|16:86|-11:127,1,85,2|0,1:2|0:0,0:0:0:0:
141,266,35646,2,0,P|190:226|207:189,1,85,10|0,0:0|0:0,0:0:0:0:
335,73,35979,6,0,P|298:123|275:220,2,127.5,2|2|2,1:2|0:0|0:0,0:0:0:0:
452,240,36646,2,0,P|479:194|491:151,1,85,2|0,1:2|0:0,0:0:0:0:
387,311,36979,2,0,P|366:279|365:215,1,85,10|0,0:0|0:0,0:0:0:0:
454,81,37312,6,0,P|398:130|368:134,1,85,2|0,1:2|0:0,0:0:0:0:
337,72,37646,2,0,P|370:30|418:15,1,85,10|0,0:0|0:0,0:0:0:0:
477,7,37896,1,8,0:0:0:0:
477,7,37979,1,2,0:2:0:0:
389,132,38146,1,6,1:2:0:0:
265,0,38312,2,0,P|285:47|292:102,1,85,10|0,0:0|0:0,0:0:0:0:
199,251,38646,6,0,P|169:188|143:71,2,170,6|10|2,1:2|0:0|1:2,0:0:0:0:
243,159,39479,1,0,1:2:0:0:
205,332,39646,2,0,P|139:312|127:281,1,85,10|0,0:0|0:0,0:0:0:0:
138,196,39979,2,0,P|205:195|287:270,1,170,2|10,1:2|0:0,0:0:0:0:
347,181,40479,1,0,0:0:0:0:
430,328,40646,2,0,P|449:273|449:235,1,85,2|0,1:2|0:0,0:0:0:0:
507,189,40979,2,0,P|488:143|459:113,1,85,10|0,0:0|0:0,0:0:0:0:
365,21,41312,6,0,B|292:13|270:87|286:79|267:121|227:118,1,170,6|8,1:2|0:0,0:0:0:0:
67,148,41812,1,2,0:0:0:0:
67,148,41979,2,0,P|115:162|187:222,1,127.5,2|0,1:2|0:0,0:0:0:0:
228,268,42312,2,0,P|256:224|242:167,1,85,10|6,0:0|1:2,0:0:0:0:
86,65,42646,6,0,P|38:115|9:225,1,170,2|12,0:0|0:0,0:0:0:0:
3,35,43146,1,10,0:0:0:0:
3,35,43230,1,8,0:0:0:0:
3,35,43312,1,2,1:2:0:0:
131,145,43479,1,0,1:2:0:0:
194,44,43646,1,8,0:0:0:0:
221,34,43729,1,8,0:0:0:0:
248,40,43812,1,8,0:0:0:0:
268,57,43896,1,8,0:0:0:0:
285,77,43979,6,0,P|328:64|367:35,1,85,4|0,1:2|1:2,0:0:0:0:
512,39,44312,2,0,P|446:69|414:137,1,127.5,8|0,0:0|0:0,0:0:0:0:
368,170,44646,2,0,P|392:217|403:258,1,85,2|0,0:0|1:2,0:0:0:0:
400,247,44979,1,10,0:0:0:0:
511,288,45146,2,0,P|484:240|473:190,1,85,2|0,0:0|0:0,0:0:0:0:
475,211,45479,1,2,1:2:0:0:
364,367,45646,2,0,P|409:341|445:332,1,85,10|10,0:0|0:0,0:0:0:0:
329,285,45979,6,0,P|269:316|189:333,1,127.5,2|0,1:2|0:0,0:0:0:0:
147,291,46312,2,0,P|138:242|118:206,1,85,10|0,0:0|0:0,0:0:0:0:
80,64,46646,6,0,P|153:73|189:175,1,170,2|8,1:2|0:0,0:0:0:0:
271,109,47146,1,0,0:0:0:0:
222,234,47312,2,0,P|169:203|76:179,2,127.5,2|2|2,0:0|0:0|0:0,0:0:0:0:
77,91,47979,2,0,P|33:136|-5:202,2,127.5,2|2|10,0:0|0:0|0:0,0:0:0:0:
31,12,48646,1,2,1:2:0:0:
167,123,48812,1,0,1:2:0:0:
144,22,48979,1,10,0:0:0:0:
144,22,49062,1,8,0:0:0:0:
144,22,49146,1,8,0:3:0:0:
280,135,49312,6,0,P|187:160|118:192,1,170,6|8,1:2|0:0,0:0:0:0:
30,140,49812,1,8,0:0:0:0:
60,291,49979,2,0,P|36:233|28:147,2,127.5,2|2|2,0:0|0:0|0:0,0:0:0:0:
198,195,50646,2,0,P|222:253|230:339,2,127.5,2|2|10,0:0|0:0|0:0,0:0:0:0:
299,246,51312,1,2,1:2:0:0:
148,281,51479,1,0,1:2:0:0:
346,384,51646,2,0,P|357:324|363:274,1,85,14|0,0:0|0:0,0:0:0:0:
482,193,51979,6,0,B|375:179|418:231|296:201,1,170,6|8,1:2|0:0,0:0:0:0:
264,147,52479,1,0,1:2:0:0:
432,277,52646,5,10,0:0:0:0:
347,111,52812,1,0,1:2:0:0:
236,228,52979,5,8,0:0:0:0:
435,113,53146,1,0,1:2:0:0:
270,65,53312,5,14,0:0:0:0:
393,190,53479,1,0,1:2:0:0:
382,32,53646,1,12,0:0:0:0:
264,147,53812,1,0,1:2:0:0:
156,59,53979,6,0,L|146:14,2,42.5,8|8|8,0:0|0:0|0:3,0:0:0:0:
60,143,54312,2,0,L|47:187,2,42.5,8|8|8,0:0|0:0|0:3,0:0:0:0:
4,89,54646,5,0,1:2:0:0:
232,3,55146,1,2,0:0:0:0:
232,3,55312,2,0,P|246:45|255:75,1,63.7500024318696,2|0,0:0|0:0,0:0:0:0:
361,63,55646,2,0,P|343:110|336:132,1,63.7500024318696,2|0,0:0|0:0,0:0:0:0:
443,180,55979,5,4,1:2:0:0:
247,145,56146,2,0,L|270:199,2,42.5,8|8|0,0:0|0:0|1:2,0:0:0:0:
345,226,56479,1,8,0:0:0:0:
345,226,56562,1,8,0:0:0:0:
345,226,56646,1,0,1:2:0:0:
227,292,56812,2,0,L|280:268,2,42.5,8|8|0,0:0|0:0|1:2,0:0:0:0:
460,272,57146,5,8,0:0:0:0:
460,272,57229,1,8,0:0:0:0:
460,272,57312,2,0,L|374:321,1,85,0|8,1:2|0:0,0:0:0:0:
386,314,57562,1,8,0:0:0:0:
386,314,57646,1,0,1:2:0:0:
346,225,57812,1,8,0:0:0:0:
346,225,57896,1,8,0:0:0:0:
346,225,57979,1,0,1:2:0:0:
439,113,58146,1,8,0:0:0:0:
439,113,58229,1,8,0:0:0:0:
439,113,58312,1,0,1:2:0:0:
249,63,58479,5,8,0:0:0:0:
249,63,58562,1,8,0:0:0:0:
249,63,58646,2,0,P|313:42|350:28,1,85,4|8,1:2|0:0,0:0:0:0:
329,35,58896,1,8,0:0:0:0:
329,35,58979,1,0,1:2:0:0:
123,64,59146,1,8,0:0:0:0:
123,64,59229,1,8,0:0:0:0:
123,64,59312,1,0,1:2:0:0:
199,192,59479,1,8,0:0:0:0:
199,192,59562,1,8,0:0:0:0:
199,192,59646,1,0,1:2:0:0:
96,297,59812,5,8,0:0:0:0:
96,297,59896,1,8,0:0:0:0:
96,297,59979,2,0,P|81:241|72:199,1,85,4|8,1:2|0:0,0:0:0:0:
75,214,60229,1,8,0:0:0:0:
75,214,60312,1,0,1:2:0:0:
278,115,60479,2,0,L|221:126,2,42.5,8|8|4,0:0|0:0|1:2,0:0:0:0:
19,125,60812,2,0,L|8:68,2,42.5,8|8|0,0:0|0:0|1:2,0:0:0:0:
163,177,61146,5,8,0:0:0:0:
163,177,61229,1,8,0:0:0:0:
163,177,61312,2,0,P|182:241|201:286,1,85,4|8,1:2|0:0,0:0:0:0:
188,257,61562,1,8,0:0:0:0:
188,257,61646,1,0,1:2:0:0:
282,352,61812,1,8,0:0:0:0:
282,352,61896,1,8,0:0:0:0:
282,352,61979,1,0,1:2:0:0:
331,201,62146,2,0,L|264:236,2,42.5,8|8|0,0:0|0:0|1:2,0:0:0:0:
146,373,62479,6,0,L|211:337,2,42.5,8|8|0,0:0|0:0|1:2,0:0:0:0:
24,281,62812,2,0,L|50:338,2,42.5,8|8|0,0:0|0:0|1:2,0:0:0:0:
122,183,63146,2,0,L|138:235,2,42.5,8|8|0,0:0|0:0|1:2,0:0:0:0:
247,108,63479,2,0,L|259:167,2,42.5,8|8|0,0:0|0:0|1:2,0:0:0:0:
383,48,63812,5,8,0:0:0:0:
383,48,63896,1,8,0:0:0:0:
383,48,63979,2,0,L|368:145,1,85,4|8,1:2|0:0,0:0:0:0:
370,133,64229,1,8,0:0:0:0:
370,133,64312,1,0,1:2:0:0:
495,267,64479,1,8,0:0:0:0:
495,267,64562,1,8,0:0:0:0:
495,267,64646,1,0,1:2:0:0:
364,366,64813,1,8,0:0:0:0:
364,366,64896,1,8,0:0:0:0:
364,366,64980,1,0,1:2:0:0:
207,292,65146,5,8,0:0:0:0:
207,292,65229,1,8,0:0:0:0:
207,292,65312,2,0,P|292:268|377:223,1,170,4|0,1:2|0:0,0:0:0:0:
116,236,65812,1,8,0:2:0:0:
116,236,65896,1,8,0:2:0:0:
116,236,65979,2,0,P|102:297|96:340,1,85,0|0,1:2|1:2,0:0:0:0:
60,165,66312,1,8,0:0:0:0:
101,143,66396,1,8,0:0:0:0:
150,149,66479,1,8,0:0:0:0:
192,177,66562,1,8,0:0:0:0:
220,223,66646,6,0,P|238:162|252:127,1,85,6|0,1:2|0:0,0:0:0:0:
371,28,66979,2,0,P|381:93|391:141,1,85,10|0,0:0|0:0,0:0:0:0:
286,50,67312,1,2,1:2:0:0:
474,140,67479,1,0,1:2:0:0:
318,227,67646,2,0,P|369:207|410:195,1,85,10|0,0:0|0:0,0:0:0:0:
262,384,67979,6,0,P|244:303|214:204,2,170,2|8|2,1:2|0:0|1:2,0:0:0:0:
319,247,68812,1,0,1:2:0:0:
174,337,68979,2,0,P|135:347|91:325,1,85,10|0,0:0|0:0,0:0:0:0:
36,205,69312,6,0,B|148:163|108:242|235:200,1,170,2|8,1:2|0:0,0:0:0:0:
309,127,69812,1,2,0:0:0:0:
209,24,69979,2,0,P|220:75|232:122,1,85,2|0,1:2|1:2,0:0:0:0:
44,44,70312,2,0,P|28:108|21:143,1,85,10|0,0:0|0:0,0:0:0:0:
309,127,70646,6,0,P|244:132|135:211,1,170,2|8,1:2|0:0,0:0:0:0:
74,263,71146,2,0,P|119:254|140:264,1,42.5,2|2,0:0|0:0,0:0:0:0:
225,301,71312,2,0,P|306:279|359:235,1,127.5,2|0,1:2|0:0,0:0:0:0:
398,202,71646,6,0,P|401:180|400:206,1,127.5,12|0,0:0|0:0,0:0:0:0:
365,325,71979,2,0,B|321:219|305:271|275:170,2,152.999995330811,6|2|2,1:2|0:0|0:0,0:0:0:0:
174,382,72646,2,0,P|214:344|223:281,1,101.999996887207,2|0,1:2|1:2,0:0:0:0:
166,247,72896,2,0,P|145:184|158:139,1,101.999996887207,2|0,0:0|0:0,0:0:0:0:
219,111,73146,2,0,P|230:76|228:53,1,50.9999984436036,2|0,0:0|0:0,0:0:0:0:
95,12,73312,6,0,P|80:65|81:145,1,101.999996887207,2|0,1:2|0:0,0:0:0:0:
12,169,73646,1,8,0:0:0:0:
69,272,73812,1,0,0:0:0:0:
69,272,73979,2,0,P|138:261|193:224,1,101.999996887207,2|0,1:2|1:2,0:0:0:0:
223,193,74312,2,0,P|284:189|330:213,1,101.999996887207,10|0,0:0|0:0,0:0:0:0:
486,278,74646,5,4,1:2:0:0:
304,283,74812,1,2,1:2:0:0:
475,189,74979,1,10,0:0:0:0:
384,364,75146,1,2,1:2:0:0:
320,205,75312,2,0,P|293:155|265:132,1,85,10|0,0:0|1:2,0:0:0:0:
432,111,75646,2,0,P|444:58|473:23,1,85,14|0,0:0|1:2,0:0:0:0:
212,260,75979,6,0,P|310:247|405:264,2,170,6|10|10,1:2|0:0|0:2,0:0:0:0:
127,206,76812,1,8,0:0:0:0:
93,383,76979,1,10,0:0:0:0:
59,364,77062,1,8,0:0:0:0:
40,337,77146,1,8,0:0:0:0:
37,307,77229,1,8,0:0:0:0:
50,285,77312,6,0,P|71:226|72:111,2,170,6|10|2,1:2|0:0|1:2,0:0:0:0:
1,162,78146,1,0,1:2:0:0:
143,249,78312,2,0,P|201:245|244:218,1,85,10|0,0:0|0:0,0:0:0:0:
345,126,78646,2,0,B|245:115|269:164|161:132,1,170,2|8,1:2|0:0,0:0:0:0:
103,19,79146,1,8,0:0:0:0:
103,19,79229,1,8,0:0:0:0:
103,19,79312,1,0,1:2:0:0:
205,54,79479,1,0,1:2:0:0:
48,151,79646,2,0,P|18:98|24:51,1,85,8|0,0:0|0:0,0:0:0:0:
197,218,79979,6,0,P|186:283|119:378,2,170,2|10|2,1:2|0:0|1:2,0:0:0:0:
121,232,80812,1,0,1:2:0:0:
281,354,80979,2,0,P|227:357|194:342,1,85,10|0,0:0|0:0,0:0:0:0:
307,251,81312,2,0,B|423:223|423:223|500:253,1,170,0|10,1:2|0:0,0:0:0:0:
365,163,81812,1,8,0:0:0:0:
365,163,81896,1,8,0:0:0:0:
365,163,81979,1,2,1:2:0:0:
500,252,82146,1,0,1:2:0:0:
433,97,82312,1,14,0:0:0:0:
307,251,82479,5,8,0:0:0:0:
307,251,82562,1,8,0:0:0:0:
307,251,82646,2,0,P|331:183|334:62,1,170,6|8,1:2|0:0,0:0:0:0:
329,12,83146,1,0,0:0:0:0:
418,136,83312,2,0,P|470:119|503:97,1,85,0|0,1:2|1:2,0:0:0:0:
260,93,83646,2,0,P|212:100|166:125,1,85,8|0,0:0|0:0,0:0:0:0:
79,40,83979,1,0,1:2:0:0:
79,40,84146,1,0,1:2:0:0:
11,156,84312,2,0,P|-4:99|8:52,1,85,8|0,0:0|0:0,0:0:0:0:
246,198,84646,6,0,P|168:169|95:178,1,127.5,10|0,0:0|0:0,0:0:0:0:
71,227,84979,2,0,P|76:258|82:229,1,85,8|0,0:3|0:0,0:0:0:0:
338,156,85312,6,0,P|291:195|259:309,1,170,6|8,1:2|0:0,0:0:0:0:
188,212,85812,1,0,0:0:0:0:
331,340,85979,1,0,1:2:0:0:
331,340,86146,1,0,1:2:0:0:
169,324,86312,2,0,P|123:331|76:352,1,85,8|0,0:0|0:0,0:0:0:0:
278,259,86646,6,0,B|388:232|355:293|473:261,1,170,6|8,1:2|0:0,0:0:0:0:
502,197,87146,1,0,1:2:0:0:
398,76,87312,2,0,P|379:121|375:166,1,85,10|0,0:0|1:2,0:0:0:0:
267,152,87646,2,0,P|274:203|290:242,1,85,8|0,0:3|0:0,0:0:0:0:
78,226,87979,6,0,P|219:248|381:376,1,350.625013375283,6|0,1:2|0:0,0:0:0:0:
379,373,88979,1,2,1:2:0:0:
236,384,89146,2,0,P|240:342|266:303,1,85,10|0,0:0|0:0,0:0:0:0:
207,209,89479,1,10,0:0:0:0:
365,248,89646,1,10,0:0:0:0:
365,248,89729,1,8,0:0:0:0:
365,248,89812,1,2,1:2:0:0:
308,134,89979,2,0,P|287:198|284:248,1,85,6|0,0:3|0:0,0:0:0:0:
56,224,90312,5,0,0:0:0:0:
214,326,90646,5,6,1:2:0:0:
95,336,90812,2,0,L|43:362,2,42.5,2|2|2,0:0|0:0|1:2,0:0:0:0:
208,240,91145,2,0,L|274:260,2,42.5,2|0|2,0:0|0:0|1:2,0:0:0:0:
73,142,91479,2,0,P|63:207|46:244,1,85,2|0,0:0|1:2,0:0:0:0:
215,326,91812,2,0,P|184:257|173:150,1,170,2|2,0:0|0:0,0:0:0:0:
38,69,92312,2,0,P|90:85|129:82,1,85,0|2,1:2|0:0,0:0:0:0:
261,13,92645,2,0,P|280:69|271:192,1,170,2|2,1:2|1:2,0:0:0:0:
199,229,93145,5,2,0:3:0:0:
199,229,93312,2,0,B|302:257|235:292|369:326,1,170,2|0,1:2|1:2,0:0:0:0:
481,356,93812,1,2,0:0:0:0:
481,356,93979,2,0,P|459:309|456:262,1,85,2|0,1:2|0:0,0:0:0:0:
406,161,94312,1,0,1:2:0:0:
496,204,94479,2,0,P|495:162|478:123,1,85,2|0,0:0|1:2,0:0:0:0:
505,11,94812,1,2,0:0:0:0:
505,11,94979,2,0,P|456:41|416:38,1,85,2|0,1:2|0:0,0:0:0:0:
305,177,95312,6,0,P|334:109|267:136,1,170,2|0,1:2|1:2,0:0:0:0:
376,92,95812,1,2,0:0:0:0:
258,37,95979,2,2,P|217:23|169:31,1,85,2|0,1:2|0:0,0:0:0:0:
176,28,96312,1,2,1:2:0:0:
376,92,96479,1,2,0:0:0:0:
266,185,96645,2,0,P|242:231|231:360,1,170,2|0,1:2|1:2,0:0:0:0:
22,352,97145,5,2,0:0:0:0:
22,352,97312,2,0,P|100:335|139:241,1,170,2|2,1:2|1:2,0:0:0:0:
216,277,97812,1,0,0:0:0:0:
84,205,97979,1,2,1:2:0:0:
84,205,98062,1,2,1:2:0:0:
84,205,98146,1,10,0:0:0:0:
288,126,98312,1,8,0:0:0:0:
314,130,98396,1,8,0:0:0:0:
333,143,98479,1,8,0:2:0:0:
352,165,98562,1,8,0:0:0:0:
357,191,98645,6,0,B|270:229|305:264|190:288,2,170,6|8|2,1:2|0:0|1:2,0:0:0:0:
416,255,99479,1,0,1:2:0:0:
470,158,99645,2,0,P|461:108|442:63,1,85,8|0,0:0|0:0,0:0:0:0:
307,257,99979,2,0,P|319:315|359:377,2,127.5,2|2|2,1:2|0:0|0:0,0:0:0:0:
451,333,100645,2,0,P|496:298|523:257,1,85,2|0,1:2|0:0,0:0:0:0:
371,118,100979,2,0,P|322:158|305:195,1,85,10|0,0:0|0:0,0:0:0:0:
177,311,101312,6,0,P|214:261|237:164,2,127.5,2|2|2,1:2|0:0|0:0,0:0:0:0:
60,144,101979,2,0,P|33:190|21:233,1,85,2|0,1:2|0:0,0:0:0:0:
125,73,102312,2,0,P|146:105|147:169,1,85,10|0,0:0|0:0,0:0:0:0:
58,303,102645,6,0,P|114:254|144:250,1,85,2|0,1:2|0:0,0:0:0:0:
212,265,102979,1,10,0:0:0:0:
34,299,103146,1,0,0:0:0:0:
242,289,103312,1,2,1:2:0:0:
77,182,103479,1,6,1:2:0:0:
173,384,103645,2,0,P|153:337|146:282,1,85,10|0,0:0|0:0,0:0:0:0:
313,133,103979,6,0,P|343:196|369:313,2,170,6|10|2,1:2|0:0|1:2,0:0:0:0:
269,225,104812,1,0,1:2:0:0:
307,52,104979,2,0,P|373:72|385:103,1,85,10|0,0:0|0:0,0:0:0:0:
512,206,105312,2,0,B|415:177|444:228|332:208,1,170,2|10,1:2|0:0,0:0:0:0:
269,225,105812,1,0,0:0:0:0:
185,44,105979,2,0,P|166:99|166:137,1,85,2|0,1:2|0:0,0:0:0:0:
108,183,106312,2,0,P|127:229|156:259,1,85,10|0,0:0|0:0,0:0:0:0:
142,370,106646,6,0,B|256:316|184:304|305:269,1,170,6|8,1:2|0:0,0:0:0:0:
445,236,107145,1,2,0:0:0:0:
445,236,107312,2,0,P|397:222|325:162,1,127.5,2|0,1:2|0:0,0:0:0:0:
284,116,107645,2,0,P|256:160|270:217,1,85,10|6,0:0|1:2,0:0:0:0:
426,319,107979,6,0,P|474:269|503:159,1,170,2|12,0:0|0:0,0:0:0:0:
512,359,108479,1,10,0:0:0:0:
512,359,108563,1,8,0:0:0:0:
512,359,108646,1,2,1:2:0:0:
381,239,108812,1,0,1:2:0:0:
318,340,108979,1,8,0:0:0:0:
291,350,109062,1,8,0:0:0:0:
264,344,109145,1,8,0:0:0:0:
244,327,109229,1,8,0:0:0:0:
227,307,109312,6,0,P|184:320|148:356,1,85,4|0,1:2|1:2,0:0:0:0:
0,345,109645,2,0,P|66:315|84:283,1,85,8|0,0:0|0:0,0:0:0:0:
144,214,109979,2,0,P|120:167|109:126,1,85,2|0,0:0|1:2,0:0:0:0:
111,136,110312,1,10,0:0:0:0:
0,130,110479,2,0,P|27:178|38:228,1,85,2|0,0:0|0:0,0:0:0:0:
35,206,110812,1,2,1:2:0:0:
148,17,110979,2,0,P|103:43|67:52,1,85,10|10,0:0|0:0,0:0:0:0:
183,99,111312,6,0,P|243:68|323:51,1,127.5,2|0,1:2|0:0,0:0:0:0:
365,93,111645,2,0,P|374:142|394:178,1,85,10|0,0:0|0:0,0:0:0:0:
432,320,111979,6,0,P|359:311|323:209,1,170,2|8,1:2|0:0,0:0:0:0:
241,275,112479,1,0,0:0:0:0:
290,150,112645,2,0,P|343:181|436:205,2,127.5,2|2|2,0:0|0:0|0:0,0:0:0:0:
430,278,113312,5,2,0:0:0:0:
460,134,113562,1,2,0:0:0:0:
283,317,113812,1,10,0:0:0:0:
481,372,113979,5,2,1:2:0:0:
345,261,114145,1,0,1:2:0:0:
368,362,114312,1,10,0:0:0:0:
368,362,114395,1,0,1:0:0:0:
368,362,114479,1,8,0:3:0:0:
232,249,114645,2,0,P|325:224|394:192,1,170,6|8,1:2|0:0,0:0:0:0:
482,244,115145,1,8,0:0:0:0:
452,93,115312,6,0,P|476:151|484:237,2,127.5,2|2|2,0:0|0:0|0:0,0:0:0:0:
314,189,115979,2,0,P|290:131|282:45,2,127.5,2|2|10,0:0|0:0|0:0,0:0:0:0:
213,138,116645,1,2,1:2:0:0:
364,103,116812,1,0,1:2:0:0:
166,0,116979,2,0,P|146:51|149:110,1,85,14|0,0:0|0:0,0:0:0:0:
30,191,117312,6,0,B|137:205|94:153|216:183,1,170,6|8,1:2|0:0,0:0:0:0:
248,237,117812,1,0,1:2:0:0:
71,108,117979,5,10,0:0:0:0:
165,273,118145,1,0,1:2:0:0:
276,156,118312,5,8,0:0:0:0:
77,271,118479,1,0,1:2:0:0:
242,319,118645,5,14,0:0:0:0:
130,352,118812,1,8,1:2:0:0:
130,352,118896,1,8,0:0:0:0:
130,352,118979,1,8,0:0:0:0:
265,239,119146,1,4,1:2:0:0:
356,325,119312,6,0,L|366:370,2,42.5,8|8|8,0:0|0:0|0:0,0:0:0:0:
452,241,119645,2,0,L|465:197,2,42.5,4|8|8,1:2|0:0|0:0,0:0:0:0:
69,204,119979,5,4,1:2:0:0:
265,239,120146,2,0,L|242:185,2,42.5,8|8|0,0:0|0:0|1:2,0:0:0:0:
171,164,120479,1,8,0:0:0:0:
171,164,120562,1,8,0:0:0:0:
171,164,120646,1,0,1:2:0:0:
285,92,120812,2,0,L|232:116,2,42.5,8|8|0,0:0|0:0|1:2,0:0:0:0:
74,0,121146,5,8,0:0:0:0:
74,0,121229,1,8,0:0:0:0:
74,0,121312,2,0,L|123:86,1,85,0|8,1:2|0:0,0:0:0:0:
117,73,121562,1,8,0:0:0:0:
117,73,121646,1,0,1:2:0:0:
78,242,121812,1,8,0:0:0:0:
78,242,121896,1,8,0:0:0:0:
78,242,121979,1,0,1:2:0:0:
171,164,122146,1,8,0:0:0:0:
171,164,122229,1,8,0:0:0:0:
171,164,122312,1,0,1:2:0:0:
263,321,122479,5,8,0:0:0:0:
263,321,122562,1,8,0:0:0:0:
263,321,122646,2,0,P|199:342|162:356,1,85,4|8,1:2|0:0,0:0:0:0:
183,349,122896,1,8,0:0:0:0:
183,349,122979,1,0,1:2:0:0:
367,270,123146,1,8,0:0:0:0:
367,270,123229,1,8,0:0:0:0:
367,270,123312,1,0,1:2:0:0:
266,176,123479,1,8,0:0:0:0:
266,176,123562,1,8,0:0:0:0:
266,176,123646,1,0,1:2:0:0:
419,75,123812,5,8,0:0:0:0:
419,75,123896,1,8,0:0:0:0:
419,75,123979,2,0,P|434:131|443:173,1,85,4|8,1:2|0:0,0:0:0:0:
439,157,124229,1,8,0:0:0:0:
439,157,124312,1,0,1:2:0:0:
234,269,124479,2,0,L|291:258,2,42.5,8|8|4,0:0|0:0|1:2,0:0:0:0:
493,259,124812,2,0,L|504:316,2,42.5,8|8|0,0:0|0:0|1:2,0:0:0:0:
349,207,125146,5,8,0:0:0:0:
349,207,125229,1,8,0:0:0:0:
349,207,125312,2,0,P|330:143|311:98,1,85,4|8,1:2|0:0,0:0:0:0:
324,127,125562,1,8,0:0:0:0:
324,127,125646,1,0,1:2:0:0:
230,32,125812,1,8,0:0:0:0:
230,32,125896,1,8,0:0:0:0:
230,32,125979,1,0,1:2:0:0:
181,183,126146,2,0,L|248:148,2,42.5,8|8|0,0:0|0:0|1:2,0:0:0:0:
366,11,126479,6,0,L|301:47,2,42.5,8|8|0,0:0|0:0|1:2,0:0:0:0:
488,103,126812,2,0,L|462:46,2,42.5,8|8|0,0:0|0:0|1:2,0:0:0:0:
381,193,127146,2,0,L|365:141,2,42.5,8|8|0,0:0|0:0|1:2,0:0:0:0:
267,266,127479,2,0,L|255:207,2,42.5,8|8|0,0:0|0:0|1:2,0:0:0:0:
73,253,127812,5,8,0:0:0:0:
73,253,127896,1,8,0:0:0:0:
73,253,127979,2,0,L|168:226,1,85,4|8,1:2|0:0,0:0:0:0:
155,229,128229,1,8,0:0:0:0:
155,229,128312,1,0,1:2:0:0:
17,117,128479,1,8,0:0:0:0:
17,117,128562,1,8,0:0:0:0:
17,117,128646,1,0,1:2:0:0:
148,18,128813,1,8,0:0:0:0:
148,18,128896,1,8,0:0:0:0:
148,18,128980,1,0,1:2:0:0:
305,92,129146,5,8,0:0:0:0:
305,92,129229,1,8,0:0:0:0:
305,92,129312,2,0,P|220:116|135:161,1,170,4|0,1:2|0:0,0:0:0:0:
396,148,129812,1,8,0:2:0:0:
396,148,129896,1,8,0:2:0:0:
396,148,129979,2,0,P|410:87|416:44,1,85,0|0,1:2|1:2,0:0:0:0:
452,219,130312,1,8,0:0:0:0:
411,241,130396,1,8,0:0:0:0:
362,235,130479,1,8,0:0:0:0:
320,207,130562,1,8,0:0:0:0:
292,161,130646,6,0,P|277:222|260:257,1,85,6|0,1:2|0:0,0:0:0:0:
141,356,130979,2,0,P|131:291|110:246,1,85,10|0,0:0|0:0,0:0:0:0:
50,248,131312,1,2,1:2:0:0:
209,300,131479,1,0,1:2:0:0:
76,129,131646,2,0,P|56:174|58:247,1,85,10|0,0:0|0:0,0:0:0:0:
178,15,131979,6,0,P|187:96|226:195,2,170,2|8|2,1:2|0:0|1:2,0:0:0:0:
107,129,132812,1,0,1:2:0:0:
259,37,132979,2,0,P|298:27|342:49,1,85,10|0,0:0|0:0,0:0:0:0:
483,139,133312,6,0,B|371:97|411:176|284:134,1,170,2|8,1:2|0:0,0:0:0:0:
243,168,133812,1,2,0:0:0:0:
356,364,133979,2,0,P|345:313|333:266,1,85,2|0,1:2|1:2,0:0:0:0:
476,297,134312,2,0,P|492:233|499:198,1,85,10|0,0:0|0:0,0:0:0:0:
203,257,134646,6,0,P|268:252|377:173,1,170,2|8,1:2|0:0,0:0:0:0:
438,121,135146,2,0,P|393:130|372:120,1,42.5,2|2,0:0|0:0,0:0:0:0:
287,83,135312,2,0,P|206:105|153:149,1,127.5,2|0,1:2|0:0,0:0:0:0:
114,182,135646,6,0,P|111:204|112:178,1,127.5,12|0,0:0|0:0,0:0:0:0:
147,59,135979,2,0,B|191:165|207:113|237:214,2,152.999995330811,6|2|2,1:2|0:0|0:0,0:0:0:0:
338,2,136646,2,0,P|298:40|289:103,1,101.999996887207,2|0,1:2|1:2,0:0:0:0:
346,137,136896,2,0,P|367:200|354:245,1,101.999996887207,2|0,0:0|0:0,0:0:0:0:
293,273,137146,2,0,P|282:308|284:331,1,50.9999984436036,2|0,0:0|0:0,0:0:0:0:
417,372,137312,6,0,P|432:319|431:239,1,101.999996887207,2|0,1:2|0:0,0:0:0:0:
500,215,137646,1,8,0:0:0:0:
443,112,137812,1,0,0:0:0:0:
443,112,137979,2,0,P|374:123|319:160,1,101.999996887207,2|0,1:2|1:2,0:0:0:0:
289,191,138312,2,0,P|228:195|182:171,1,101.999996887207,10|0,0:0|0:0,0:0:0:0:
11,117,138646,5,4,1:2:0:0:
208,101,138812,1,2,1:2:0:0:
39,125,138979,1,10,0:0:0:0:
140,18,139146,1,2,1:2:0:0:
192,179,139312,2,0,P|219:229|247:252,1,85,10|0,0:0|1:2,0:0:0:0:
78,354,139646,2,0,P|90:301|119:266,1,85,14|0,0:0|1:2,0:0:0:0:
281,105,139979,6,0,P|190:149|103:136,1,170,6|10,1:2|0:0,0:0:0:0:
238,32,140479,1,0,0:0:0:0:
372,174,140646,1,10,0:2:0:0:
372,174,140729,1,2,0:2:0:0:
372,174,140812,2,0,P|379:137|375:117,1,42.5,8|0,0:0|0:0,0:0:0:0:
446,29,140979,1,10,0:0:0:0:
480,48,141062,1,8,0:0:0:0:
499,75,141146,1,8,0:0:0:0:
502,105,141229,1,8,0:0:0:0:
489,127,141312,6,0,P|468:186|467:301,1,170,6|0,1:2|0:0,0:0:0:0:
290,357,141979,1,2,0:0:0:0:
290,357,142146,1,2,0:0:0:0:
237,291,142312,2,0,P|179:295|136:322,1,85,2|0,1:2|0:0,0:0:0:0:
15,331,142646,6,0,B|102:281|54:255|160:217,1,170,2|0,0:0|1:2,0:0:0:0:
199,153,143146,1,0,0:0:0:0:
199,153,143312,2,0,P|224:192|242:243,1,85,2|0,0:0|0:0,0:0:0:0:
317,242,143646,2,0,P|328:296|326:341,1,85,0|0,0:2|0:0,0:0:0:0:
407,384,143979,6,0,P|418:319|485:224,2,170,0|0|2,1:2|0:0|0:0,0:0:0:0:
475,315,144812,1,0,0:0:0:0:
370,237,144979,2,0,P|330:223|288:228,1,85
388,53,145312,6,0,P|451:62|495:162,1,170,2|0,1:2|0:0,0:0:0:0:
370,237,145812,1,0,1:0:0:0:
370,237,145896,1,0,1:0:0:0:
370,237,145979,1,2,1:2:0:0:
220,144,146146,1,12,1:2:0:0:
287,299,146312,1,0,1:0:0:0:
413,145,146479,5,0,1:0:0:0:
413,145,146562,1,0,1:0:0:0:
413,145,146646,2,0,P|389:213|386:334,1,170,6|0,1:2|1:2,0:0:0:0:
391,384,147146,1,0,0:0:0:0:
302,260,147312,2,0,P|250:277|220:303,1,85,2|0,1:2|0:0,0:0:0:0:
115,231,147646,2,0,P|163:224|209:199,1,85,0|2,1:2|0:0,0:0:0:0:
315,126,147979,6,0,B|222:98|242:138|138:125,1,170,2|0,1:2|1:2,0:0:0:0:
32,28,148479,1,0,0:0:0:0:
32,28,148646,2,0,P|53:85|57:171,1,127.5,2|0,1:2|0:0,0:0:0:0:
26,223,148979,2,0,P|26:274|45:315,1,85,0|0,1:2|0:0,0:0:0:0:
174,228,149312,6,0,P|221:189|253:75,1,170,2|0,1:2|0:0,0:0:0:0:
324,172,149812,1,0,0:0:0:0:
181,44,149979,1,0,1:2:0:0:
181,44,150146,1,0,0:0:0:0:
280,89,150312,2,0,P|326:82|373:61,1,85,0|0,1:2|0:0,0:0:0:0:
158,135,150646,2,0,P|111:103|97:54,1,85,6|2,1:2|0:0,0:0:0:0:
116,5,150979,1,2,1:2:0:0:
37,276,151145,2,2,P|56:231|60:186,1,85,10|2,0:0|0:0,0:0:0:0:
20,127,151479,1,6,1:2:0:0:
157,260,151646,1,8,0:0:0:0:
184,277,151729,1,8,0:0:0:0:
218,284,151812,1,8,0:0:0:0:
245,284,151896,1,8,0:0:0:0:
271,272,151979,6,0,P|287:199|262:90,1,170,4|8,1:2|0:0,0:0:0:0:
85,50,152479,1,2,0:0:0:0:
139,107,152646,2,0,P|162:152|174:196,1,85,2|0,0:0|1:2,0:0:0:0:
40,311,152979,1,10,0:0:0:0:
40,311,153146,2,0,P|17:254|11:208,1,85,2|0,0:0|0:0,0:0:0:0:
275,251,153479,1,2,1:2:0:0:
275,251,153646,2,0,P|200:272|180:295,1,85,10|10,0:0|0:0,0:0:0:0:
70,381,153979,6,0,P|160:346|237:374,1,170,2|10,1:2|0:0,0:0:0:0:
226,366,154479,1,0,0:0:0:0:
351,350,154646,2,0,P|362:284|382:213,1,127.5,2|0,1:2|0:0,0:0:0:0:
456,202,154979,2,0,P|442:148|428:112,1,85,8|0,0:0|0:0,0:0:0:0:
341,54,155312,5,2,0:0:0:0:
463,70,155562,1,2,0:0:0:0:
386,149,155812,1,2,0:0:0:0:
307,130,155979,5,2,0:0:0:0:
411,8,156229,1,2,0:0:0:0:
466,158,156479,1,10,0:0:0:0:
398,84,156646,5,2,1:2:0:0:
398,84,156812,1,0,1:2:0:0:
294,221,156979,2,0,P|250:176|215:156,1,85,10|8,0:0|0:3,0:0:0:0:
36,217,157312,6,0,B|131:180|76:150|177:107,1,170,6|8,1:2|0:0,0:0:0:0:
253,108,157812,1,0,1:2:0:0:
82,27,157979,2,0,P|86:80|111:123,1,85,2|2,1:2|1:2,0:0:0:0:
36,217,158312,2,0,P|80:252|109:261,1,85,10|2,0:0|0:0,0:0:0:0:
230,206,158646,6,0,P|211:252|196:386,2,170,2|10|2,1:2|0:0|1:2,0:0:0:0:
121,295,159479,1,0,1:2:0:0:
284,278,159646,2,0,P|340:309|363:336,1,85,14|0,0:0|0:0,0:0:0:0:
138,184,159979,2,0,P|108:128|111:79,1,85,6|0,1:2|0:0,0:0:0:0:
293,27,160312,5,8,1:2:0:0:
188,119,160479,1,8,0:0:0:0:
376,111,160646,1,8,1:2:0:0:
205,34,160812,1,8,0:0:0:0:
320,200,160979,1,8,1:2:0:0:
379,24,161146,1,8,0:0:0:0:
188,119,161312,5,8,1:2:0:0:
420,197,161479,1,8,0:0:0:0:
176,205,161646,5,8,1:2:0:0:
376,111,161812,1,8,0:0:0:0:
97,103,161979,5,8,1:2:0:0:
320,200,162146,1,8,0:0:0:0:
77,259,162312,5,8,1:2:0:0:
281,128,162479,1,8,0:0:0:0:
27,176,162646,5,2,0:2:0:0:
210,333,163145,1,2,0:0:0:0:
210,333,163312,2,0,P|223:288|232:259,1,63.7500024318696,2|0,0:0|0:0,0:0:0:0:
345,303,163646,2,0,P|337:262|333:227,1,63.7500024318696,2|0,0:0|0:0,0:0:0:0:
444,188,163979,5,4,1:2:0:0:
294,37,164146,2,0,L|306:88,2,42.5,8|8|0,0:0|0:0|0:2,0:0:0:0:
201,87,164479,2,0,L|222:134,2,42.5,8|8|0,0:0|0:0|0:2,0:0:0:0:
398,77,164812,2,0,L|377:135,2,42.5,8|8|0,0:0|0:0|0:2,0:0:0:0:
302,168,165146,5,8,0:0:0:0:
302,168,165229,1,8,0:0:0:0:
302,168,165312,1,0,1:2:0:0:
161,36,165479,1,8,0:0:0:0:
161,36,165562,1,8,0:0:0:0:
161,36,165646,1,0,1:2:0:0:
52,112,165812,1,8,0:0:0:0:
52,112,165896,1,8,0:0:0:0:
52,112,165979,1,0,1:2:0:0:
110,187,166146,1,8,0:0:0:0:
110,187,166229,1,8,0:0:0:0:
110,187,166312,1,0,1:2:0:0:
39,287,166479,5,8,0:0:0:0:
39,287,166562,1,8,0:0:0:0:
39,287,166646,2,0,L|9:187,1,85,4|8,1:2|0:0,0:0:0:0:
14,205,166896,1,8,0:0:0:0:
14,205,166979,1,0,1:2:0:0:
122,352,167146,2,0,L|134:301,2,42.5,8|8|0,0:0|0:0|1:2,0:0:0:0:
232,294,167479,2,0,L|213:229,2,42.5,8|8|0,0:0|0:0|1:2,0:0:0:0:
319,348,167812,5,8,0:0:0:0:
319,348,167896,1,8,0:0:0:0:
319,348,167979,2,0,P|339:286|351:250,1,85,4|8,1:2|0:0,0:0:0:0:
345,267,168229,1,8,0:0:0:0:
345,267,168312,1,0,1:2:0:0:
294,189,168479,1,8,0:0:0:0:
294,189,168562,1,8,0:0:0:0:
294,189,168646,1,4,1:2:0:0:
456,264,168812,1,8,0:0:0:0:
456,264,168896,1,8,0:0:0:0:
456,264,168979,1,0,1:2:0:0:
412,101,169146,5,8,0:0:0:0:
412,101,169229,1,8,0:0:0:0:
412,101,169312,2,0,P|395:143|380:202,1,85,4|8,1:2|0:0,0:0:0:0:
384,181,169562,1,8,0:0:0:0:
384,181,169646,1,0,1:2:0:0:
293,78,169812,2,0,L|253:55,2,42.5,8|8|0,0:0|0:0|1:2,0:0:0:0:
188,110,170146,2,0,L|140:127,2,42.5,8|8|0,0:0|0:0|1:2,0:0:0:0:
89,13,170479,6,0,L|131:46,2,42.5,8|8|0,0:0|0:0|1:2,0:0:0:0:
75,138,170812,2,0,L|91:183,2,42.5,8|8|0,0:0|0:0|1:2,0:0:0:0:
11,258,171146,2,0,L|20:303,2,42.5,8|8|0,0:0|0:0|1:2,0:0:0:0:
99,354,171479,1,8,0:0:0:0:
99,354,171562,1,8,0:0:0:0:
99,354,171646,1,0,1:2:0:0:
238,303,171812,5,8,0:0:0:0:
238,303,171896,1,8,0:0:0:0:
238,303,171979,2,0,P|178:281|134:263,1,85,4|8,1:2|0:0,0:0:0:0:
158,273,172229,1,8,0:0:0:0:
158,273,172312,1,0,1:2:0:0:
346,245,172479,1,8,0:0:0:0:
346,245,172562,1,8,0:0:0:0:
346,245,172646,1,0,1:2:0:0:
249,165,172812,1,8,0:0:0:0:
249,165,172896,1,8,0:0:0:0:
249,165,172979,1,0,1:2:0:0:
315,98,173146,5,8,0:0:0:0:
315,98,173229,1,8,0:0:0:0:
315,98,173312,2,0,P|304:47|295:10,1,85,4|0,1:2|0:0,0:0:0:0:
413,148,173646,2,0,L|460:136,2,42.5,0|0|8,1:0|1:0|1:2,1:0:0:0:
248,166,173979,2,0,P|191:182|148:188,1,85,0|0,1:2|1:2,0:0:0:0:
48,2,174312,1,8,0:0:0:0:
8,32,174396,1,8,0:0:0:0:
0,75,174479,1,8,0:0:0:0:
13,109,174562,1,8,0:0:0:0:
28,127,174646,6,0,P|88:110|124:104,1,85,6|0,1:2|0:0,0:0:0:0:
206,0,174979,2,0,P|204:55|207:100,1,85,10|0,0:0|0:0,0:0:0:0:
225,170,175312,1,2,1:2:0:0:
110,105,175479,1,0,1:2:0:0:
321,173,175646,2,0,P|290:218|274:249,1,85,10|0,0:0|0:0,0:0:0:0:
128,195,175979,6,0,P|169:264|208:358,1,170,2|8,1:2|0:0,0:0:0:0:
275,244,176479,1,0,0:0:0:0:
354,371,176646,2,0,P|374:328|371:292,1,85,2|0,1:2|1:2,0:0:0:0:
464,263,176979,2,0,P|458:210|431:169,1,85,10|0,0:0|0:0,0:0:0:0:
450,90,177312,6,0,B|341:112|394:150|274:169,1,170,2|8,1:2|0:0,0:0:0:0:
227,103,177812,1,2,0:0:0:0:
184,234,177979,2,0,P|161:186|153:150,1,85,2|0,1:2|1:2,0:0:0:0:
66,128,178312,2,0,P|66:71|76:40,1,85,10|0,0:0|0:0,0:0:0:0:
298,240,178646,6,0,P|227:256|136:324,1,170,2|8,1:2|0:0,0:0:0:0:
31,255,179146,1,2,0:0:0:0:
31,255,179229,1,2,0:0:0:0:
31,255,179312,2,0,P|29:316|42:345,1,85,2|0,1:2|0:0,0:0:0:0:
215,348,179646,6,0,P|223:276|199:189,1,127.5,12|0,0:0|0:0,0:0:0:0:
144,174,179979,1,6,1:2:0:0:
348,270,180229,1,0,0:0:0:0:
222,85,180479,1,0,0:0:0:0:
155,259,180646,5,2,1:2:0:0:
334,170,180896,1,2,0:0:0:0:
104,82,181146,1,2,0:0:0:0:
330,38,181312,6,0,P|278:86|223:190,1,170,2|8,1:2|0:0,0:0:0:0:
199,42,181812,1,0,0:0:0:0:
334,170,181979,2,0,P|388:170|428:150,1,85,2|0,1:2|0:0,0:0:0:0:
208,55,182312,2,0,P|176:78|152:129,1,85,10|0,0:0|0:0,0:0:0:0:
163,196,182646,5,4,1:2:0:0:
61,142,182812,1,2,1:2:0:0:
244,241,182979,1,10,0:0:0:0:
154,117,183146,1,2,1:2:0:0:
81,309,183312,2,0,P|65:258|81:210,1,85,10|0,0:0|1:2,0:0:0:0:
97,48,183646,6,0,B|190:18|171:70|284:34,1,170,14|6,0:0|1:2,0:0:0:0:
434,24,184146,1,0,0:0:0:0:
369,128,184312,2,0,P|350:68|353:28,1,85,10|0,0:0|0:0,0:0:0:0:
484,161,184646,2,0,P|467:212|446:250,1,85,10|8,0:2|0:0,0:0:0:0:
328,366,184979,1,10,0:0:0:0:
293,344,185062,1,8,0:0:0:0:
278,308,185146,1,8,0:0:0:0:
282,270,185229,1,8,0:0:0:0:
293,251,185312,6,0,P|352:230|465:233,2,170,6|10|2,1:2|0:0|1:2,0:0:0:0:
280,162,186146,1,0,1:2:0:0:
203,338,186312,2,0,P|168:309|151:255,1,85,10|0,0:0|0:0,0:0:0:0:
157,125,186646,6,0,B|256:102|233:163|341:131,1,170,2|8,1:2|0:0,0:0:0:0:
399,18,187146,1,8,0:0:0:0:
399,18,187229,1,8,0:0:0:0:
399,18,187312,1,0,1:2:0:0:
297,53,187479,1,0,1:2:0:0:
454,150,187646,2,0,P|484:97|478:50,1,85,8|0,0:0|0:0,0:0:0:0:
305,217,187979,6,0,P|316:282|383:377,2,170,2|10|2,1:2|0:0|1:2,0:0:0:0:
402,246,188812,1,0,1:2:0:0:
302,344,188979,2,0,P|262:358|221:353,1,85,10|0,0:0|0:0,0:0:0:0:
195,250,189312,2,0,B|79:222|79:222|2:252,1,170,0|10,1:2|0:0,0:0:0:0:
137,162,189812,1,8,0:0:0:0:
137,162,189896,1,8,0:0:0:0:
137,162,189979,1,2,1:2:0:0:
2,251,190146,1,0,1:2:0:0:
69,96,190312,1,14,0:0:0:0:
195,250,190479,5,8,0:0:0:0:
195,250,190562,1,8,0:0:0:0:
195,250,190646,2,0,P|171:182|168:61,1,170,6|8,1:2|0:0,0:0:0:0:
173,11,191146,1,0,0:0:0:0:
84,135,191312,2,0,P|32:118|-1:96,1,85,0|0,1:2|1:2,0:0:0:0:
242,92,191646,2,0,P|290:99|336:124,1,85,8|0,0:0|0:0,0:0:0:0:
423,39,191979,1,0,1:2:0:0:
423,39,192146,1,0,1:2:0:0:
491,155,192312,2,0,P|506:98|494:51,1,85,8|0,0:0|0:0,0:0:0:0:
256,197,192646,6,0,P|334:168|407:177,1,127.5,10|0,0:0|0:0,0:0:0:0:
431,226,192979,2,0,P|426:257|420:228,1,85,8|0,0:3|0:0,0:0:0:0:
164,155,193312,6,0,P|211:194|243:308,1,170,6|8,1:2|0:0,0:0:0:0:
314,211,193812,1,0,0:0:0:0:
171,339,193979,1,0,1:2:0:0:
171,339,194146,1,0,1:2:0:0:
333,323,194312,2,0,P|379:330|426:351,1,85,8|0,0:0|0:0,0:0:0:0:
224,258,194646,6,0,B|114:231|147:292|29:260,1,170,6|8,1:2|0:0,0:0:0:0:
184,134,195146,1,0,1:2:0:0:
184,134,195229,1,0,0:0:0:0:
184,134,195312,1,10,0:0:0:0:
224,258,195479,1,0,1:2:0:0:
260,89,195646,1,8,0:3:0:0:
80,145,195812,1,0,0:0:0:0:
375,150,195979,6,0,B|270:127|132:187|279:345|134:384|64:308|65:260|58:173|192:190|186:247,1,510.000019454957,6|2,1:2|0:0,0:0:0:0:
