osu file format v14

[General]
AudioFilename: audio.mp3
AudioLeadIn: 0
PreviewTime: -1
Countdown: 0
SampleSet: Normal
StackLeniency: 0.7
Mode: 0
LetterboxInBreaks: 0
WidescreenStoryboard: 0

[Editor]
Bookmarks: 3856,22034,38941,55212,73517,90042,116292,132627,155890,167203,183544,201150
DistanceSpacing: 1.1
BeatDivisor: 4
GridSize: 16
TimelineZoom: 6.600001

[Metadata]
Title:Yes, My Master My Lord
TitleUnicode:Yes, My Master My Lord
Artist:Tamura Yukari
ArtistUnicode:Tamura Yukari
Creator:UselessTurtle
Version:Jibril
Source:
Tags:
BeatmapID:1911554
BeatmapSetID:915260

[Difficulty]
HPDrainRate:4
CircleSize:4.2
OverallDifficulty:9.5
ApproachRate:9.7
SliderMultiplier:1.4
SliderTickRate:1

[Events]
//Background and Video events
0,0,"!1 (31).jpg",0,0
//Break Periods
2,108182,116280
2,234538,281535
//Storyboard Layer 0 (Background)
//Storyboard Layer 1 (Fail)
//Storyboard Layer 2 (Pass)
//Storyboard Layer 3 (Foreground)
//Storyboard Layer 4 (Overlay)
//Storyboard Sound Samples

[TimingPoints]
186,254.237288135593,4,1,0,100,1,0
55530,-80,4,1,0,100,0,0
56292,-100,4,1,0,100,0,0
57309,-80,4,1,0,100,0,0
57818,-100,4,1,0,100,0,0
59597,-80,4,1,0,100,0,0
73835,-66.6666666666667,4,1,0,100,0,0
75233,-100,4,1,0,100,0,0
81907,-80,4,1,0,100,0,0
133263,-100,4,1,0,100,0,0
141010,-80,4,1,0,100,0,0
167394,-66.6666666666667,4,1,0,100,0,0
179407,-80,4,1,0,100,0,0
180614,-66.6666666666667,4,1,0,100,0,0
181123,-80,4,1,0,100,0,0
217241,-66.6666666666667,4,1,0,100,0,0
218248,-66.6666666666667,4,1,0,100,0,0
222325,-80,4,1,0,100,0,0
228427,-66.6666666666667,4,1,0,100,0,0
230397,-50,4,1,0,100,0,0
231986,-57.1428571428571,4,1,0,100,0,0

[HitObjects]
161,279,4508,6,0,P|200:287|236:274,1,70
305,198,4762,1,0,0:0:0:0:
193,71,5016,2,0,P|230:65|276:77,1,70
432,160,5270,1,0,0:0:0:0:
121,285,5524,1,0,0:0:0:0:
305,198,5779,1,0,0:0:0:0:
461,272,6033,2,0,L|399:218,1,70
81,140,6287,1,0,0:0:0:0:
165,283,6541,1,0,0:0:0:0:
270,133,6669,1,0,0:0:0:0:
81,287,6796,1,0,0:0:0:0:
273,48,6923,1,0,0:0:0:0:
371,199,7050,1,0,0:0:0:0:
111,106,7177,1,0,0:0:0:0:
167,292,7304,1,0,0:0:0:0:
270,133,7431,1,0,0:0:0:0:
165,209,7558,1,0,0:0:0:0:
310,269,7685,1,0,0:0:0:0:
166,125,7813,1,0,0:0:0:0:
405,136,8067,1,0,0:0:0:0:
314,54,8194,1,0,0:0:0:0:
245,153,8321,1,0,0:0:0:0:
108,254,8575,2,0,L|87:321,1,70
313,292,8830,1,0,0:0:0:0:
373,166,8957,1,0,0:0:0:0:
220,309,9084,1,0,0:0:0:0:
410,277,9211,1,0,0:0:0:0:
181,209,9338,1,0,0:0:0:0:
229,82,9465,1,0,0:0:0:0:
361,131,9592,2,0,L|446:208,1,70
313,292,9847,1,0,0:0:0:0:
74,212,10101,2,0,L|56:303,1,70
96,108,10355,1,0,0:0:0:0:
298,132,10482,1,0,0:0:0:0:
210,170,10609,1,0,0:0:0:0:
383,320,10736,1,0,0:0:0:0:
408,103,10863,1,0,0:0:0:0:
119,204,11245,1,0,0:0:0:0:
285,260,11372,1,0,0:0:0:0:
152,89,11499,1,0,0:0:0:0:
180,317,11626,1,0,0:0:0:0:
399,133,11753,1,0,0:0:0:0:
285,101,11880,1,0,0:0:0:0:
247,305,12643,2,0,L|149:277,1,70
395,234,12897,1,0,0:0:0:0:
95,169,13024,1,0,0:0:0:0:
204,193,13152,1,0,0:0:0:0:
180,88,13279,2,0,L|272:52,1,70
300,176,13533,1,0,0:0:0:0:
155,261,13660,2,0,L|106:311,1,70
309,312,13914,1,0,0:0:0:0:
410,157,14041,2,0,L|391:225,1,70
141,176,14296,1,0,0:0:0:0:
210,115,14423,2,0,L|289:52,1,70
410,242,14677,2,0,L|332:302,1,70
197,315,14931,1,0,0:0:0:0:
77,300,15058,2,0,L|94:200,1,70
162,128,15313,1,0,0:0:0:0:
211,116,15376,1,0,0:0:0:0:
261,129,15440,2,0,L|313:176,1,70
484,174,15694,2,0,L|429:118,1,70
365,75,15948,2,0,L|270:55,1,70
144,328,16202,2,0,L|200:286,1,70,0|0,2:0|2:0,2:0:0:0:
130,92,16457,1,0,0:0:0:0:
211,189,16584,1,0,0:0:0:0:
270,331,16711,2,0,L|290:237,1,70
107,308,16965,1,0,0:0:0:0:
52,187,17092,1,0,0:0:0:0:
412,178,17219,1,0,0:0:0:0:
281,181,17347,1,0,0:0:0:0:
333,302,17474,2,0,L|242:279,1,70
77,140,17728,2,0,L|168:120,1,70
307,89,17982,2,0,L|338:169,1,70
107,308,18236,1,0,0:0:0:0:
182,213,18363,1,0,0:0:0:0:
409,192,18491,2,0,L|322:190,1,70
274,315,18745,2,0,L|329:258,1,70
113,104,18999,1,0,0:0:0:0:
194,322,19126,1,0,0:0:0:0:
92,254,19253,1,0,0:0:0:0:
212,145,19380,1,0,0:0:0:0:
317,102,19508,2,0,L|391:164,1,70
325,292,19762,1,0,0:0:0:0:
325,292,19889,1,0,0:0:0:0:
325,292,20016,2,12,L|349:208,1,70
161,231,20270,2,12,L|115:311,1,70
404,140,20524,2,12,L|319:95,1,70
110,108,20779,2,12,L|196:75,1,70
160,93,23321,2,0,L|91:104,1,70
243,145,23575,2,0,L|277:84,1,70
163,201,23830,1,0,0:0:0:0:
296,226,23957,1,0,0:0:0:0:
217,304,24084,1,0,0:0:0:0:
319,308,24211,2,0,L|413:266,1,70
111,299,24465,1,0,0:0:0:0:
73,180,24592,1,0,0:0:0:0:
198,84,24719,1,0,0:0:0:0:
319,83,24847,2,0,L|267:160,1,70
173,165,25101,2,0,L|197:231,1,70
106,70,25355,2,0,L|19:63,1,70
347,252,25609,2,0,L|285:217,1,70
120,320,25863,1,0,0:0:0:0:
161,336,25927,1,0,0:0:0:0:
209,336,25991,2,0,L|276:268,1,70
182,76,26372,2,0,L|234:146,1,70
262,194,26626,2,0,L|223:125,1,70
55,243,26880,2,0,L|136:205,1,70
327,40,27135,2,0,B|278:112|367:105|385:168|345:243,1,210
268,329,27643,2,0,B|287:222|120:243|162:96,1,245
377,118,28152,2,0,L|303:157,1,70
130,289,28406,2,0,L|227:275,1,70
147,126,28660,1,0,0:0:0:0:
294,277,28787,2,0,L|252:222,1,70
55,223,29041,2,0,L|95:310,1,70
75,71,29296,1,0,0:0:0:0:
182,50,29423,2,0,L|271:83,1,70
415,78,29677,1,0,0:0:0:0:
265,179,29804,2,0,L|325:134,1,70
305,334,30058,2,0,L|379:279,1,70
463,258,30313,1,0,0:0:0:0:
198,297,30440,1,0,0:0:0:0:
80,304,30567,1,0,0:0:0:0:
308,235,30694,1,0,0:0:0:0:
194,149,30821,1,0,0:0:0:0:
91,135,30948,2,0,L|128:221,1,70
308,235,31202,1,0,0:0:0:0:
198,69,31457,2,0,L|312:103,1,70
160,209,31711,2,0,L|216:158,1,70
378,107,31965,1,0,0:0:0:0:
345,209,32092,2,0,L|262:262,1,70
179,335,32347,2,0,L|292:334,1,70
99,113,32601,1,0,0:0:0:0:
229,99,32728,2,0,L|230:184,1,70
345,209,32982,2,0,L|384:298,1,70
247,341,33236,2,0,L|286:277,1,70
307,100,33491,2,0,L|281:190,1,70
46,210,33745,2,0,L|104:170,1,70
234,107,33999,1,0,0:0:0:0:
183,301,34126,2,0,L|212:192,1,70
283,253,34380,1,0,0:0:0:0:
159,146,34508,1,0,0:0:0:0:
102,271,34635,1,0,0:0:0:0:
366,297,34762,1,0,0:0:0:0:
418,195,34889,2,0,L|315:198,1,70
212,212,35143,1,0,0:0:0:0:
102,271,35270,2,0,B|126:344|190:289|234:336,1,140
49,170,35652,2,0,L|136:194,1,70
285,176,35906,1,0,0:0:0:0:
133,111,36033,2,0,L|210:97,1,70
395,144,36287,2,0,P|415:188|403:261,1,105
368,301,36541,1,0,0:0:0:0:
179,229,36669,2,0,B|166:152|247:145|237:77,1,140
82,126,37050,2,0,L|63:215,1,70
363,124,37304,2,0,L|273:153,1,70
125,240,37558,1,0,0:0:0:0:
201,285,37685,2,0,B|268:331|309:235|356:261,1,140
90,109,38067,2,0,L|184:84,1,70
388,111,38321,2,0,B|337:127|309:66|241:88,1,140
210,320,38702,1,0,0:0:0:0:
121,302,38830,1,0,0:0:0:0:
162,174,38957,1,0,0:0:0:0:
330,161,39084,1,0,0:0:0:0:
52,205,39211,1,0,0:0:0:0:
293,271,39338,2,0,L|384:265,1,70
418,132,39592,1,0,0:0:0:0:
321,67,39719,1,0,0:0:0:0:
251,138,39847,2,0,L|194:58,1,70
109,115,40101,1,0,0:0:0:0:
162,262,40228,2,0,L|138:351,1,70
126,163,40482,1,0,0:0:0:0:
83,176,40546,1,0,0:0:0:0:
59,212,40609,2,0,L|39:284,1,70
352,118,40863,2,0,L|453:112,1,70
446,215,41118,1,0,0:0:0:0:
222,39,41245,1,0,0:0:0:0:
164,113,41372,2,0,L|81:106,1,70
157,209,41626,1,0,0:0:0:0:
185,243,41690,1,0,0:0:0:0:
221,259,41753,1,0,0:0:0:0:
324,237,41880,2,0,L|333:335,1,70
401,178,42135,1,0,0:0:0:0:
264,158,42262,1,0,0:0:0:0:
236,271,42389,2,0,L|143:278,1,70
399,181,42643,1,0,0:0:0:0:
246,190,42770,1,0,0:0:0:0:
167,133,42897,2,0,L|231:58,1,70
152,275,43152,1,0,0:0:0:0:
375,300,43279,1,0,0:0:0:0:
375,195,43406,2,0,L|332:108,1,70
211,170,43660,2,0,L|168:98,1,70
70,196,43914,2,0,L|26:277,1,70
319,253,44169,1,0,0:0:0:0:
272,328,44296,1,0,0:0:0:0:
273,138,44423,2,0,L|188:180,1,70
192,276,44677,1,0,0:0:0:0:
435,224,44804,2,0,L|394:308,1,70
108,240,45058,1,0,0:0:0:0:
96,113,45185,2,0,L|189:131,1,70
356,126,45440,2,0,L|260:134,1,70
241,242,45694,1,0,0:0:0:0:
459,235,45821,1,0,0:0:0:0:
108,240,45948,2,0,L|48:317,1,70
336,228,46202,1,0,0:0:0:0:
204,323,46330,1,0,0:0:0:0:
166,111,46457,1,0,0:0:0:0:
305,331,46584,1,0,0:0:0:0:
430,221,46711,1,0,0:0:0:0:
250,180,46838,1,0,0:0:0:0:
105,325,46965,1,0,0:0:0:0:
375,126,47092,1,0,0:0:0:0:
354,293,47219,1,0,0:0:0:0:
140,121,47347,2,0,L|89:192,1,70
331,143,47728,2,0,L|229:151,1,70
230,251,47982,1,0,0:0:0:0:
274,324,48109,1,0,0:0:0:0:
424,201,48236,2,0,L|312:220,1,70
198,133,48491,1,0,0:0:0:0:
105,325,48618,1,0,0:0:0:0:
454,304,48745,1,0,0:0:0:0:
274,324,48872,2,0,L|329:253,1,70
270,179,49126,1,0,0:0:0:0:
86,129,49253,2,0,L|146:82,1,70
401,133,49508,2,0,L|354:220,1,70
168,323,49762,2,0,L|198:250,1,70
250,66,50016,2,0,L|314:137,1,70
313,286,50270,1,0,0:0:0:0:
352,308,50334,1,0,0:0:0:0:
395,317,50397,2,0,P|435:308|477:273,1,70
383,156,50652,1,0,0:0:0:0:
176,261,50779,1,0,0:0:0:0:
81,223,50906,1,0,0:0:0:0:
114,109,51033,1,0,0:0:0:0:
233,99,51160,2,0,B|297:131|337:72|383:103,1,140
249,303,51541,2,0,L|299:240,1,70
366,298,51796,1,0,0:0:0:0:
404,304,51859,1,0,0:0:0:0:
441,306,51923,1,0,0:0:0:0:
421,178,52050,2,0,L|478:236,1,70
103,147,52304,1,0,0:0:0:0:
288,250,52431,1,0,0:0:0:0:
304,160,52558,2,0,L|338:43,1,70
201,297,52813,1,0,0:0:0:0:
203,74,52940,1,0,0:0:0:0:
103,148,53067,2,0,L|15:191,1,70
323,92,53321,1,0,0:0:0:0:
100,271,53448,1,0,0:0:0:0:
388,191,53575,2,0,L|420:257,1,70
291,186,53830,2,0,L|222:168,1,70
448,121,54084,2,0,L|461:48,1,70
231,310,54338,1,0,0:0:0:0:
134,212,54465,1,0,0:0:0:0:
453,295,54592,2,0,L|379:258,1,70
314,161,54847,2,0,L|284:224,1,70
257,88,55101,1,0,0:0:0:0:
414,133,55228,1,0,0:0:0:0:
219,276,55355,2,0,L|264:338,1,70
46,144,55609,2,0,B|203:100|307:302|466:222,1,437.5
92,306,56372,2,0,L|124:242,1,70
231,284,56626,2,0,L|277:361,1,70
362,353,56880,2,0,L|436:310,1,70
123,243,57135,2,0,L|17:245,1,70
398,99,57389,2,0,B|334:151|201:55|144:105,1,262.5
288,200,57897,2,0,L|298:281,1,70
65,288,58152,2,0,L|152:246,1,70
93,162,58406,1,0,0:0:0:0:
241,320,58533,2,0,L|188:226,1,70
382,171,58787,1,0,0:0:0:0:
303,230,58914,2,0,L|363:298,1,70
210,122,59169,2,0,L|138:163,1,70
39,198,59423,2,0,L|42:124,1,70
106,336,59677,2,0,B|254:346|267:158|451:246,1,350
73,74,60440,2,0,B|12:132|63:176|147:251|193:72|309:128,1,350
467,241,61202,2,0,B|494:340|416:318|400:396|264:355|360:82|179:419|97:376|6:312|46:251,1,525
335,186,62219,1,0,0:0:0:0:
486,149,62474,1,0,0:0:0:0:
320,85,62728,1,0,0:0:0:0:
346,295,62982,1,0,0:0:0:0:
193,225,63236,1,0,0:0:0:0:
57,180,63491,2,0,L|135:180,1,70
417,135,63745,1,0,0:0:0:0:
399,289,63999,1,0,0:0:0:0:
169,191,64253,1,0,0:0:0:0:
66,327,64508,1,0,0:0:0:0:
326,146,64762,1,0,0:0:0:0:
377,294,65016,1,0,0:0:0:0:
76,240,65270,1,0,0:0:0:0:
236,157,65524,2,0,L|349:166,1,87.5
370,54,65779,1,0,0:0:0:0:
142,324,66033,1,0,0:0:0:0:
443,233,66287,1,0,0:0:0:0:
63,167,66541,1,0,0:0:0:0:
339,306,66796,1,0,0:0:0:0:
189,147,67050,1,0,0:0:0:0:
97,311,67304,1,0,0:0:0:0:
346,149,67558,1,0,0:0:0:0:
292,301,67685,1,0,0:0:0:0:
63,185,67813,2,0,L|106:96,1,70
224,89,68067,1,0,0:0:0:0:
129,269,68194,2,0,L|212:267,1,70
394,75,68448,1,0,0:0:0:0:
225,180,68575,1,0,0:0:0:0:
410,197,68702,2,0,L|374:277,1,70
306,136,68957,1,0,0:0:0:0:
266,277,69084,2,0,L|331:347,1,70
208,52,69338,1,0,0:0:0:0:
39,175,69465,1,0,0:0:0:0:
131,137,69592,2,0,L|224:136,1,70
338,97,69847,1,0,0:0:0:0:
163,226,69974,1,0,0:0:0:0:
141,261,70037,1,0,0:0:0:0:
137,302,70101,1,0,0:0:0:0:
159,337,70164,1,0,0:0:0:0:
197,354,70228,1,0,0:0:0:0:
239,353,70291,1,0,0:0:0:0:
276,333,70355,1,0,0:0:0:0:
296,297,70418,1,0,0:0:0:0:
298,255,70482,1,0,0:0:0:0:
293,214,70546,1,0,0:0:0:0:
289,172,70609,1,0,0:0:0:0:
293,130,70673,1,0,0:0:0:0:
311,93,70736,1,0,0:0:0:0:
345,68,70800,1,0,0:0:0:0:
386,63,70863,1,0,0:0:0:0:
425,77,70927,1,0,0:0:0:0:
455,106,70990,1,0,0:0:0:0:
472,144,71054,1,0,0:0:0:0:
474,186,71118,1,0,0:0:0:0:
457,224,71181,1,0,0:0:0:0:
422,245,71245,1,0,0:0:0:0:
380,245,71308,1,0,0:0:0:0:
339,234,71372,1,0,0:0:0:0:
301,218,71435,1,0,0:0:0:0:
263,200,71499,1,0,0:0:0:0:
225,181,71562,1,0,0:0:0:0:
186,166,71626,1,0,0:0:0:0:
145,157,71690,1,0,0:0:0:0:
103,160,71753,1,0,0:0:0:0:
384,156,71880,1,0,0:0:0:0:
224,276,72389,1,0,0:0:0:0:
252,66,72897,1,0,0:0:0:0:
425,317,73406,1,0,0:0:0:0:
249,144,73914,2,0,B|169:259|85:97|-35:305|98:348,1,315.000012016297
268,37,74423,2,0,B|415:58|310:219|475:266,1,315.000012016297
210,202,74931,2,0,B|261:290|333:259|361:341,1,210.000008010865
92,298,75313,2,0,L|161:248,1,70
92,196,75567,1,0,0:0:0:0:
231,328,75694,2,0,L|305:263,1,70
387,145,75948,2,0,L|303:189,1,70
206,84,76202,1,0,0:0:0:0:
148,256,76330,1,0,0:0:0:0:
248,206,76457,2,0,L|314:155,1,70
448,326,76711,2,0,L|383:268,1,70
466,200,76965,1,0,0:0:0:0:
276,327,77092,2,0,L|177:331,2,70
88,75,77474,2,0,L|84:165,1,70
323,132,77728,2,0,L|387:76,1,70
214,167,77982,2,0,L|122:184,1,70
259,72,78236,1,0,0:0:0:0:
182,264,78363,2,0,L|242:317,1,70
71,280,78618,1,0,0:0:0:0:
316,244,78745,1,0,0:0:0:0:
421,188,78872,2,0,L|383:130,1,70
471,297,79126,1,0,0:0:0:0:
305,326,79253,2,0,L|221:342,1,70
181,157,79508,1,0,0:0:0:0:
63,68,79635,2,0,L|64:163,1,70
270,173,79889,2,0,L|326:107,1,70
144,252,80143,1,0,0:0:0:0:
25,168,80270,1,0,0:0:0:0:
43,312,80397,1,0,0:0:0:0:
210,334,80524,2,0,L|296:291,1,70
416,327,80779,1,0,0:0:0:0:
284,228,80906,1,0,0:0:0:0:
403,185,81033,2,0,L|341:264,1,70
156,88,81287,1,0,0:0:0:0:
345,101,81414,1,0,0:0:0:0:
177,198,81541,1,0,0:0:0:0:
128,214,81605,1,0,0:0:0:0:
79,197,81669,2,0,L|31:139,1,70
390,269,82050,2,0,P|344:262|297:291,1,87.5
168,334,82304,2,0,P|217:336|261:311,1,87.5
283,164,82558,2,0,B|306:78|437:156|469:48,1,218.75
32,69,83067,2,0,B|43:153|139:113|125:227,1,175
44,296,83448,2,0,P|45:251|49:204,1,87.5
461,151,83830,2,0,L|351:125,1,87.5
241,125,84084,1,0,0:0:0:0:
195,153,84147,1,0,0:0:0:0:
178,205,84211,1,0,0:0:0:0:
215,324,84338,2,0,L|334:338,1,87.5
426,328,84592,2,0,P|446:280|440:241,1,87.5
434,201,84783,1,0,0:0:0:0:
414,153,84847,1,0,0:0:0:0:
369,126,84910,1,0,0:0:0:0:
58,42,85101,2,0,L|129:110,1,87.5
41,238,85355,2,0,L|101:147,1,87.5
171,332,85609,2,0,L|110:258,1,87.5
264,89,85863,2,0,L|176:83,1,87.5
386,121,86118,1,0,0:0:0:0:
266,211,86245,1,0,0:0:0:0:
456,311,86372,2,0,L|391:209,1,87.5
198,325,86626,1,0,0:0:0:0:
325,328,86753,1,0,0:0:0:0:
115,225,86880,2,0,L|67:298,1,87.5
119,51,87135,1,0,0:0:0:0:
36,140,87262,1,0,0:0:0:0:
258,186,87389,2,0,L|184:132,1,87.5
413,194,87643,2,0,L|432:308,2,87.5
77,52,88152,2,0,L|122:158,1,87.5
238,66,88406,2,0,L|346:80,1,87.5
240,250,88660,2,0,L|306:326,1,87.5
138,209,88914,2,0,L|104:295,1,87.5
336,149,89169,1,0,0:0:0:0:
448,64,89296,1,0,0:0:0:0:
357,237,89423,1,0,0:0:0:0:
353,339,89550,1,0,0:0:0:0:
468,176,89677,1,0,0:0:0:0:
449,305,89804,1,0,0:0:0:0:
249,314,89931,1,0,0:0:0:0:
79,55,90185,2,0,B|55:153|157:127|126:248,1,175
171,71,90567,1,0,0:0:0:0:
48,203,90693,1,0,0:0:0:0:
217,182,90821,2,0,L|291:115,2,87.5
111,283,91202,2,0,L|37:350,2,87.5
242,309,91584,1,0,0:0:0:0:
344,251,91711,2,0,L|392:177,1,87.5
266,84,91965,2,0,L|300:169,1,87.5
371,63,92219,1,0,0:0:0:0:
194,207,92347,1,0,0:0:0:0:
152,104,92474,1,0,0:0:0:0:
128,300,92601,1,0,0:0:0:0:
72,195,92727,1,0,0:0:0:0:
249,306,92855,1,0,0:0:0:0:
410,199,92982,2,0,L|345:257,1,87.5
477,142,93236,2,0,B|428:62|282:166|235:44,1,262.5
453,295,93745,1,0,0:0:0:0:
93,65,93999,1,0,0:0:0:0:
149,204,94126,1,0,0:0:0:0:
197,109,94253,2,0,L|281:46,1,87.5
51,164,94508,1,0,0:0:0:0:
272,177,94635,2,0,L|236:272,1,87.5
50,321,95016,2,0,L|152:330,1,87.5
364,326,95270,1,0,0:0:0:0:
308,222,95397,1,0,0:0:0:0:
231,327,95524,1,0,0:0:0:0:
444,231,95652,1,0,0:0:0:0:
171,231,95779,2,0,L|75:247,1,87.5
379,147,96033,2,0,L|466:59,1,87.5
305,66,96287,2,0,B|237:35|122:85|253:174|149:250,1,262.5
61,212,96796,2,0,B|98:175|35:96|94:37,1,175
286,155,97177,1,0,0:0:0:0:
79,329,97304,2,0,B|139:266|267:356|379:364|403:278,1,350
465,164,97940,1,0,0:0:0:0:
290,237,98067,1,0,0:0:0:0:
475,339,98194,1,0,0:0:0:0:
174,229,98321,2,0,L|160:111,1,87.5
403,251,98448,1,0,0:0:0:0:
347,109,98575,2,0,L|245:117,1,87.5
64,185,98830,1,0,0:0:0:0:
228,335,99084,1,0,0:0:0:0:
65,333,99338,1,0,0:0:0:0:
135,53,99592,2,0,L|247:42,1,87.5
174,229,99847,1,0,0:0:0:0:
328,186,100101,2,0,L|306:281,1,87.5
465,150,100355,1,0,0:0:0:0:
271,82,100482,1,0,0:0:0:0:
399,52,100609,1,0,0:0:0:0:
413,240,100736,1,0,0:0:0:0:
481,326,100863,1,0,0:0:0:0:
89,153,101118,2,0,L|52:263,1,87.5
191,230,101372,1,0,0:0:0:0:
139,335,101499,1,0,0:0:0:0:
286,311,101626,1,0,0:0:0:0:
231,112,101753,1,0,0:0:0:0:
132,45,101880,1,0,0:0:0:0:
315,209,102008,2,0,L|412:193,1,87.5
466,124,102262,1,0,0:0:0:0:
393,39,102389,2,0,L|347:114,1,87.5
383,297,102643,1,0,0:0:0:0:
485,237,102770,1,0,0:0:0:0:
488,342,102897,1,0,0:0:0:0:
285,337,103024,1,0,0:0:0:0:
157,320,103152,2,0,L|217:241,1,87.5
148,78,103406,2,0,B|93:104|132:155|133:218|262:74|302:245,1,262.5
397,48,103914,2,0,B|331:21|311:119|211:70,1,175
256,192,104423,12,0,106075,0:0:0:0:
191,305,106202,5,0,0:0:0:0:
76,156,106330,1,0,0:0:0:0:
323,143,106457,1,0,0:0:0:0:
256,192,106584,12,0,107982,0:0:0:0:
202,256,116880,6,0,L|254:169,1,87.5
317,257,117135,2,0,L|268:346,1,87.5
181,66,117389,1,0,0:0:0:0:
49,125,117516,1,0,0:0:0:0:
142,191,117643,1,0,0:0:0:0:
46,291,117770,1,0,0:0:0:0:
185,333,117897,1,0,0:0:0:0:
351,338,118024,1,0,0:0:0:0:
266,153,118152,1,0,0:0:0:0:
368,77,118406,1,0,0:0:0:0:
480,227,118660,1,0,0:0:0:0:
159,255,118914,1,0,0:0:0:0:
310,235,119169,1,0,0:0:0:0:
173,126,119423,1,0,0:0:0:0:
466,134,119550,1,0,0:0:0:0:
462,278,119677,1,0,0:0:0:0:
163,322,119931,1,0,0:0:0:0:
77,146,120185,1,0,0:0:0:0:
295,176,120440,1,0,0:0:0:0:
52,253,120694,2,0,B|151:270|182:226|219:170|319:177,1,262.5
363,305,121202,2,0,P|312:286|281:251,1,87.5
322,88,121457,2,0,P|366:116|383:149,1,87.5
64,306,121711,1,0,0:0:0:0:
106,174,121838,1,0,0:0:0:0:
187,312,121965,1,0,0:0:0:0:
297,170,122092,1,0,0:0:0:0:
437,242,122219,2,0,L|411:154,1,87.5
312,302,122474,1,0,0:0:0:0:
201,130,122601,1,0,0:0:0:0:
93,71,122728,5,0,0:0:0:0:
93,71,122791,1,0,0:0:0:0:
93,71,122855,1,0,0:0:0:0:
214,246,122982,5,0,0:0:0:0:
423,298,123236,1,0,0:0:0:0:
46,233,123491,1,0,0:0:0:0:
170,105,123745,1,0,0:0:0:0:
343,62,123999,1,0,0:0:0:0:
346,295,124253,1,0,0:0:0:0:
236,187,124508,1,0,0:0:0:0:
85,77,125016,2,0,L|165:146,1,87.5
394,92,125270,1,0,0:0:0:0:
267,75,125397,1,0,0:0:0:0:
155,256,125524,2,0,P|115:274|72:277,2,87.5
265,324,125906,2,0,P|312:346|381:328,1,87.5
393,244,126160,1,0,0:0:0:0:
309,147,126287,2,0,P|265:141|223:106,1,87.5
105,175,126541,2,0,L|150:88,1,87.5
241,231,126796,2,0,P|276:274|321:301,1,87.5
436,128,127050,2,0,P|420:191|385:229,1,87.5
191,101,127304,2,0,P|235:76|279:72,1,87.5
117,195,127558,2,0,L|91:287,2,87.5
348,293,127940,1,0,0:0:0:0:
235,237,128067,1,0,0:0:0:0:
398,177,128194,1,0,0:0:0:0:
454,300,128321,1,0,0:0:0:0:
186,342,128448,2,0,L|85:311,1,87.5
164,83,128702,1,0,0:0:0:0:
80,173,128830,2,0,B|141:235|198:113|272:164,1,175
364,334,129211,2,0,B|413:295|367:242|320:208|371:155,1,175
331,64,129592,2,0,P|374:65|413:83,1,87.5
454,249,129847,2,0,P|469:203|458:154,1,87.5
252,208,130101,1,0,0:0:0:0:
226,326,130228,1,0,0:0:0:0:
79,222,130355,1,0,0:0:0:0:
91,249,130419,1,0,0:0:0:0:
104,278,130482,1,0,0:0:0:0:
73,116,130609,2,0,L|156:83,1,87.5
351,98,130863,2,0,L|264:57,1,87.5
362,232,131118,1,0,0:0:0:0:
449,90,131245,1,0,0:0:0:0:
467,219,131372,2,0,L|469:317,1,87.5
279,162,131626,1,0,0:0:0:0:
101,168,131753,1,0,0:0:0:0:
95,202,131816,1,0,0:0:0:0:
103,236,131880,1,0,0:0:0:0:
124,264,131943,1,0,0:0:0:0:
154,280,132007,1,0,0:0:0:0:
188,288,132070,1,0,0:0:0:0:
223,291,132134,1,0,0:0:0:0:
258,296,132197,1,0,0:0:0:0:
289,312,132261,1,0,0:0:0:0:
198,194,132389,2,0,L|305:153,1,87.5
105,54,132897,5,0,0:0:0:0:
406,183,133152,1,0,0:0:0:0:
105,253,133406,2,0,L|183:304,1,70
343,313,133660,1,0,0:0:0:0:
279,102,133787,1,0,0:0:0:0:
322,230,133914,1,0,0:0:0:0:
81,105,134041,2,0,L|126:208,1,70
220,288,134296,1,0,0:0:0:0:
408,171,134423,1,0,0:0:0:0:
239,179,134550,1,0,0:0:0:0:
126,284,134677,2,0,L|79:213,1,70
226,93,134931,2,0,L|309:123,1,70
310,306,135185,2,0,L|230:354,1,70
64,317,135440,2,0,L|128:282,1,70
397,211,135694,1,0,0:0:0:0:
91,183,135821,1,0,0:0:0:0:
173,89,135948,2,0,L|223:173,1,70
233,269,136202,1,0,0:0:0:0:
125,283,136329,1,0,0:0:0:0:
356,323,136456,1,0,0:0:0:0:
460,293,136583,1,0,0:0:0:0:
375,195,136711,2,0,L|332:108,1,70
211,170,136965,2,0,L|168:98,1,70
70,196,137219,2,0,L|26:277,1,70
319,253,137474,1,0,0:0:0:0:
272,328,137601,1,0,0:0:0:0:
273,138,137728,2,0,L|188:180,1,70
192,276,137982,1,0,0:0:0:0:
435,224,138109,1,0,0:0:0:0:
368,331,138236,1,0,0:0:0:0:
108,240,138363,1,0,0:0:0:0:
96,113,138490,2,0,L|189:131,1,70
356,126,138745,2,0,L|260:134,1,70
407,246,138999,1,0,0:0:0:0:
407,246,139063,1,0,0:0:0:0:
407,246,139126,1,0,0:0:0:0:
108,240,139253,1,0,0:0:0:0:
255,340,139508,1,0,0:0:0:0:
125,79,139762,1,0,0:0:0:0:
337,260,140016,1,0,0:0:0:0:
309,73,140270,1,0,0:0:0:0:
96,333,140524,1,0,0:0:0:0:
233,191,140779,1,0,0:0:0:0:
274,48,141033,2,0,P|322:86|323:146,1,87.5
397,323,141287,2,0,B|449:296|443:225,1,87.5
375,190,141541,2,0,P|407:161|450:154,1,87.5
299,272,141796,1,0,0:0:0:0:
174,297,141923,2,0,B|92:322|92:322|150:250|133:153,1,262.5
264,160,142431,1,0,0:0:0:0:
45,211,142558,2,0,P|41:165|57:122,1,87.5
221,56,142813,2,0,P|167:50|125:59,1,87.5
323,61,143067,1,0,0:0:0:0:
354,64,143130,1,0,0:0:0:0:
387,84,143194,1,0,0:0:0:0:
436,241,143321,2,0,P|448:202|414:137,1,87.5
272,328,143575,2,0,L|364:293,1,87.5
455,341,143830,1,0,0:0:0:0:
292,224,143957,2,0,B|239:204|172:244|183:373|103:367|26:331|37:249|85:226,1,350
148,148,144592,1,0,0:0:0:0:
270,117,144719,2,0,L|374:82,2,87.5
408,264,145101,2,0,L|370:171,1,87.5
414,40,145355,2,0,L|479:209,1,175
303,213,145736,1,0,0:0:0:0:
79,339,145863,2,0,P|59:290|75:228,1,87.5
155,279,146118,2,0,P|198:283|239:253,2,87.5
123,181,146499,1,0,0:0:0:0:
100,47,146626,1,0,0:0:0:0:
28,126,146753,1,0,0:0:0:0:
197,97,146880,2,0,P|228:130|239:203,1,87.5
392,53,147135,2,0,L|272:55,1,87.5
465,144,147389,1,0,0:0:0:0:
375,228,147516,2,0,L|345:139,2,87.5
265,210,147897,2,0,L|175:236,1,87.5
473,276,148152,2,0,B|450:327|385:366|326:303|300:284|237:350|209:349,1,262.5
87,281,148660,2,0,L|144:358,1,87.5
180,234,148914,1,0,0:0:0:0:
24,210,149041,1,0,0:0:0:0:
107,134,149169,2,0,B|46:173|-16:89|22:21|94:-3|212:10|104:147|238:123|300:49,1,393.75
303,220,149931,2,0,L|355:130,1,87.5
438,122,150185,2,0,L|377:58,1,87.5
413,204,150440,2,0,L|362:311,1,87.5
155,261,150694,1,0,0:0:0:0:
266,316,150821,1,0,0:0:0:0:
156,168,150948,2,0,P|54:235|86:328,1,218.75
250,218,151457,2,0,P|278:189|285:127,1,87.5
73,59,151711,1,0,0:0:0:0:
192,96,151838,1,0,0:0:0:0:
309,67,151965,2,0,P|362:51|421:66,1,87.5
364,229,152219,2,0,P|376:174|364:130,1,87.5
454,315,152474,1,0,0:0:0:0:
470,173,152601,1,0,0:0:0:0:
345,330,152728,2,0,P|288:333|248:297,1,87.5
215,149,152982,2,0,P|257:185|261:249,1,87.5
131,343,153236,2,0,B|177:319|186:279|172:251|137:223|107:197|105:158|93:116|128:82|166:59|209:60,1,350
473,309,153999,2,0,B|397:252|329:210|404:100|372:126|316:26|247:55,1,350
186,82,154762,2,0,B|200:145|258:144|280:122|289:151|295:170|268:220|295:257|311:296|344:321|360:341|360:341|286:314|213:354|127:296|98:293|107:239|113:194|134:140|134:140|152:171|184:191|216:203|216:203|222:244|233:270,1,875
55,335,156287,1,0,0:0:0:0:
280,62,156541,2,0,P|336:89|351:120,1,87.5
78,85,156796,2,0,B|116:38|174:55|176:56,1,87.5
269,160,157050,2,0,B|262:226|324:259,1,87.5
434,135,157304,2,0,P|402:169|345:175,1,87.5
170,155,157558,1,0,0:0:0:0:
170,155,157622,1,0,0:0:0:0:
170,155,157685,1,0,0:0:0:0:
84,247,157813,2,0,P|58:209|58:167,1,87.5
50,334,158067,2,0,P|109:342|152:313,1,87.5
191,249,158321,1,0,0:0:0:0:
191,249,158385,1,0,0:0:0:0:
191,249,158448,1,0,0:0:0:0:
283,265,158575,2,0,P|283:227|250:175,1,87.5
225,341,158830,1,0,0:0:0:0:
321,341,158957,1,0,0:0:0:0:
379,270,159084,2,0,L|430:367,1,87.5
362,176,159338,1,0,0:0:0:0:
362,176,159402,1,0,0:0:0:0:
362,176,159465,1,0,0:0:0:0:
463,214,159592,2,0,L|455:123,1,87.5
333,84,159847,1,0,0:0:0:0:
434,35,159974,1,0,0:0:0:0:
238,53,160101,2,0,P|231:106|262:149,1,87.5
128,87,160355,1,0,0:0:0:0:
128,87,160419,1,0,0:0:0:0:
128,87,160482,1,0,0:0:0:0:
65,250,160609,2,0,L|68:157,1,87.5
161,262,160863,1,0,0:0:0:0:
430,262,160991,1,0,0:0:0:0:
257,205,161118,1,0,0:0:0:0:
301,202,161182,1,0,0:0:0:0:
343,208,161245,1,0,0:0:0:0:
330,306,161372,2,0,P|363:343|428:348,1,87.5
104,342,161626,1,0,0:0:0:0:
65,250,161753,1,0,0:0:0:0:
214,326,161880,2,0,P|186:277|136:255,1,87.5
183,147,162135,1,0,0:0:0:0:
279,103,162262,1,0,0:0:0:0:
68,46,162389,1,0,0:0:0:0:
74,146,162516,1,0,0:0:0:0:
184,50,162643,1,0,0:0:0:0:
280,196,162770,2,0,P|245:233|199:248,1,87.5
382,153,163024,1,0,0:0:0:0:
374,48,163152,2,0,P|427:56|471:99,1,87.5
473,174,163406,1,0,0:0:0:0:
460,215,163469,1,0,0:0:0:0:
439,254,163533,1,0,0:0:0:0:
407,283,163596,1,0,0:0:0:0:
365,294,163660,1,0,0:0:0:0:
323,282,163723,1,0,0:0:0:0:
293,252,163787,1,0,0:0:0:0:
275,212,163850,1,0,0:0:0:0:
262,170,163914,1,0,0:0:0:0:
246,129,163978,1,0,0:0:0:0:
218,96,164041,1,0,0:0:0:0:
179,78,164105,1,0,0:0:0:0:
135,79,164168,1,0,0:0:0:0:
95,94,164232,1,0,0:0:0:0:
62,123,164295,1,0,0:0:0:0:
41,161,164359,1,0,0:0:0:0:
34,204,164422,1,0,0:0:0:0:
41,247,164486,1,0,0:0:0:0:
61,285,164550,1,0,0:0:0:0:
95,312,164613,1,0,0:0:0:0:
137,320,164677,1,0,0:0:0:0:
179,308,164740,1,0,0:0:0:0:
215,283,164804,1,0,0:0:0:0:
244,250,164867,1,0,0:0:0:0:
270,215,164931,1,0,0:0:0:0:
294,179,164994,1,0,0:0:0:0:
319,143,165058,1,0,0:0:0:0:
348,110,165122,1,0,0:0:0:0:
387,91,165185,1,0,0:0:0:0:
163,127,165440,1,0,0:0:0:0:
265,46,165567,1,0,0:0:0:0:
47,311,165948,1,0,0:0:0:0:
176,320,166075,1,0,0:0:0:0:
38,46,166457,1,0,0:0:0:0:
90,153,166584,1,0,0:0:0:0:
294,191,166965,1,0,0:0:0:0:
386,116,167093,1,0,0:0:0:0:
459,260,167474,2,0,B|310:219|421:57|268:37,1,315.000012016297
66,260,167983,2,0,B|0:200|131:42|186:217|284:117,1,315.000012016297
151,232,168491,2,0,B|217:308|282:264|325:339,1,210.000008010865
297,212,168873,2,0,P|339:195|373:140,1,105.000004005432
183,52,169127,1,0,0:0:0:0:
26,135,169254,2,0,P|50:96|108:68,1,105.000004005432
117,157,169508,2,0,P|102:206|45:233,1,105.000004005432
208,129,169762,1,0,0:0:0:0:
139,287,169890,1,0,0:0:0:0:
199,219,170017,2,0,L|315:197,1,105.000004005432
337,346,170271,2,0,L|225:296,1,105.000004005432
291,102,170525,1,0,0:0:0:0:
386,257,170652,2,0,P|404:206|376:136,2,105.000004005432
378,64,171033,2,0,P|442:77|479:134,1,105.000004005432
447,332,171287,1,0,0:0:0:0:
489,215,171414,1,0,0:0:0:0:
324,200,171541,2,0,B|293:249|203:216,1,105.000004005432
329,311,171796,1,0,0:0:0:0:
259,120,171923,1,0,0:0:0:0:
259,120,171986,1,0,0:0:0:0:
259,120,172050,1,0,0:0:0:0:
148,104,172177,1,0,0:0:0:0:
65,171,172304,1,0,0:0:0:0:
76,274,172431,1,0,0:0:0:0:
165,199,172558,2,0,P|179:251|171:324,1,105.000004005432
283,219,172813,1,0,0:0:0:0:
266,319,172940,2,0,P|324:314|366:265,1,105.000004005432
453,331,173194,1,0,0:0:0:0:
390,180,173321,1,0,0:0:0:0:
422,202,173384,1,0,0:0:0:0:
453,228,173448,1,0,0:0:0:0:
485,133,173575,2,0,L|428:38,1,105.000004005432
192,205,173830,1,0,0:0:0:0:
278,135,173957,1,0,0:0:0:0:
130,119,174084,2,0,B|181:126|188:121|196:64|229:9|332:23|372:59|392:135|361:177,1,315.000012016297
232,313,174592,2,0,P|276:284|281:191,1,105.000004005432
412,253,174847,1,0,0:0:0:0:
342,338,174974,1,0,0:0:0:0:
467,336,175101,1,0,0:0:0:0:
371,171,175228,1,0,0:0:0:0:
466,79,175355,1,0,0:0:0:0:
230,126,175482,1,0,0:0:0:0:
141,55,175609,2,0,B|61:158|169:176|183:297|48:343,1,315.000012016297
48,220,176118,2,0,B|108:304|198:249|262:218|323:253|355:323,1,315.000012016297
214,339,176626,2,0,B|334:277|197:197|310:88|448:184,1,315.000012016297
361,243,177135,1,0,0:0:0:0:
343,345,177262,1,0,0:0:0:0:
438,323,177389,2,0,P|463:261|439:192,1,105.000004005432
328,88,177643,1,0,0:0:0:0:
372,98,177707,1,0,0:0:0:0:
407,132,177770,1,0,0:0:0:0:
219,83,177897,1,0,0:0:0:0:
158,208,178024,1,0,0:0:0:0:
101,103,178152,1,0,0:0:0:0:
259,173,178279,1,0,0:0:0:0:
253,291,178406,1,0,0:0:0:0:
214,320,178469,1,0,0:0:0:0:
164,327,178533,1,0,0:0:0:0:
43,331,178660,2,0,B|148:257|26:164|137:97|219:115,1,315.000012016297
188,220,179169,1,0,0:0:0:0:
142,33,179296,1,0,0:0:0:0:
264,37,179423,2,0,L|344:120,1,87.5
461,112,179677,2,0,L|373:30,1,87.5
323,222,179931,2,0,L|392:154,1,87.5
167,96,180185,1,0,0:0:0:0:
245,154,180313,1,0,0:0:0:0:
304,333,180440,2,0,P|246:337|210:320,1,87.5
109,192,180694,2,0,B|106:246|129:293|137:344|100:353|-2:359|8:246|52:209|99:258|150:277|188:234,1,315.000012016297
241,243,181202,2,0,B|293:229|339:195|346:156|292:93|352:59|403:63,1,262.500010013581
420,162,181711,2,0,B|336:194|271:119|239:72|150:31|81:74,1,350
132,163,182474,1,0,0:0:0:0:
176,275,182601,1,0,0:0:0:0:
68,290,182728,1,0,0:0:0:0:
279,325,182855,1,0,0:0:0:0:
278,194,182982,1,0,0:0:0:0:
441,222,183109,1,0,0:0:0:0:
381,321,183236,1,0,0:0:0:0:
499,334,183363,1,0,0:0:0:0:
299,68,183491,2,0,P|351:66|403:84,1,87.5
68,205,183745,2,0,P|116:133|209:83,1,175
57,46,184126,1,0,0:0:0:0:
172,245,184253,2,0,P|141:286|103:309,1,87.5
272,258,184508,1,0,0:0:0:0:
206,347,184635,1,0,0:0:0:0:
369,298,184762,2,0,P|375:242|338:194,1,87.5
417,38,185016,1,0,0:0:0:0:
304,140,185143,1,0,0:0:0:0:
424,145,185270,2,0,P|476:171|504:209,1,87.5
445,313,185524,1,0,0:0:0:0:
403,303,185588,1,0,0:0:0:0:
373,273,185652,1,0,0:0:0:0:
291,201,185779,2,0,P|255:176|214:164,1,87.5
153,296,186033,1,0,0:0:0:0:
183,317,186097,1,0,0:0:0:0:
225,322,186160,1,0,0:0:0:0:
135,151,186287,1,0,0:0:0:0:
54,298,186414,1,0,0:0:0:0:
71,78,186541,1,0,0:0:0:0:
35,193,186669,1,0,0:0:0:0:
242,100,186796,2,0,P|195:60|142:57,1,87.5
369,47,187050,2,0,B|327:99|326:142|341:183|365:218|381:228,1,175
462,149,187431,1,0,0:0:0:0:
74,201,187558,1,0,0:0:0:0:
233,189,187685,1,0,0:0:0:0:
345,303,187813,1,0,0:0:0:0:
182,301,187940,1,0,0:0:0:0:
401,48,188067,1,0,0:0:0:0:
462,149,188194,1,0,0:0:0:0:
49,172,188575,2,0,L|77:277,1,87.5
158,182,188830,2,0,L|194:68,1,87.5
272,324,189084,1,0,0:0:0:0:
163,287,189211,1,0,0:0:0:0:
394,319,189338,1,0,0:0:0:0:
425,311,189402,1,0,0:0:0:0:
459,283,189465,1,0,0:0:0:0:
364,232,189592,2,0,L|390:121,1,87.5
408,89,189847,2,0,P|472:121|519:173,2,131.25
362,75,190291,1,0,0:0:0:0:
320,66,190355,1,0,0:0:0:0:
272,66,190419,1,0,0:0:0:0:
231,79,190482,1,0,0:0:0:0:
198,100,190546,1,0,0:0:0:0:
155,121,190609,1,0,0:0:0:0:
109,119,190673,1,0,0:0:0:0:
71,98,190736,1,0,0:0:0:0:
234,232,190863,2,0,P|188:240|117:211,1,87.5
358,289,191118,1,0,0:0:0:0:
317,160,191245,1,0,0:0:0:0:
482,326,191372,1,0,0:0:0:0:
428,200,191499,1,0,0:0:0:0:
261,331,191626,1,0,0:0:0:0:
417,92,191753,1,0,0:0:0:0:
234,232,191880,2,0,P|188:240|121:207,1,87.5
98,128,192135,1,0,0:0:0:0:
79,322,192262,1,0,0:0:0:0:
34,219,192389,2,0,P|99:233|152:218,1,87.5
232,152,192643,2,0,L|302:253,1,87.5
339,55,192897,2,0,L|356:146,1,87.5
472,264,193152,1,0,0:0:0:0:
495,85,193279,1,0,0:0:0:0:
185,280,193406,1,0,0:0:0:0:
346,171,193533,1,0,0:0:0:0:
352,286,193660,2,0,P|330:327|284:348,1,87.5
186,111,193914,2,0,P|228:153|237:217,1,87.5
108,193,194169,1,0,0:0:0:0:
293,55,194296,1,0,0:0:0:0:
68,73,194423,1,0,0:0:0:0:
50,305,194550,1,0,0:0:0:0:
178,312,194677,2,0,P|232:307|272:274,1,87.5
336,212,194931,2,0,P|381:236|406:305,1,87.5
456,338,195185,1,0,0:0:0:0:
375,108,195312,1,0,0:0:0:0:
478,216,195439,1,0,0:0:0:0:
213,155,195567,1,0,0:0:0:0:
141,203,196965,2,0,L|397:115,1,262.5
360,250,197474,2,0,L|249:277,1,87.5
488,321,197728,2,0,L|456:208,1,87.5
256,192,197982,12,0,199635,0:0:0:0:
388,306,199762,5,0,0:0:0:0:
134,250,199889,1,0,0:0:0:0:
331,151,200016,1,0,0:0:0:0:
256,192,200143,12,0,201541,0:0:0:0:
63,261,201796,5,0,0:0:0:0:
206,71,201923,1,0,0:0:0:0:
121,133,202050,2,0,B|163:230|246:191|317:161|360:252,1,262.5
228,354,202558,2,0,L|272:273,1,87.5
319,96,202813,2,0,B|220:99,1,87.5
475,151,203067,2,0,P|460:206|473:255,1,87.5
346,322,203321,2,0,P|407:330|461:309,1,87.5
121,314,203575,2,0,L|84:215,1,87.5
148,120,203830,2,0,L|185:219,1,87.5
307,139,204084,2,0,L|397:177,1,87.5
240,306,204338,2,0,L|274:225,1,87.5
417,320,204592,1,0,0:0:0:0:
166,44,204847,1,0,0:0:0:0:
79,255,205101,1,0,0:0:0:0:
423,160,205355,1,0,0:0:0:0:
248,292,205609,1,0,0:0:0:0:
279,91,205863,1,0,0:0:0:0:
112,141,206118,2,0,L|205:177,1,87.5
331,175,206372,1,0,0:0:0:0:
256,253,206499,1,0,0:0:0:0:
434,247,206626,1,0,0:0:0:0:
430,147,206753,1,0,0:0:0:0:
349,314,206880,1,0,0:0:0:0:
239,349,207008,1,0,0:0:0:0:
229,146,207135,1,0,0:0:0:0:
321,69,207262,1,0,0:0:0:0:
221,256,207389,1,0,0:0:0:0:
97,304,207516,1,0,0:0:0:0:
95,200,207643,1,0,0:0:0:0:
131,85,207770,1,0,0:0:0:0:
247,101,207897,1,0,0:0:0:0:
339,173,208024,1,0,0:0:0:0:
441,140,208152,1,0,0:0:0:0:
424,18,208279,1,0,0:0:0:0:
172,208,208406,2,0,P|181:250|217:289,1,87.5
299,329,208660,1,0,0:0:0:0:
395,296,208787,1,0,0:0:0:0:
422,197,208914,1,0,0:0:0:0:
348,122,209041,1,0,0:0:0:0:
299,33,209169,1,0,0:0:0:0:
95,326,209423,1,0,0:0:0:0:
59,57,209677,1,0,0:0:0:0:
330,253,209931,1,0,0:0:0:0:
36,224,210185,2,0,P|106:217|141:177,1,87.5
206,140,210440,1,0,0:0:0:0:
461,79,210694,1,0,0:0:0:0:
152,306,210948,1,0,0:0:0:0:
499,345,211202,1,0,0:0:0:0:
63,56,211457,1,0,0:0:0:0:
349,228,211711,1,0,0:0:0:0:
35,183,211965,2,0,P|131:158|165:101,1,131.25
196,95,212219,2,0,P|253:115|296:202,1,131.25
301,231,212474,2,0,P|279:279|209:311,1,131.25
147,310,212728,2,0,P|99:288|67:218,1,131.25
65,156,212982,2,0,P|87:108|157:76,1,131.25
214,30,213236,2,0,P|227:102|275:158,1,131.25
336,109,213491,2,0,P|287:167|285:243,1,131.25
370,249,213745,2,0,P|295:245|239:294,1,131.25
168,298,213999,2,0,P|249:301|316:328,1,131.25
436,332,214253,2,0,P|454:251|498:163,1,175
174,88,214762,2,0,P|226:82|257:62,1,87.5
48,233,215016,1,0,0:0:0:0:
177,251,215143,1,0,0:0:0:0:
261,348,215270,1,0,0:0:0:0:
361,190,215524,1,0,0:0:0:0:
121,222,215779,1,0,0:0:0:0:
259,240,216033,1,0,0:0:0:0:
429,197,216287,2,0,B|358:205|365:304|287:312,1,175
288,158,216669,1,0,0:0:0:0:
94,105,216796,2,0,B|81:195|199:169|181:285,1,175
283,192,217177,1,0,0:0:0:0:
183,81,217304,2,0,B|271:144|310:-19|454:35|493:93,1,315.000012016297
411,141,217813,2,0,P|328:169|445:190,1,315.000012016297,0|0,2:0|2:0,2:0:0:0:
48,216,218321,2,0,B|99:165|114:73,1,157.500006008148
209,87,218575,2,0,P|197:151|207:196,1,105.000004005432
63,306,218830,2,0,P|113:271|205:287,1,157.500006008148
242,311,219084,1,0,0:0:0:0:
288,329,219148,1,0,0:0:0:0:
336,327,219211,1,0,0:0:0:0:
442,257,219338,2,0,P|461:209|457:157,1,105.000004005432
303,249,219592,2,0,P|353:236|389:199,1,105.000004005432
284,55,219847,2,0,P|352:83|394:154,1,157.500006008148
390,199,220101,1,0,0:0:0:0:
353,235,220164,1,0,0:0:0:0:
303,249,220228,1,0,0:0:0:0:
204,183,220355,2,0,P|170:130|147:40,1,157.500006008148
65,66,220609,2,0,P|64:130|46:174,1,105.000004005432
36,295,220863,2,0,P|72:246|175:225,1,157.500006008148,0|0,0:0|0:0,2:0:0:0:
203,229,221118,1,0,0:0:0:0:
229,270,221181,1,0,0:0:0:0:
224,315,221245,1,0,0:0:0:0:
309,321,221372,2,0,P|309:220|283:192,1,105.000004005432
445,185,221626,2,0,P|368:172|311:119,1,157.500006008148
198,139,221880,2,0,P|234:77|323:39,1,157.500006008148
358,40,222135,1,0,0:0:0:0:
403,50,222198,1,0,0:0:0:0:
437,76,222262,1,0,0:0:0:0:
158,297,222389,1,0,0:0:0:0:
366,283,222643,2,0,P|339:239|346:194,1,87.5
249,244,222897,2,0,P|209:216|186:164,1,87.5
346,107,223152,6,0,P|280:130|258:178,1,87.5
82,277,223406,1,0,0:0:0:0:
201,94,223660,1,0,0:0:0:0:
30,137,223914,1,0,0:0:0:0:
256,321,224169,1,0,0:0:0:0:
403,319,224423,1,0,0:0:0:0:
399,267,224486,1,0,0:0:0:0:
371,223,224550,1,0,0:0:0:0:
341,180,224613,1,0,0:0:0:0:
325,130,224677,1,0,0:0:0:0:
329,83,224741,1,0,0:0:0:0:
369,52,224804,1,0,0:0:0:0:
421,49,224868,1,0,0:0:0:0:
467,75,224931,1,0,0:0:0:0:
488,118,224995,1,0,0:0:0:0:
479,161,225058,1,0,0:0:0:0:
440,192,225122,1,0,0:0:0:0:
393,196,225185,2,0,B|346:203|292:194|289:334|223:362|137:327|111:239|146:145|274:200,1,437.5
56,295,225948,1,0,0:0:0:0:
60,194,226075,2,0,B|62:149|123:131|146:63|85:15,1,175
185,221,226457,2,0,B|226:272|299:271|299:193|366:227,1,175
347,56,226838,2,0,B|339:65|285:54|216:91|215:163,1,175
343,142,227219,2,0,P|386:136|421:100,1,87.5
336,337,227474,2,0,B|397:340|505:312|469:136,1,262.5
356,239,227982,1,0,0:0:0:0:
138,73,228236,2,0,P|186:103|203:142,1,87.5
283,176,228491,2,0,P|203:223|113:157,1,210.000008010865
38,95,228872,2,0,P|47:217|108:275,1,210.000008010865
279,293,229253,2,0,P|241:307|168:300,1,105.000004005432
355,252,229508,2,0,P|369:125|292:81,1,210.000008010865
275,203,229889,1,0,0:0:0:0:
358,341,230016,1,0,0:0:0:0:
476,273,230143,1,0,0:0:0:0:
469,115,230270,1,0,0:0:0:0:
355,41,230397,1,0,0:0:0:0:
236,20,230524,2,0,B|256:75|179:97|111:15|33:38|33:38|133:138|-7:111|39:184|39:184|118:195|148:135|148:135|212:198|146:236|206:270,1,700
23,263,231287,2,0,B|70:275|101:266|101:266|122:333|188:396|307:372|321:261|261:210|261:210|265:180|251:139|251:139|308:120|319:55|319:55|383:63|383:117,1,700
349,343,232050,2,0,B|395:276|342:176|342:176|385:198|453:182|470:141|476:89|429:37,1,367.500003504753
369,49,232558,1,0,0:0:0:0:
258,86,232685,1,0,0:0:0:0:
231,184,232813,1,0,0:0:0:0:
320,261,232940,1,0,0:0:0:0:
246,344,233067,1,0,0:0:0:0:
138,337,233193,1,0,0:0:0:0:
42,265,233321,1,0,0:0:0:0:
28,162,233448,1,0,0:0:0:0:
94,84,233575,1,0,0:0:0:0:
223,44,233702,1,0,0:0:0:0:
267,157,233830,1,0,0:0:0:0:
321,285,233957,1,0,0:0:0:0:
390,195,234084,1,0,0:0:0:0:
155,176,234211,1,0,0:0:0:0:
203,275,234338,1,0,0:0:0:0:
385,244,282135,5,0,0:0:0:0:
197,304,282262,1,0,0:0:0:0:
368,318,282389,1,0,0:0:0:0:
