osu file format v14

[General]
AudioFilename: WWonder tale.mp3
AudioLeadIn: 1000
PreviewTime: 218348
Countdown: 0
SampleSet: Soft
StackLeniency: 0.5
Mode: 0
LetterboxInBreaks: 0
WidescreenStoryboard: 0

[Editor]
DistanceSpacing: 2
BeatDivisor: 4
GridSize: 4
TimelineZoom: 3.599998

[Metadata]
Title:W:Wonder tale
TitleUnicode:W:Wonder tale
Artist:Tamura Yukari
ArtistUnicode:田村ゆかり
Creator:izacchi
Version:Insane
Source:俺の彼女と幼なじみが修羅場すぎる
Tags:oreshura ending ed 俺の彼女と幼なじみが修羅場すぎる 俺修羅 アニメ a-1 pictures Nasya n_a_s_y_a Alternative
BeatmapID:352396
BeatmapSetID:141250

[Difficulty]
HPDrainRate:7
CircleSize:4
OverallDifficulty:8
ApproachRate:9
SliderMultiplier:1.8
SliderTickRate:2

[Events]
//Background and Video events
0,0,"BG.jpg",0,0
Video,-1650,"video.avi"
//Break Periods
2,88711,93977
2,206744,215125
//Storyboard Layer 0 (Background)
//Storyboard Layer 1 (Fail)
//Storyboard Layer 2 (Pass)
//Storyboard Layer 3 (Foreground)
//Storyboard Layer 4 (Overlay)
//Storyboard Sound Samples

[TimingPoints]
918,378.548895899054,4,2,1,30,1,0
918,-133.333333333333,4,2,1,30,0,0
5649,-133.333333333333,4,2,1,5,0,0
6785,-133.333333333333,4,2,1,5,0,0
6974,-133.333333333333,4,2,1,30,0,0
7860,327.868852459016,4,2,1,30,1,0
7860,-100,4,2,1,25,0,0
8187,-100,4,2,1,45,0,0
8512,327.868852459016,4,2,3,50,1,0
8512,-100,4,2,3,50,0,0
16380,-100,4,2,1,50,0,0
16544,-100,4,2,1,5,0,0
17528,-100,4,2,1,5,0,0
17692,-100,4,2,4,40,0,0
18020,-100,4,2,3,40,0,0
19003,-100,4,2,6,40,0,0
19085,-100,4,2,3,40,0,0
20315,-100,4,2,4,40,0,0
20479,-100,4,2,3,40,0,0
21626,-100,4,2,6,40,0,0
21708,-100,4,2,3,40,0,0
22282,-100,4,2,6,40,0,0
22364,-100,4,2,3,40,0,0
22938,-100,4,2,4,40,0,0
23102,-100,4,2,3,40,0,0
24249,-100,4,2,6,40,0,0
24331,-100,4,2,3,40,0,0
25561,-100,4,2,4,40,0,0
25643,-100,4,2,3,40,0,0
28102,-100,4,2,3,15,0,0
28184,-100,4,2,3,40,0,0
29495,-100,4,2,6,40,0,0
29577,-100,4,2,3,40,0,0
32118,-100,4,2,6,40,0,0
32200,-100,4,2,3,40,0,0
37528,-100,4,3,0,40,0,0
37774,-133.333333333333,4,3,0,15,0,0
37856,-83.3333333333333,4,3,0,40,0,0
38102,-83.3333333333333,4,3,0,15,0,0
38184,-66.6666666666667,4,3,0,40,0,0
38675,-133.333333333333,4,2,3,40,0,0
41954,-133.333333333333,4,2,5,40,0,0
42036,-133.333333333333,4,2,3,40,0,0
45233,-133.333333333333,4,2,6,40,0,0
45315,-133.333333333333,4,2,3,40,0,0
48839,-200,4,2,3,40,0,0
49167,-100,4,2,3,40,0,0
58348,-100,4,2,3,40,0,0
58511,-100,4,2,1,40,0,0
59659,-90.9090909090909,4,2,3,60,0,1
61790,-90.9090909090909,4,2,6,60,0,1
61872,-90.9090909090909,4,2,3,60,0,1
84577,-90.9090909090909,4,2,7,50,0,1
85725,-90.9090909090909,4,2,3,50,0,1
85889,-100,4,2,3,60,0,0
88511,-100,4,2,3,40,0,0
94577,-100,4,2,3,15,0,0
94741,-100,4,2,1,50,0,0
94987,-100,4,2,1,5,0,0
95069,-100,4,2,4,40,0,0
95151,-100,4,2,3,40,0,0
96380,-100,4,2,6,40,0,0
96462,-100,4,2,3,40,0,0
97036,-100,4,2,6,40,0,0
97118,-100,4,2,3,40,0,0
97692,-100,4,2,4,40,0,0
97856,-100,4,2,3,40,0,0
99003,-100,4,2,6,40,0,0
99085,-100,4,2,3,40,0,0
99659,-100,4,2,6,40,0,0
99741,-100,4,2,3,40,0,0
99987,-100,4,2,3,20,0,0
100315,-100,4,2,4,40,0,0
100397,-100,4,2,3,40,0,0
101626,-100,4,2,6,40,0,0
101708,-100,4,2,3,40,0,0
102938,-100,4,2,4,40,0,0
103020,-100,4,2,3,40,0,0
104577,-100,4,3,0,50,0,0
104987,-100,4,3,0,15,0,0
105069,-100,4,3,0,50,0,0
105479,-100,4,3,0,15,0,0
105561,-100,4,2,3,40,0,0
106872,-100,4,2,6,40,0,0
106954,-100,4,2,3,40,0,0
114905,-100,4,3,0,50,0,0
115151,-133.333333333333,4,3,0,15,0,0
115233,-83.3333333333333,4,3,0,50,0,0
115479,-83.3333333333333,4,3,0,15,0,0
115561,-83.3333333333333,4,3,0,50,0,0
116052,-133.333333333333,4,2,3,40,0,0
125889,-200,4,2,1,40,0,0
126134,-133.333333333333,4,2,3,15,0,0
126216,-133.333333333333,4,2,3,40,0,0
126462,-100,4,2,3,15,0,0
126544,-100,4,2,3,40,0,0
135725,-100,4,2,3,40,0,0
136380,-100,4,2,1,30,0,0
136544,-100,4,2,1,40,0,0
136708,-100,4,2,1,50,0,0
136872,-100,4,2,1,60,0,0
137036,-90.9090909090909,4,2,3,60,0,1
161954,-90.9090909090909,4,2,3,50,0,1
162118,-90.9090909090909,4,2,1,60,0,1
162610,-90.9090909090909,4,2,7,60,0,1
163266,-100,4,2,3,50,0,0
163266,-100,4,2,1,50,0,0
164413,-100,4,2,3,60,0,0
164495,-100,4,2,3,50,0,0
174905,-100,4,2,3,50,0,0
185561,-100,4,2,3,40,0,0
194741,-133.333333333333,4,2,3,50,0,0
195069,-100,4,2,3,50,0,0
195397,-100,4,2,3,50,0,0
196052,-100,4,2,3,50,0,0
205233,-100,4,2,3,40,0,0
205889,-100,4,2,7,40,0,0
206544,-100,4,2,3,50,0,0
215889,-100,4,2,3,5,0,0
216872,-100,4,2,3,5,0,0
217036,-100,4,2,1,30,0,0
218348,-90.9090909090909,4,2,3,60,0,1
227528,-90.9090909090909,4,2,7,60,0,1
228511,-90.9090909090909,4,2,7,60,0,1
228839,-90.9090909090909,4,2,3,60,0,1
243921,-90.9090909090909,4,2,1,60,0,1
244577,-100,4,2,3,50,0,0
254413,-100,4,2,7,50,0,0
255069,-100,4,2,3,50,0,0
259003,-200,4,2,7,50,0,0
259249,-200,4,2,7,15,0,0
259331,-133.333333333333,4,2,7,50,0,0
259577,-133.333333333333,4,2,7,15,0,0
259659,-100,4,2,7,50,0,0
260315,-100,4,2,3,50,0,0
263184,-100,4,2,7,50,0,0
263921,-100,4,2,3,50,0,0
264249,-100,4,2,7,50,0,0
264577,-100,4,2,3,50,0,0
266216,-100,4,2,1,20,0,0
266298,-100,4,2,1,5,0,0
268184,-100,4,2,1,5,0,0
268266,-100,4,2,1,20,0,0

[Colours]
Combo1 : 255,157,206
Combo2 : 191,255,255
Combo3 : 255,117,51
Combo4 : 142,255,142

[HitObjects]
424,108,918,6,0,P|424:188|368:236,1,135.000005149842,4|0,0:0|0:0,0:0:0:0:
316,272,1485,1,0,0:0:0:0:
232,295,1675,2,0,P|198:299|164:297,1,67.5000025749208,4|0,0:0|0:0,0:0:0:0:
68,216,2053,2,0,P|102:212|136:216,1,67.5000025749208,0|0,0:0|0:0,0:0:0:0:
292,348,2432,1,4,0:0:0:0:
244,168,2810,1,0,0:0:0:0:
88,296,3189,6,0,P|139:335|224:343,2,135.000005149842,4|0|4,0:0|0:0|0:0,0:0:0:0:
124,96,4324,2,0,P|141:67|170:51,1,67.5000025749208,0|0,0:0|0:0,0:0:0:0:
304,52,4703,1,4,0:0:0:0:
260,180,4892,1,0,0:0:0:0:
404,272,5082,2,0,P|430:211|422:145,1,135.000005149842,0|4,0:0|0:0,0:0:0:0:
256,192,5555,12,6,6974,0:0:0:0:
480,120,7860,6,8,P|452:112|412:80,1,45
368,48,8023,2,8,P|343:53|300:88,1,45,8|8,0:0|0:0,0:0:0:0:
284,84,8187,1,8,0:0:0:0:
244,108,8269,1,8,0:0:0:0:
200,116,8351,1,8,0:0:0:0:
156,108,8433,1,8,0:0:0:0:
116,88,8512,6,0,P|68:76|-4:96,1,90,6|0,0:0|0:0,0:0:0:0:
60,260,8839,1,8,0:0:0:0:
60,260,9003,1,0,0:0:0:0:
212,176,9167,2,0,P|253:154|305:154,1,90,2|2,0:0|0:0,0:0:0:0:
228,320,9495,1,8,0:0:0:0:
388,312,9659,5,0,0:0:0:0:
388,312,9741,1,0,0:0:0:0:
388,312,9823,2,0,B|420:276|400:212,1,90,2|0,0:0|0:0,0:0:0:0:
388,40,10151,1,8,0:0:0:0:
512,144,10315,1,0,0:0:0:0:
388,40,10479,2,0,P|340:36|284:64,1,90,2|2,0:0|0:0,0:0:0:0:
368,200,10807,1,8,0:0:0:0:
172,132,10971,5,0,0:0:0:0:
172,132,11052,1,0,0:0:0:0:
172,132,11134,2,0,B|124:132|124:132|56:148,1,90,6|0,0:0|0:0,0:0:0:0:
152,288,11462,2,0,B|200:288|200:288|268:272,1,90,8|0,0:0|0:0,0:0:0:0:
292,152,11790,1,2,0:0:0:0:
408,264,11954,2,0,B|420:308|420:308|405:350,2,90,2|8|0,0:0|0:0|0:0,0:0:0:0:
344,86,12446,6,0,P|329:128|292:152,1,90,6|0,0:0|0:0,0:0:0:0:
192,56,12774,1,8,0:0:0:0:
72,136,12938,2,0,P|110:216|206:251,1,180,2|2,0:0|0:0,0:0:0:0:
400,208,13430,2,0,P|354:225|324:263,1,90,12|0,0:0|0:0,0:0:0:0:
465,139,13757,6,0,B|453:94|398:67,1,90,6|0,0:0|0:0,0:0:0:0:
279,28,14085,1,8,0:0:0:0:
190,129,14249,1,0,0:0:0:0:
260,276,14413,2,0,P|212:276|156:244,1,90,2|2,0:0|0:0,0:0:0:0:
52,320,14741,2,0,P|20:288|4:228,1,90,8|0,0:0|0:0,0:0:0:0:
123,104,15069,5,6,0:0:0:0:
207,209,15233,1,0,0:0:0:0:
335,166,15397,2,0,P|367:130|411:108,1,90,8|0,0:0|0:0,0:0:0:0:
448,238,15725,1,2,0:0:0:0:
335,166,15889,1,2,0:0:0:0:
204,132,16052,2,0,P|155:123|93:141,1,90,8|8,0:0|0:0,0:0:0:0:
256,192,16380,12,6,17692,0:0:0:0:
160,72,18020,6,0,P|112:84|68:116,1,90,2|0,0:0|0:0,0:0:0:0:
236,148,18348,2,0,P|276:175|323:186,1,90,2|0,0:0|0:0,0:0:0:0:
428,108,18675,1,2,0:0:0:0:
492,228,18839,2,0,P|440:316|348:336,1,180
208,324,19331,1,2,0:0:0:0:
248,196,19495,2,0,P|289:177|334:179,1,90,0|2,0:0|0:0,0:0:0:0:
208,324,19823,1,0,0:0:0:0:
111,224,19987,2,0,P|66:222|27:203,1,90,2|0,0:0|0:0,0:0:0:0:
168,100,20315,5,6,0:0:0:0:
284,32,20479,1,0,0:0:0:0:
412,72,20643,2,0,P|459:87|500:142,1,90,2|0,0:0|0:0,0:0:0:0:
372,228,20971,2,0,P|325:244|284:238,2,90,2|0|2,0:0|0:0|0:0,0:0:0:0:
164,236,21462,2,0,P|189:321|291:359,1,180
320,176,21954,1,2,0:0:0:0:
204,108,22118,2,0,P|115:108|44:186,1,180
223,272,22610,2,0,P|260:246|281:207,1,90,2|0,0:0|0:0,0:0:0:0:
281,207,22856,1,0,0:0:0:0:
281,207,22938,1,6,0:0:0:0:
285,44,23102,5,0,0:0:0:0:
404,107,23266,2,0,P|444:126|505:118,1,90,2|0,0:0|0:0,0:0:0:0:
480,288,23593,2,0,B|482:345|431:384,1,90,2|0,0:0|0:0,0:0:0:0:
348,216,23921,1,2,0:0:0:0:
284,364,24085,2,0,P|196:328|84:356,1,180
24,240,24577,1,2,0:0:0:0:
52,72,24741,1,0,0:0:0:0:
172,204,24905,1,2,0:0:0:0:
172,204,25069,2,0,P|216:232|292:224,2,90,0|2|0,0:0|0:0|0:0,0:0:0:0:
296,40,25561,6,0,P|344:44|384:71,1,90,6|0,0:0|0:0,0:0:0:0:
440,184,25889,1,2,0:0:0:0:
300,152,26052,1,0,0:0:0:0:
384,312,26216,2,0,P|344:332|296:332,1,90,2|0,0:0|0:0,0:0:0:0:
144,160,26544,1,2,0:0:0:0:
116,336,26708,1,0,0:0:0:0:
116,336,26790,1,0,0:0:0:0:
116,336,26872,1,6,0:0:0:0:
396,132,27692,1,8,3:3:0:0:
396,132,27856,2,0,B|332:132|296:156|296:156|248:156,1,135,4|0,3:3|0:0,0:0:0:0:
192,120,28184,6,0,P|136:124|68:108,1,90,6|0,0:0|0:0,0:0:0:0:
248,228,28511,2,0,B|300:231|339:277,1,90,8|0,0:0|0:0,0:0:0:0:
156,316,28839,2,0,B|112:286|103:227,1,90,2|2,0:0|0:0,0:0:0:0:
304,348,29167,1,8,0:0:0:0:
480,308,29331,2,0,P|445:227|367:187,1,180,0|0,0:0|0:0,2:0:0:0:
232,308,29823,1,8,0:0:0:0:
252,148,29987,2,0,L|224:40,1,90,0|2,0:0|0:0,0:0:0:0:
96,80,30315,1,2,0:0:0:0:
4,180,30479,1,8,0:0:0:0:
107,320,30643,5,0,0:0:0:0:
107,320,30725,1,0,0:0:0:0:
107,320,30807,2,0,B|150:307|150:307|216:311,1,90,6|0,0:0|0:0,0:0:0:0:
276,202,31134,2,0,B|317:229|317:229|380:240,1,90,8|0,0:0|0:0,0:0:0:0:
491,213,31462,1,2,0:0:0:0:
360,336,31626,1,2,0:0:0:0:
360,336,31790,1,8,0:0:0:0:
404,140,31954,2,0,P|338:83|220:87,1,180,0|2,0:0|0:0,0:0:0:0:
116,112,32446,1,8,0:0:0:0:
97,272,32610,2,0,P|188:254|251:180,1,180,2|2,0:0|0:0,0:0:0:0:
97,272,33102,1,8,0:0:0:0:
239,348,33266,5,0,0:0:0:0:
239,348,33348,1,0,0:0:0:0:
239,348,33430,2,0,B|328:301|430:345,1,180,6|8,0:0|0:0,0:0:0:0:
396,177,33921,2,0,P|362:203|294:217,2,90,0|2|2,0:0|0:0|0:0,0:0:0:0:
241,35,34413,2,0,P|285:38|325:60,1,90,8|0,0:0|0:0,0:0:0:0:
61,51,34741,1,2,0:0:0:0:
241,36,34905,1,0,0:0:0:0:
60,188,35069,1,8,0:0:0:0:
196,180,35233,1,0,0:0:0:0:
176,328,35397,2,0,P|167:288|115:251,1,90,2|2,0:0|0:0,0:0:0:0:
148,104,35725,1,8,0:0:0:0:
267,227,35889,5,0,0:0:0:0:
267,227,35971,1,0,0:0:0:0:
267,227,36052,2,0,B|311:240|311:240|371:288,1,90,6|0,0:0|0:0,0:0:0:0:
286,115,36380,1,8,0:0:0:0:
486,178,36544,2,0,B|442:163|442:163|404:127,2,90,0|2|2,0:0|0:0|0:0,0:0:0:0:
394,21,37036,1,8,0:0:0:0:
286,115,37200,1,2,0:0:0:0:
128,116,37364,5,8,0:0:0:0:
216,112,37528,2,0,P|201:175|136:209,1,135,8|0,0:0|0:0,0:0:0:0:
40,176,37856,6,0,P|7:106|51:36,1,161.999995056153,4|0,0:0|0:0,0:0:0:0:
164,0,38184,1,12,0:0:0:0:
80,240,38348,1,4,0:0:0:0:
328,68,38675,6,0,P|386:98|478:100,1,135.000005149842,6|0,0:0|0:0,0:0:0:0:
356,177,39167,2,0,L|288:197,2,67.5000025749208,2|8|0,0:0|0:0|0:0,0:0:0:0:
384,296,39659,1,0,0:0:0:0:
280,360,39823,2,0,P|218:337|150:345,1,135.000005149842,2|8,0:0|0:0,0:0:0:0:
56,312,40315,1,2,0:0:0:0:
20,216,40479,1,0,0:0:0:0:
20,216,40561,1,0,0:0:0:0:
20,216,40643,2,0,L|4:142,1,67.5000025749208,10|0,0:0|0:0,0:0:0:0:
104,76,40971,2,0,L|183:96,1,67.5000025749208,2|0,0:0|0:0,0:0:0:0:
288,68,41298,6,0,B|348:33|421:56,1,135.000005149842,6|0,0:0|0:0,0:0:0:0:
364,164,41790,2,0,P|360:232|403:291,1,135.000005149842,2|0,0:0|0:0,0:0:0:0:
492,320,42282,1,2,0:0:0:0:
468,200,42446,1,0,0:0:0:0:
448,80,42610,2,0,L|505:42,2,67.5000025749208,2|8|0,0:0|0:0|0:0,0:0:0:0:
348,80,43102,1,2,0:0:0:0:
348,80,43184,1,0,0:0:0:0:
348,80,43266,2,0,L|291:117,1,67.5000025749208,8|4,0:3|0:3,0:0:0:0:
160,224,43593,1,4,0:3:0:0:
320,280,43757,1,2,0:0:0:0:
320,280,43839,1,2,0:0:0:0:
320,280,43921,5,14,0:0:0:0:
50,132,44249,2,0,L|130:123,1,67.5000025749208,0|2,0:0|0:0,0:0:0:0:
200,212,44577,2,0,P|265:224|336:203,1,135.000005149842,8|0,0:0|0:0,0:0:0:0:
380,56,45069,2,0,P|313:66|259:112,1,135.000005149842,2|8,0:0|0:0,0:0:0:0:
200,212,45561,1,2,0:0:0:0:
331,206,45725,1,2,0:0:0:0:
464,232,45889,2,0,L|508:304,1,67.5000025749208,8|0,0:0|0:0,0:0:0:0:
372,336,46216,2,0,L|328:404,2,67.5000025749208,2|0|6,0:0|0:0|0:0,0:0:0:0:
151,257,46872,5,0,0:0:0:0:
100,168,47036,1,2,0:0:0:0:
184,112,47200,2,0,P|218:115|252:104,1,67.5000025749208,8|0,0:0|0:0,0:0:0:0:
404,32,47528,2,0,P|370:34|341:51,1,67.5000025749208,2|0,0:0|0:0,0:0:0:0:
440,144,47856,1,2,0:0:0:0:
440,144,48020,2,0,P|472:202|457:275,1,135.000005149842,8|0,0:0|0:0,0:0:0:0:
388,336,48511,1,8,0:0:0:0:
292,308,48675,1,2,0:0:0:0:
253,214,48839,6,0,L|183:198,1,67.5,8|0,0:0|0:0,0:0:0:0:
254,214,49167,6,0,P|289:242|357:238,1,90,6|0,0:0|0:0,0:0:0:0:
452,215,49495,1,10,0:0:0:0:
331,157,49659,1,0,0:0:0:0:
325,31,49823,2,0,P|370:33|406:59,1,90,2|0,0:0|0:0,0:0:0:0:
452,215,50151,1,10,0:0:0:0:
341,333,50315,1,0,0:0:0:0:
341,333,50397,1,0,0:0:0:0:
341,333,50479,2,0,P|291:345|221:328,1,90,2|0,0:0|0:0,0:0:0:0:
120,264,50807,1,10,0:0:0:0:
292,204,50971,1,0,0:0:0:0:
152,92,51134,1,2,0:0:0:0:
152,92,51298,2,0,P|195:75|272:87,2,90,0|10|0,0:0|0:0|0:0,0:0:0:0:
436,252,51790,6,0,B|452:200|452:200|404:152|412:56,2,180,6|10|2,0:0|0:0|0:0,0:0:0:0:
260,208,52610,2,0,B|304:197|304:197|346:209,1,90,0|10,0:0|0:0,0:0:0:0:
268,372,52938,1,0,0:0:0:0:
268,372,53020,1,0,0:0:0:0:
268,372,53102,2,0,B|176:388|176:388|90:372,1,180,6|2,0:0|0:0,0:0:0:0:
20,224,53593,1,2,0:0:0:0:
104,84,53757,2,0,B|150:94|150:94|215:80,1,90,8|2,0:0|0:0,0:0:0:0:
20,224,54085,1,8,0:0:0:0:
292,120,54249,5,0,2:0:0:0:
292,120,54331,1,0,2:0:0:0:
292,120,54413,2,0,P|350:170|453:133,1,180,6|8,0:0|0:0,2:0:0:0:
505,316,54905,2,0,P|461:309|417:317,1,90,0|2,0:0|0:0,0:0:0:0:
292,261,55233,1,2,0:0:0:0:
137,170,55397,2,0,B|169:141|222:145,1,90,8|0,0:0|0:0,0:0:0:0:
221,144,55643,1,0,0:0:0:0:
221,144,55725,1,2,0:0:0:0:
41,146,55889,5,0,0:0:0:0:
199,228,56052,1,8,0:0:0:0:
178,49,56216,1,0,0:0:0:0:
290,124,56380,2,0,P|338:128|386:92,1,90,2|2,0:0|0:0,0:0:0:0:
220,315,56708,2,0,L|199:228,1,90,8|2,0:0|0:0,0:0:0:0:
321,339,57036,6,0,B|381:323|473:371|473:371|513:359,1,180,6|8,0:0|0:0,0:0:0:0:
487,229,57528,1,0,0:0:0:0:
360,180,57692,2,0,P|318:195|273:194,1,90,2|2,0:0|0:0,0:0:0:0:
292,60,58020,2,0,B|276:48|276:48|208:76|144:44,1,135,8|0,0:0|0:0,0:0:0:0:
108,48,58348,6,0,L|72:116,1,45,12|4,3:3|3:3,0:0:0:0:
48,244,58511,2,0,L|108:200,1,45,8|8,0:0|0:0,0:0:0:0:
176,152,58675,2,0,P|244:164|292:144,1,90,8|4,0:0|3:3,0:0:0:0:
263,159,58921,1,4,3:3:0:0:
263,159,59003,1,4,3:3:0:0:
456,56,59167,6,0,L|504:100,1,45,8|8,0:0|0:0,0:0:0:0:
452,168,59331,2,0,L|472:236,1,45,8|8,0:0|0:0,0:0:0:0:
412,284,59495,2,0,L|392:336,1,45,8|8,0:0|0:0,0:0:0:0:
348,340,59659,6,0,P|293:340|243:311,1,99.0000030212403,6|0,0:0|0:0,0:0:0:0:
144,252,59987,1,8,0:0:0:0:
24,296,60151,1,0,0:0:0:0:
204,212,60315,2,0,P|172:188|99:193,1,99.0000030212403,2|2,0:0|0:0,0:0:0:0:
4,128,60643,1,8,0:0:0:0:
156,32,60807,1,0,0:0:0:0:
156,32,60889,1,0,0:0:0:0:
156,32,60971,2,0,B|206:10|276:47,1,99.0000030212403,2|0,0:0|0:0,0:0:0:0:
348,148,61298,1,8,0:0:0:0:
436,28,61462,1,0,0:0:0:0:
196,152,61626,6,0,P|140:232|160:344,2,198.000006042481,2|8|2,0:0|0:0|0:0,0:0:0:0:
288,268,62446,1,0,0:0:0:0:
428,316,62610,2,0,P|468:276|478:227,1,99.0000030212403,8|0,0:0|0:0,0:0:0:0:
488,88,62938,1,2,0:0:0:0:
353,29,63102,2,0,P|303:50|260:107,1,99.0000030212403,2|8,0:0|0:0,0:0:0:0:
391,173,63430,1,0,0:0:0:0:
288,316,63593,2,0,P|244:280|228:224,2,99.0000030212403,6|2|8,0:0|0:0|0:0,0:0:0:0:
260,120,64085,1,2,0:0:0:0:
260,120,64167,1,0,0:0:0:0:
260,120,64249,2,0,P|216:116|144:152,1,99.0000030212403,2|0,0:0|0:0,0:0:0:0:
23,292,64577,1,10,0:0:0:0:
8,164,64741,1,0,0:0:0:0:
160,256,64905,6,0,B|260:274|260:274|306:302,1,148.50000453186,6|0,0:0|0:0,0:0:0:0:
344,320,65233,1,8,0:0:0:0:
424,192,65397,1,0,0:0:0:0:
424,192,65561,2,0,P|474:184|520:144,1,99.0000030212403,2|2,0:0|0:0,0:0:0:0:
406,49,65889,2,8,B|312:80|192:8,1,198.000006042481,8|2,0:0|0:0,0:0:0:0:
112,112,66380,2,0,P|82:152|27:162,2,99.0000030212403,0|8|0,0:0|0:0|0:0,0:0:0:0:
57,282,66872,1,2,0:0:0:0:
185,294,67036,2,0,P|215:251|278:234,1,99.0000030212403,2|8,0:0|0:0,0:0:0:0:
408,324,67364,5,0,0:0:0:0:
408,324,67446,1,0,0:0:0:0:
408,324,67528,2,0,B|432:276|432:276|424:208,1,99.0000030212403,6|0,0:0|0:0,0:0:0:0:
360,64,67856,2,0,B|312:56|312:56|273:23,1,99.0000030212403,8|0,0:0|0:0,0:0:0:0:
295,223,68184,2,0,B|274:266|274:266|282:326,1,99.0000030212403,2|2,0:0|0:0,0:0:0:0:
284,138,68511,2,0,B|261:115|261:115|251:121|251:121|216:72|129:82,1,148.50000453186,8|0,0:0|0:0,0:0:0:0:
109,79,68839,6,0,L|4:84,1,99.0000030212403,6|2,0:0|0:0,0:0:0:0:
8,264,69167,1,12,0:0:0:0:
180,316,69331,1,2,0:0:0:0:
180,316,69413,1,2,0:0:0:0:
180,316,69495,1,12,0:0:0:0:
208,140,69659,1,2,0:0:0:0:
208,140,69823,2,0,P|248:112|300:100,1,99.0000030212403,12|2,0:0|0:0,0:0:0:0:
364,208,70151,6,0,P|459:185|511:81,2,198.000006042481,6|8|2,0:0|0:0|0:0,0:0:0:0:
360,48,70971,2,0,P|314:27|239:43,1,99.0000030212403,2|8,0:0|0:0,0:0:0:0:
116,148,71298,1,0,0:0:0:0:
116,148,71380,1,0,0:0:0:0:
116,148,71462,2,0,P|157:173|206:171,1,99.0000030212403,2|0,0:0|0:0,0:0:0:0:
428,288,71790,1,8,0:0:0:0:
292,204,71954,1,0,0:0:0:0:
164,296,72118,2,0,P|118:279|46:291,1,99.0000030212403,2|2,0:0|0:0,0:0:0:0:
296,360,72446,1,8,0:0:0:0:
223,175,72610,5,0,0:0:0:0:
223,175,72692,1,0,0:0:0:0:
223,175,72774,2,0,B|151:128|80:164|80:164|26:148,2,198.000006042481,6|8|2,0:0|0:0|0:0,0:0:0:0:
244,324,73593,2,0,L|360:336,1,99.0000030212403,2|8,0:0|0:0,0:0:0:0:
364,168,73921,1,0,0:0:0:0:
412,340,74085,1,2,0:0:0:0:
468,192,74249,2,0,P|471:143|430:89,2,99.0000030212403,2|8|2,0:0|0:0|0:0,0:0:0:0:
340,316,74741,2,0,P|291:312|237:267,1,99.0000030212403,0|2,0:0|0:0,0:0:0:0:
336,104,75069,1,8,0:0:0:0:
468,192,75233,1,2,0:0:0:0:
180,76,75397,6,0,B|152:104|152:104|92:108|64:160,1,148.50000453186,6|0,0:0|0:0,0:0:0:0:
24,196,75725,1,8,0:0:0:0:
60,340,75889,2,0,P|109:345|153:324,1,99.0000030212403,0|2,0:0|0:0,0:0:0:0:
272,176,76216,1,2,0:0:0:0:
400,252,76380,1,8,0:0:0:0:
336,104,76544,1,0,0:0:0:0:
220,300,76708,2,0,B|256:320|256:320|312:300|364:328,1,148.50000453186,2|0,0:0|0:0,0:0:0:0:
412,332,77036,2,8,P|464:308|484:264,1,99.0000030212403,8|0,0:0|0:0,0:0:0:0:
412,88,77364,1,2,0:0:0:0:
320,240,77528,1,2,0:0:0:0:
476,156,77692,2,0,P|509:109|504:61,1,99.0000030212403,8|0,0:0|0:0,0:0:0:0:
312,28,78020,6,4,L|196:16,1,99.0000030212403,6|0,0:0|0:0,0:0:0:0:
336,152,78348,1,8,0:0:0:0:
160,136,78511,2,0,P|108:132|56:164,2,99.0000030212403,0|2|2,0:0|0:0|0:0,0:0:0:0:
172,288,79003,2,0,P|244:276|332:316,1,148.50000453186,8|0,0:0|0:0,0:0:0:0:
368,288,79331,6,0,B|416:268|416:268|463:268,1,99.0000030212403,6|0,0:0|0:0,0:0:0:0:
364,40,79659,1,14,0:0:0:0:
492,192,79823,1,8,0:0:0:0:
492,192,79905,1,8,0:0:0:0:
492,192,79987,2,0,B|445:192|445:192|397:172,1,99.0000030212403,6|0,0:0|0:0,0:0:0:0:
256,292,80315,1,14,0:0:0:0:
196,156,80479,1,0,0:0:0:0:
256,292,80643,6,8,P|156:280|72:324,1,198.000006042481,6|8,0:0|0:0,0:0:0:0:
16,184,81134,1,0,0:0:0:0:
196,156,81298,2,0,P|144:140|96:88,1,99.0000030212403,2|2,0:0|0:0,0:0:0:0:
56,8,81626,1,8,0:0:0:0:
236,48,81790,1,0,0:0:0:0:
236,48,81872,1,0,0:0:0:0:
236,48,81954,1,2,0:0:0:0:
336,196,82118,2,0,P|292:216|212:204,2,99.0000030212403,0|8|2,0:0|0:0|0:0,0:0:0:0:
236,48,82610,2,0,L|336:64,1,99.0000030212403,0|2,0:0|0:0,0:0:0:0:
484,52,82938,1,8,0:0:0:0:
416,160,83102,1,2,0:0:0:0:
500,260,83266,6,0,B|436:304|364:276|364:276|312:296,1,198.000006042481,6|8,0:0|0:0,0:0:0:0:
212,188,83757,1,2,0:0:0:0:
100,252,83921,2,0,P|100:300|152:344,1,99.0000030212403,0|2,0:0|0:0,0:0:0:0:
245,272,84249,2,0,P|244:224|212:188,1,99.0000030212403,8|2,0:0|0:0,0:0:0:0:
53,102,84577,5,12,0:0:0:0:
77,97,84659,1,8,0:0:0:0:
101,92,84741,2,0,L|173:52,1,49.5000015106202,8|8,0:0|0:0,0:3:0:0:
236,36,84905,2,0,L|224:108,1,49.5000015106202,4|4,0:3|0:3,0:0:0:0:
312,116,85069,2,0,L|384:80,1,49.5000015106202,8|8,0:3|0:3,0:0:0:0:
428,40,85233,6,0,L|480:44,1,49.5000015106202,12|8,0:0|0:0,0:0:0:0:
495,131,85397,2,0,L|488:180,1,49.5000015106202,8|8,0:3|0:3,0:0:0:0:
380,204,85561,2,0,L|324:224,1,49.5000015106202,4|4,0:3|0:3,0:0:0:0:
456,284,85725,2,0,L|512:316,1,49.5000015106202,2|2,0:0|0:0,0:0:0:0:
352,348,85889,5,6,0:0:0:0:
256,192,85971,12,6,88511,0:0:0:0:
100,56,94577,5,0,2:3:0:0:
92,76,94659,1,0,2:3:0:0:
84,96,94741,2,0,B|72:120|72:120|76:124|76:124|32:172|64:240,1,135,0|0,2:3|3:3,0:0:0:0:
72,260,95069,6,0,P|122:262|162:297,1,90,6|0,0:0|0:0,0:0:0:0:
268,212,95397,1,2,0:0:0:0:
360,312,95561,1,0,0:0:0:0:
200,336,95725,2,0,P|240:360|300:356,2,90,2|0|2,0:0|0:0|0:0,0:0:0:0:
72,260,96216,2,0,P|43:176|81:97,1,180
188,184,96708,1,2,0:0:0:0:
284,92,96872,2,0,B|360:96|408:60|408:60|460:64,1,180
492,196,97364,2,0,B|444:196|444:196|396:216,1,90,2|0,0:0|0:0,0:0:0:0:
405,212,97610,1,0,0:0:0:0:
405,212,97692,1,6,0:0:0:0:
328,324,97856,6,0,P|286:340|242:335,2,90,0|2|0,0:0|0:0|0:0,0:0:0:0:
152,191,98348,2,0,P|160:239|136:295,1,90,2|0,0:0|0:0,0:0:0:0:
44,131,98675,1,2,0:0:0:0:
44,131,98839,2,0,P|112:75|208:83,1,180,0|0,0:0|0:0,0:0:0:0:
220,232,99331,1,2,0:0:0:0:
220,232,99495,2,0,P|292:284|396:272,1,180
428,60,99987,5,2,0:2:0:0:
420,80,100069,1,0,0:2:0:0:
412,100,100151,1,0,0:2:0:0:
404,120,100233,1,0,0:2:0:0:
396,140,100315,2,0,B|384:176|384:176|400:256,1,90,6|0,0:0|0:0,0:0:0:0:
249,336,100643,2,0,B|289:356|289:356|345:348,1,90,2|0,0:0|0:0,0:0:0:0:
394,227,100971,2,0,B|430:251|430:251|450:307,2,90,2|0|2,0:0|0:0|0:0,0:0:0:0:
260,204,101462,2,0,P|172:216|84:176,1,180
25,61,101954,1,2,0:0:0:0:
139,132,102118,1,0,0:0:0:0:
32,214,102282,2,0,P|24:266|60:330,1,90,2|0,0:0|0:0,0:0:0:0:
188,352,102610,2,0,P|236:344|272:316,1,90,2|0,0:0|0:0,0:0:0:0:
159,194,102938,5,6,0:0:0:0:
292,102,103102,2,0,P|336:94|380:102,2,90,0|2|0,0:0|0:0|0:0,0:0:0:0:
159,194,103593,1,2,0:0:0:0:
409,246,103757,2,0,P|365:254|321:247,1,90,0|2,0:0|0:0,0:0:0:0:
222,341,104085,1,0,0:0:0:0:
222,341,104167,1,0,0:0:0:0:
222,341,104249,1,14,0:0:0:0:
93,47,104577,5,8,0:0:0:0:
21,127,104741,2,0,P|73:165|88:252,1,135,8|0,0:0|0:0,0:0:0:0:
35,301,105069,5,6,0:0:0:0:
247,277,105233,2,0,P|174:313|104:305,1,135,4|0,0:0|0:0,0:0:0:0:
92,231,105561,6,0,P|138:224|188:172,1,90,6|2,0:0|0:0,0:0:0:0:
295,65,105889,2,0,P|247:73|207:113,1,90,8|0,0:0|0:0,0:0:0:0:
92,232,106216,1,2,0:0:0:0:
92,232,106380,1,2,0:0:0:0:
200,352,106544,1,8,0:0:0:0:
358,322,106708,2,0,P|420:252|520:228,1,180,0|2,0:0|0:0,0:0:0:0:
449,77,107200,2,0,P|404:80|364:100,1,90,8|2,0:0|0:0,0:0:0:0:
272,20,107528,1,0,0:0:0:0:
90,82,107692,2,0,P|132:96|184:87,1,90,2|8,0:0|0:0,0:0:0:0:
96,232,108020,5,0,0:0:0:0:
96,232,108102,1,0,0:0:0:0:
96,232,108184,2,0,B|112:328,1,90,6|2,0:0|0:0,0:0:0:0:
317,176,108511,1,8,0:0:0:0:
210,258,108675,2,0,P|299:250|374:310,1,180,2|2,0:0|0:0,0:0:0:0:
274,333,109167,1,8,0:0:0:0:
406,168,109331,2,0,P|317:176|242:116,1,180,2|2,0:0|0:0,0:0:0:0:
447,31,109823,2,0,P|403:23|359:32,1,90,8|2,0:0|0:0,0:0:0:0:
160,44,110151,2,0,P|204:51|247:42,1,90,2|2,0:0|0:0,0:0:0:0:
84,120,110479,2,0,B|64:158|64:158|65:205,1,90,8|0,0:0|0:0,0:0:0:0:
65,205,110725,1,0,0:0:0:0:
65,205,110807,1,6,0:0:0:0:
100,320,110971,6,0,B|145:332|145:332|187:325,2,90,0|8|0,0:0|0:0|0:0,0:0:0:0:
256,192,111462,1,2,0:0:0:0:
256,192,111626,1,2,0:0:0:0:
412,320,111790,2,0,B|367:332|367:332|324:325,1,90,8|0,0:0|0:0,0:0:0:0:
492,184,112118,2,0,B|480:144|480:144|408:116|376:52,1,180,2|8,0:0|0:0,0:0:0:0:
264,130,112610,1,0,0:0:0:0:
108,92,112774,2,0,P|120:48|172:12,1,90,2|2,0:0|0:0,0:0:0:0:
204,256,113102,2,0,P|162:237|133:181,1,90,8|2,0:0|0:0,0:0:0:0:
65,337,113430,6,0,B|117:325|117:325|181:325,2,90,12|2|2,0:0|0:0|0:0,0:0:0:0:
84,157,113921,1,12,0:0:0:0:
272,256,114085,2,0,B|231:235|231:235|201:184,1,90,2|2,0:0|0:0,0:0:0:0:
184,49,114413,2,0,B|223:78|223:78|290:97,1,90,12|2,0:0|0:0,0:0:0:0:
285,94,114659,1,2,0:0:0:0:
306,100,114741,5,8,0:0:0:0:
300,188,114905,2,0,P|368:164|384:76,1,135,8|0,0:0|0:0,0:0:0:0:
332,16,115233,6,0,P|252:24|212:108,1,161.999995056153,4|0,0:0|0:0,0:0:0:0:
204,196,115561,1,12,0:0:0:0:
408,40,115725,1,4,0:0:0:0:
480,220,116052,6,0,B|404:204|344:256,1,135.000005149842,6|2,0:0|0:0,0:0:0:0:
312,344,116544,1,2,0:0:0:0:
248,264,116708,2,0,L|184:224,1,67.5000025749208,8|0,0:0|0:0,0:0:0:0:
92,200,117036,1,0,0:0:0:0:
20,300,117200,2,0,B|84:352|160:304,1,135.000005149842,2|8,0:0|0:0,0:0:0:0:
92,200,117692,2,0,B|128:192|164:140,1,67.5000025749208,2|0,0:0|0:0,0:0:0:0:
256,108,118020,1,8,0:0:0:0:
352,184,118184,2,0,B|387:186|436:224,2,67.5000025749208
276,315,118675,6,0,P|208:287|128:291,1,135.000005149842,6|0,0:0|0:0,0:0:0:0:
88,180,119167,1,2,0:0:0:0:
88,180,119249,1,0,0:0:0:0:
88,180,119331,2,0,L|156:136,1,67.5000025749208,8|0,0:0|0:0,0:0:0:0:
248,80,119659,1,2,0:0:0:0:
248,80,119823,1,0,0:0:0:0:
368,100,119987,2,0,B|390:126|390:126|422:134,1,67.5000025749208,2|10,0:0|0:0,0:0:0:0:
232,188,120315,2,8,B|220:220|220:220|188:248,1,67.5000025749208,0|2,0:0|0:0,0:0:0:0:
416,292,120643,2,0,B|386:289|386:289|358:265,1,67.5000025749208,8|4,0:3|0:3,0:0:0:0:
232,188,120971,1,4,0:3:0:0:
214,355,121134,1,2,0:0:0:0:
214,355,121216,1,2,0:0:0:0:
214,355,121298,5,12,0:0:0:0:
64,156,121626,2,0,L|132:116,1,67.5000025749208,2|0,0:0|0:0,0:0:0:0:
352,84,121954,2,0,P|292:56|220:76,1,135.000005149842,8|2,0:0|0:0,0:0:0:0:
352,84,122446,1,2,0:0:0:0:
280,184,122610,1,2,0:0:0:0:
220,292,122774,2,0,B|288:336|352:284,1,135.000005149842,8|2,0:0|0:0,0:0:0:0:
437,244,123266,1,8,0:0:0:0:
346,196,123430,2,0,L|280:184,1,67.5000025749208,2|0,0:0|0:0,0:0:0:0:
184,220,123757,1,2,0:0:0:0:
84,200,123921,6,0,P|68:135|86:71,2,135.000005149842,6|2|10,0:0|0:0|0:0,0:0:0:0:
188,60,124741,1,2,0:0:0:0:
188,60,124905,2,0,L|260:40,1,67.5000025749208,2|2,0:0|0:0,0:0:0:0:
413,66,125233,2,0,L|328:43,1,67.5000025749208,0|8,0:0|0:0,0:0:0:0:
413,66,125561,1,0,0:0:0:0:
482,181,125725,1,2,0:0:0:0:
356,186,125889,6,0,L|274:164,1,67.5,8|0,0:0|0:0,0:0:0:0:
247,253,126216,6,0,P|299:262|347:288,1,101.250003862381,12|0,3:3|0:0,0:0:0:0:
411,348,126544,6,0,B|346:395|271:354|271:354|217:365,2,180,6|10|2,0:0|0:0|0:0,0:0:0:0:
315,215,127364,2,0,P|273:188|224:188,1,90,0|10,0:0|0:0,0:0:0:0:
151,77,127692,1,0,0:0:0:0:
286,78,127856,2,0,P|322:103|367:107,1,90,2|0,0:0|0:0,0:0:0:0:
424,280,128184,1,10,0:0:0:0:
148,260,128348,2,0,P|184:230|240:227,1,90,0|2,0:0|0:0,0:0:0:0:
287,78,128675,1,0,0:0:0:0:
128,56,128839,1,10,0:0:0:0:
48,196,129003,1,0,0:0:0:0:
48,196,129085,1,0,0:0:0:0:
48,196,129167,6,0,P|39:295|103:368,2,180,6|10|2,0:0|0:0|0:0,0:0:0:0:
176,97,129987,2,0,P|225:101|272:146,1,90,0|10,0:0|0:0,0:0:0:0:
318,245,130315,1,8,0:0:0:0:
186,275,130479,2,0,B|198:303|198:303|210:291|210:291|242:363|322:363,1,180,14|2,0:0|0:0,0:0:0:0:
415,273,130971,1,8,0:0:0:0:
476,153,131134,2,0,P|428:153|388:117,1,90,12|4,0:3|0:3,0:0:0:0:
416,273,131462,1,10,0:0:0:0:
336,24,131626,1,2,0:0:0:0:
77,159,131790,6,0,P|155:116|256:118,1,180,6|8,0:0|0:0,0:0:0:0:
336,324,132282,2,0,B|275:352|208:306|208:306|165:321,1,180,2|2,0:0|0:0,0:0:0:0:
292,192,132774,2,0,B|411:152,1,90,8|0,0:0|0:0,0:0:0:0:
458,51,133102,2,0,P|370:67|284:43,1,180,2|8,0:0|0:0,0:0:0:0:
112,96,133593,1,0,0:0:0:0:
112,96,133675,1,0,0:0:0:0:
112,96,133757,2,0,B|159:113|159:113|209:162,1,90,2|2,0:0|0:0,0:0:0:0:
344,236,134085,2,0,B|313:264|313:264|267:279,1,90,8|2,0:0|0:0,0:0:0:0:
313,99,134413,6,0,B|401:99|401:99|501:43,1,180,6|8,0:0|0:0,0:0:0:0:
392,212,134905,1,2,0:0:0:0:
392,212,134987,1,0,0:0:0:0:
392,212,135069,2,0,B|440:212|440:212|496:232,1,90,10|0,0:0|0:0,0:0:0:0:
369,325,135397,2,0,B|321:325|321:325|265:305,1,90,10|0,0:0|0:0,0:0:0:0:
32,356,135725,6,0,L|78:333,1,45,4|4,3:2|3:0,0:0:0:0:
216,352,135889,2,0,L|181:317,1,45,4|4,3:0|3:0,0:0:0:0:
120,244,136052,1,8,3:0:0:0:
123,221,136134,2,0,P|129:175|169:121,1,90,8|4,3:0|3:0,0:0:0:0:
220,80,136380,6,0,L|279:64,1,45,12|8,0:0|0:0,0:0:0:0:
429,71,136544,2,0,L|376:109,1,45,8|8,0:0|0:0,0:0:0:0:
271,188,136708,2,0,L|330:172,1,45,12|8,0:0|0:0,0:0:0:0:
480,179,136872,2,0,L|427:217,1,45,8|8,0:0|0:0,0:0:0:0:
409,242,137036,6,0,P|378:288|317:306,1,99.0000030212403,6|0,0:0|0:0,0:0:0:0:
179,384,137364,1,8,0:0:0:0:
56,256,137528,1,2,0:0:0:0:
56,256,137610,1,0,0:0:0:0:
56,256,137692,2,0,B|12:188|36:120|36:120|0:68,2,198.000006042481,2|8|2,0:0|0:0|0:0,0:0:0:0:
176,168,138511,2,0,P|216:196|276:204,1,99.0000030212403,2|8,0:0|0:0,0:0:0:0:
280,56,138839,1,2,0:0:0:0:
280,56,139003,2,0,P|328:44|384:60,1,99.0000030212403,0|2,0:0|0:0,0:0:0:0:
176,168,139331,1,8,0:0:0:0:
424,136,139495,1,0,0:0:0:0:
424,136,139577,1,0,0:0:0:0:
424,136,139659,6,0,P|480:216|452:320,1,198.000006042481,6|8,0:0|0:0,0:0:0:0:
424,136,140151,1,0,0:0:0:0:
380,296,140315,2,0,B|340:336|272:320,1,99.0000030212403,2|2,0:0|0:0,0:0:0:0:
136,228,140643,1,8,0:0:0:0:
308,176,140807,1,0,0:0:0:0:
196,76,140971,2,0,B|140:64|96:112,2,99.0000030212403,6|0|8,0:0|0:0|0:0,0:0:0:0:
68,200,141462,1,2,0:0:0:0:
68,200,141544,1,0,0:0:0:0:
68,200,141626,2,0,B|112:272|184:272|184:272|232:308,2,198.000006042481,2|8|6,0:0|0:0|0:0,0:0:0:0:
184,140,142446,6,0,P|236:132|288:148,1,99.0000030212403,0|8,0:0|0:0,0:0:0:0:
236,0,142774,1,0,0:0:0:0:
404,60,142938,2,0,P|352:68|300:52,1,99.0000030212403,2|2,0:0|0:0,0:0:0:0:
228,240,143266,1,8,0:0:0:0:
228,240,143430,1,0,0:0:0:0:
467,188,143593,2,0,B|472:255|427:299|427:299|414:336,1,148.50000453186,2|0,0:0|0:0,0:0:0:0:
373,345,143921,2,0,B|339:381|283:377,1,99.0000030212403,8|0,0:0|0:0,0:0:0:0:
320,199,144249,1,2,0:0:0:0:
212,340,144413,1,2,0:0:0:0:
76,224,144577,2,0,P|128:238|160:277,1,99.0000030212403,8|0,0:0|0:0,0:0:0:0:
44,368,144905,5,12,0:0:0:0:
0,168,145069,1,2,0:0:0:0:
132,240,145233,1,2,0:0:0:0:
116,44,145397,1,12,0:0:0:0:
245,121,145561,2,0,B|285:93|285:93|353:77,1,99.0000030212403,2|2,0:0|0:0,0:0:0:0:
211,283,145889,2,0,B|203:235|203:235|223:175,1,99.0000030212403,12|0,0:0|0:0,0:0:0:0:
348,340,146216,6,0,L|296:308,1,49.5000015106202,14|2,0:0|0:0,0:0:0:0:
364,200,146380,2,0,L|393:263,1,49.5000015106202,2|2,0:0|0:0,0:0:0:0:
476,284,146544,2,0,B|496:248|496:248|480:200|512:144,1,148.50000453186,14|0,0:0|0:0,0:0:0:0:
500,44,146872,6,0,L|460:0,1,49.5000015106202,14|2,0:0|0:0,0:0:0:0:
356,104,147036,2,0,L|402:119,1,49.5000015106202,2|2,0:0|0:0,0:0:0:0:
324,12,147200,2,0,B|260:8|216:40|216:40|156:40,1,148.50000453186,14|0,0:0|0:0,0:0:0:0:
132,28,147528,6,0,P|80:48|36:96,1,99.0000030212403,6|0,0:0|0:0,0:0:0:0:
0,200,147856,1,8,0:0:0:0:
32,344,148020,1,0,0:0:0:0:
176,372,148184,2,0,P|272:372|360:304,2,198.000006042481,2|8|2,0:0|0:0|0:0,0:0:0:0:
160,196,149003,2,0,P|104:184|56:200,2,99.0000030212403,2|8|2,0:0|0:0|0:0,0:0:0:0:
328,136,149495,1,0,0:0:0:0:
160,196,149659,1,2,0:0:0:0:
272,56,149823,1,8,0:0:0:0:
240,328,149987,1,0,0:0:0:0:
240,328,150069,1,0,0:0:0:0:
240,328,150151,6,0,B|288:336|328:320|328:320|384:336,1,148.50000453186,6|0,0:0|0:0,0:0:0:0:
432,308,150479,2,0,P|472:284|488:228,1,99.0000030212403,8|0,0:0|0:0,0:0:0:0:
480,127,150807,1,2,0:0:0:0:
272,56,150971,2,0,P|320:77|383:69,1,99.0000030212403,2|8,0:0|0:0,0:0:0:0:
412,232,151298,1,0,0:0:0:0:
455,38,151462,2,0,P|482:78|480:127,1,99.0000030212403,2|2,0:0|0:0,0:0:0:0:
320,208,151790,2,0,P|369:208|412:232,1,99.0000030212403,8|0,0:0|0:0,0:0:0:0:
328,344,152118,2,0,P|284:367|235:366,2,99.0000030212403,2|8|2,0:0|0:0|0:0,0:0:0:0:
215,197,152610,5,2,0:0:0:0:
215,197,152692,1,2,0:0:0:0:
215,197,152774,2,0,P|131:246|35:229,1,198.000006042481,6|8,0:0|0:0,0:0:0:0:
104,95,153266,1,0,0:0:0:0:
104,95,153430,2,0,P|147:83|218:94,1,99.0000030212403,2|2,0:0|0:0,0:0:0:0:
36,228,153757,1,8,0:0:0:0:
148,325,153921,1,0,0:0:0:0:
295,305,154085,2,0,P|282:211|199:147,1,198.000006042481,2|8,0:0|0:0,0:0:0:0:
116,28,154577,1,2,0:0:0:0:
249,92,154741,2,0,P|293:72|353:76,1,99.0000030212403,0|2,0:0|0:0,0:0:0:0:
491,55,155069,2,0,B|525:91|503:148,1,99.0000030212403,8|0,0:0|0:0,0:0:0:0:
330,192,155397,6,0,P|365:221|434:220,1,99.0000030212403,6|0,0:0|0:0,0:0:0:0:
252,336,155725,1,8,0:0:0:0:
252,336,155889,2,0,L|132:352,2,99.0000030212403,0|2|2,0:0|0:0|0:0,0:0:0:0:
120,208,156380,2,0,P|85:173|72:126,1,99.0000030212403,8|0,0:0|0:0,0:0:0:0:
236,28,156708,6,0,B|275:21|275:21|319:49|388:39,1,148.50000453186,6|0,0:0|0:0,0:0:0:0:
434,49,157036,1,14,0:0:0:0:
335,222,157200,1,2,0:0:0:0:
335,222,157282,1,2,0:0:0:0:
335,222,157364,2,0,B|295:194|295:194|235:182,1,99.0000030212403,6|2,0:0|0:0,0:0:0:0:
436,148,157692,1,12,0:0:0:0:
484,319,157856,1,2,0:0:0:0:
355,320,158020,6,0,P|261:351|152:320,1,198.000006042481,6|8,0:0|0:0,0:0:0:0:
40,306,158511,1,0,0:0:0:0:
156,214,158675,2,0,P|204:227|242:258,1,99.0000030212403,2|2,0:0|0:0,0:0:0:0:
156,214,159003,1,8,0:0:0:0:
45,73,159167,1,0,0:0:0:0:
45,73,159249,1,0,0:0:0:0:
45,73,159331,2,0,P|138:39|244:59,1,198.000006042481,2|8,0:0|0:0,0:0:0:0:
156,214,159823,1,0,0:0:0:0:
199,355,159987,2,0,P|252:357|321:321,1,99.0000030212403,2|2,0:0|0:0,0:0:0:0:
372,214,160315,1,8,0:0:0:0:
484,317,160479,1,2,0:0:0:0:
372,215,160643,6,0,B|228:204,1,99.0000030212403,6|2,0:0|0:0,0:0:0:0:
238,30,160971,1,8,0:0:0:0:
377,77,161134,1,2,0:0:0:0:
216,152,161298,2,0,B|144:192|84:148|84:148|13:159,1,198.000006042481,8|2,0:0|0:0,0:0:0:0:
152,76,161790,1,8,0:0:0:0:
72,300,161954,5,4,3:2:0:0:
116,308,162036,1,4,0:3:0:0:
160,312,162118,2,0,L|236:292,1,49.5000015106202,8|8,0:3|0:3,3:0:0:0:
282,249,162282,1,8,0:3:0:0:
326,257,162364,1,8,0:3:0:0:
370,265,162446,2,0,L|418:309,1,49.5000015106202,4|4,0:3|0:3,0:0:0:0:
460,212,162610,6,0,P|488:168|488:104,1,99.0000030212403,6|2,0:0|0:0,0:0:0:0:
200,88,162938,2,0,P|298:85|384:132,1,198.000006042481,2|6,0:0|0:0,0:0:0:0:
200,52,164413,6,0,P|158:127|59:128,1,180,4|0,0:0|0:0,0:0:0:0:
86,269,164905,2,0,B|49:292|49:292|-14:292,1,90,8|0,0:0|0:0,0:0:0:0:
180,223,165233,1,2,0:0:0:0:
304,353,165397,1,2,0:0:0:0:
283,129,165561,1,8,0:0:0:0:
410,263,165725,1,0,0:0:0:0:
410,263,165807,1,0,0:0:0:0:
410,263,165889,2,0,B|433:228|433:228|493:197,1,90,2|0,0:0|0:0,0:0:0:0:
239,127,166216,2,0,B|284:129|284:129|344:104,1,90,8|0,0:0|0:0,0:0:0:0:
482,24,166544,5,14,0:0:0:0:
398,203,166708,1,2,0:0:0:0:
291,36,166872,1,8,0:0:0:0:
371,218,167036,6,0,B|323:222|323:222|268:272|182:231,1,180,6|2,0:0|0:0,0:0:0:0:
120,348,167528,1,8,0:0:0:0:
120,348,167692,1,2,0:0:0:0:
59,226,167856,2,0,L|-17:234,1,45,8|8,0:0|0:0,0:0:0:0:
19,134,168020,2,0,L|67:62,1,45,2|2,0:0|0:0,0:0:0:0:
127,150,168184,1,10,0:0:0:0:
229,61,168348,2,0,B|268:39|268:39|320:35,2,90,2|0|2,0:0|0:0|0:0,0:0:0:0:
127,150,168839,2,0,B|135:195|135:195|158:232,1,90,8|2,0:0|0:0,0:0:0:0:
327,299,169167,5,6,0:0:0:0:
352,99,169331,1,8,0:0:0:0:
175,187,169495,1,2,0:0:0:0:
352,100,169659,6,0,B|348:128|348:128|368:124|368:124|364:203|464:228,1,180,12|2,0:0|0:0,0:0:0:0:
318,354,170151,1,8,0:0:0:0:
471,300,170315,2,0,P|426:299|367:266,1,90,2|8,0:0|0:0,0:0:0:0:
477,125,170643,1,2,0:0:0:0:
477,125,170725,1,2,0:0:0:0:
477,125,170807,1,8,0:0:0:0:
314,34,170971,2,0,B|228:24|180:68|180:68|112:48,1,180,2|2,0:0|0:0,0:0:0:0:
192,180,171462,1,8,0:0:0:0:
104,302,171626,2,0,B|63:280|63:280|32:224,1,90,2|8,0:0|0:0,0:0:0:0:
192,180,171954,1,2,0:0:0:0:
256,376,172118,1,8,0:0:0:0:
273,145,172282,6,0,P|333:207|433:205,1,180,4|2,0:0|0:0,0:0:0:0:
437,47,172774,2,0,P|396:65|376:104,1,90,8|2,0:0|0:0,0:0:0:0:
484,256,173102,1,8,0:0:0:0:
484,256,173184,1,0,0:0:0:0:
484,256,173266,2,0,B|456:295|456:295|398:322,1,90,2|8,0:0|0:0,0:0:0:0:
260,356,173593,1,2,0:0:0:0:
100,324,173757,5,6,3:2:0:0:
84,288,173839,1,4,0:3:0:0:
68,252,173921,1,4,0:3:0:0:
52,216,174003,1,2,0:0:0:0:
60,176,174085,2,0,L|94:105,1,45,8|8,0:0|0:0,0:0:0:0:
168,32,174249,2,0,L|184:116,1,45,8|4,0:3|0:3,0:0:0:0:
252,160,174413,6,0,L|316:140,1,45,8|8,0:0|0:0,0:0:0:0:
316,24,174577,2,0,L|356:80,1,45,8|8,0:3|0:3,0:0:0:0:
460,20,174741,2,0,L|444:84,1,45,4|4,0:3|0:3,0:0:0:0:
504,144,174905,6,0,B|445:200|461:261|461:261|432:300,1,180,4|2,0:0|0:0,0:0:0:0:
303,351,175397,1,8,0:0:0:0:
174,309,175561,1,2,0:0:0:0:
186,174,175725,2,0,P|232:189|282:238,2,90,2|2|8,0:0|0:0|0:0,0:0:0:0:
175,309,176216,1,0,0:0:0:0:
92,148,176380,2,0,P|48:163|-4:212,2,90,2|2|8,0:0|0:0|0:0,0:0:0:0:
203,20,176872,1,8,0:0:0:0:
203,20,176954,1,0,0:0:0:0:
203,20,177036,1,10,0:0:0:0:
384,164,177200,2,0,P|337:148|285:152,1,90,2|8,0:0|0:0,0:0:0:0:
458,58,177528,6,0,B|528:129|501:224,1,180,6|0,0:0|0:0,0:0:0:0:
501,224,177938,1,0,0:0:0:0:
501,224,178020,1,8,0:0:0:0:
288,299,178184,1,2,0:0:0:0:
419,329,178348,1,2,0:0:0:0:
375,148,178511,1,2,0:0:0:0:
375,148,178593,1,0,0:0:0:0:
375,148,178675,2,0,B|366:100|366:100|331:67,1,90,8|0,0:0|0:0,0:0:0:0:
83,84,179003,2,0,B|123:58|123:58|184:53,1,90,2|0,0:0|0:0,0:0:0:0:
258,166,179331,2,0,B|242:182|242:182|258:186|258:186|202:230|214:310,1,135,8|0,0:0|0:0,0:0:0:0:
209,312,179659,5,6,0:0:0:0:
165,118,179823,1,10,0:0:0:0:
346,200,179987,1,2,0:0:0:0:
475,101,180151,6,0,B|411:97|371:65|371:65|325:70,1,135,6|0,0:0|0:0,0:0:0:0:
302,72,180479,1,2,0:0:0:0:
346,200,180643,1,8,0:0:0:0:
396,325,180807,2,0,B|356:325|356:325|316:361|252:353,1,135,6|0,0:0|0:0,0:0:0:0:
224,345,181134,1,2,0:0:0:0:
178,217,181298,1,8,0:0:0:0:
52,252,181462,6,0,B|88:252|88:252|128:216|200:216,1,135,6|0,0:0|0:0,0:0:0:0:
213,187,181790,2,0,P|232:148|283:121,1,90,2|8,0:0|0:0,0:0:0:0:
397,76,182118,2,0,B|411:129|450:171|450:171|445:223,1,135,6|0,0:0|0:0,0:0:0:0:
437,240,182446,2,0,B|388:257|367:334,1,90,2|8,0:0|0:0,0:0:0:0:
245,335,182774,6,0,P|156:324|74:257,1,180,6|0,0:0|0:0,0:0:0:0:
47,188,183184,1,0,0:0:0:0:
47,188,183266,2,0,B|83:148|83:148|95:84,1,90,8|2,0:0|0:0,0:0:0:0:
210,51,183593,6,0,P|254:31|322:47,1,90,6|0,0:0|0:0,0:0:0:0:
275,122,183839,2,0,P|315:150|383:146,1,90,2|0,0:0|0:0,0:0:0:0:
439,187,184085,5,8,0:0:0:0:
439,187,184167,1,0,0:0:0:0:
439,187,184249,2,0,B|389:237|389:237|360:330,2,135,8|4|8,0:3|0:3|0:3,0:0:0:0:
120,256,184905,2,0,B|175:301|175:301|265:329,2,135,8|4|4,0:3|0:3|0:3,0:0:0:0:
48,76,185561,6,0,P|133:45|245:68,1,180,4|8,0:0|0:0,0:0:0:0:
380,32,186052,1,2,0:0:0:0:
484,156,186216,2,0,B|468:224|468:224|413:292,2,135,8|4|4,0:3|0:3|0:3,0:0:0:0:
324,120,186872,2,0,P|257:183|261:277,1,180,4|8,0:0|0:0,0:0:0:0:
61,164,187364,1,2,0:0:0:0:
65,185,187446,1,2,0:0:0:0:
70,206,187528,1,8,0:3:0:0:
112,364,187692,2,0,B|152:376|152:376|221:374,2,90,8|4|4,0:3|0:3|0:3,0:0:0:0:
293,205,188184,6,0,B|321:242|321:242|403:236|445:313,1,180,4|8,0:0|0:0,0:0:0:0:
335,357,188675,1,2,0:0:0:0:
472,192,188839,6,0,P|480:148|456:104,1,90,8|0,0:3|0:0,0:0:0:0:
392,40,189085,2,0,P|364:72|368:128,1,90,4|0,0:3|0:0,0:0:0:0:
388,240,189331,2,0,L|348:208,1,45,4|0,0:3|0:0,0:0:0:0:
308,216,189495,6,0,B|223:242|223:242|132:228,1,180,4|8,0:0|0:0,0:0:0:0:
24,309,189987,1,8,0:3:0:0:
41,323,190069,1,8,0:3:0:0:
56,338,190151,1,8,0:3:0:0:
53,193,190315,2,0,P|97:201|132:227,1,90,4|0,0:3|0:0,0:0:0:0:
273,341,190643,1,4,0:3:0:0:
258,224,190807,6,0,P|321:159|314:64,1,180,4|8,0:0|0:0,0:0:0:0:
187,44,191298,1,2,0:0:0:0:
316,5,191462,2,0,B|356:17|356:17|420:17,1,90,4|0,0:3|0:0,0:0:0:0:
460,189,191790,2,0,B|412:188|412:188|360:161,1,90,4|8,0:3|0:3,0:0:0:0:
355,156,192036,1,8,0:3:0:0:
336,143,192118,1,8,0:3:0:0:
433,335,192446,6,0,L|333:303,1,90,2|12,0:0|0:0,0:0:0:0:
229,194,192774,2,0,B|205:226|205:226|241:290|189:358,1,180,12|4,0:0|3:0,0:0:0:0:
396,236,193266,1,8,0:0:0:0:
396,236,193348,1,0,0:0:0:0:
396,236,193430,2,0,B|428:201|428:201|444:128,1,90,6|2,0:0|0:0,0:0:0:0:
316,52,193757,2,0,B|318:94|318:94|348:152,1,90,2|2,0:0|0:0,0:0:0:0:
60,96,194085,2,0,B|136:88|174:49|174:49|240:38,1,180,8|4,0:0|0:3,0:0:0:0:
240,176,194577,6,0,L|260:244,1,45,8|8,0:3|0:3,0:0:0:0:
176,212,194741,6,0,L|144:276,1,67.5000025749208,2|2,0:0|0:0,0:0:0:0:
96,212,195069,6,0,L|4:232,1,90,4|4,0:3|0:3,0:0:0:0:
94,310,195397,5,14,0:0:0:0:
12,116,195561,1,2,0:0:0:0:
47,373,195725,2,0,B|99:385|147:367|147:367|207:385,1,135,14|0,0:0|0:0,0:0:0:0:
227,365,196052,6,0,P|275:369|336:337,1,90,6|0,0:0|0:0,0:0:0:0:
470,263,196380,2,0,P|448:305|462:375,1,90,10|0,0:0|0:0,0:0:0:0:
412,187,196708,1,2,0:0:0:0:
284,232,196872,1,0,0:0:0:0:
355,27,197036,1,10,0:0:0:0:
209,130,197200,1,0,0:0:0:0:
209,130,197282,1,0,0:0:0:0:
209,130,197364,2,0,B|160:119|119:132,1,90,2|0,0:0|0:0,0:0:0:0:
9,251,197692,1,10,0:0:0:0:
120,132,197856,1,0,0:0:0:0:
177,340,198020,1,2,0:0:0:0:
269,194,198184,6,0,P|311:190|361:218,2,90,0|10|0,0:0|0:0|0:0,0:0:0:0:
489,200,198675,2,0,P|441:126|359:93,2,180,6|10|2,0:0|0:0|0:0,0:0:0:0:
385,325,199495,2,0,P|340:328|300:308,1,90,2|8,0:0|0:0,0:0:0:0:
206,176,199823,1,0,0:0:0:0:
206,176,199905,1,0,0:0:0:0:
206,176,199987,2,0,B|173:220|117:224|117:224|76:256,1,135,6|0,0:0|0:0,0:0:0:0:
48,244,200315,2,0,P|16:208|8:132,1,90,10|0,0:0|0:0,0:0:0:0:
172,100,200643,5,4,0:3:0:0:
160,296,200807,1,4,0:3:0:0:
204,88,200971,5,10,0:0:0:0:
132,308,201134,1,2,0:0:0:0:
60,193,201298,6,0,P|147:173|235:192,1,180,6|8,0:0|0:0,0:0:0:0:
230,354,201790,2,0,P|277:362|326:343,1,90,2|0,0:0|0:0,0:0:0:0:
181,257,202118,1,2,0:0:0:0:
333,202,202282,1,8,0:0:0:0:
472,288,202446,1,0,0:0:0:0:
472,288,202528,1,0,0:0:0:0:
472,288,202610,2,0,P|505:193|468:119,1,180,2|8,0:0|0:0,0:0:0:0:
236,166,203102,1,2,0:0:0:0:
325,64,203266,2,0,P|369:55|421:68,2,90,0|2|8,0:0|0:0|0:0,0:0:0:0:
336,224,203757,1,2,0:0:0:0:
188,281,203921,6,0,B|141:280|141:280|80:309,1,90,6|2,0:0|0:0,0:0:0:0:
109,116,204249,1,8,0:0:0:0:
36,260,204413,1,2,0:0:0:0:
54,51,204577,2,0,B|97:36|97:36|178:43,1,90,8|2,0:0|0:0,0:0:0:0:
217,183,204905,2,0,B|254:158|254:158|323:148,1,90,8|0,0:0|0:0,0:0:0:0:
404,28,205233,6,0,L|464:40,1,45,12|8,0:0|0:0,0:0:0:0:
504,112,205397,2,0,L|444:128,1,45,2|2,0:0|0:0,0:0:0:0:
412,184,205561,1,8,0:0:0:0:
404,224,205643,1,8,0:0:0:0:
396,264,205725,1,2,0:0:0:0:
388,304,205807,1,2,0:0:0:0:
364,356,205889,6,0,L|300:372,1,45,12|8,0:0|0:0,0:0:0:0:
269,295,206052,2,0,L|224:332,1,45,8|8,0:0|0:0,0:0:0:0:
160,384,206216,2,0,L|121:345,1,45,8|8,0:0|0:0,0:0:0:0:
124,264,206380,2,0,L|60:241,1,45,8|8,0:0|0:0,0:0:0:0:
13,315,206544,5,4,0:0:0:0:
256,192,215725,12,6,217036,0:0:0:0:
96,76,218348,6,0,P|164:76|196:96,1,99.0000030212403,6|2,0:0|0:0,0:0:0:0:
171,286,218675,2,0,B|119:266|119:210,1,99.0000030212403,8|2,0:0|0:0,0:0:0:0:
300,124,219003,2,0,P|331:218|262:287,2,198.000006042481,2|8|2,0:0|0:0|0:0,0:0:0:0:
430,3,219823,1,2,0:0:0:0:
299,124,219987,1,8,0:0:0:0:
461,239,220151,1,2,0:0:0:0:
461,239,220233,1,0,0:0:0:0:
461,239,220315,2,0,P|492:201|498:144,2,99.0000030212403,0|2|8,0:0|0:0|0:0,0:0:0:0:
388,88,220807,1,2,0:0:0:0:
220,88,220971,6,0,B|167:66|109:107,1,99.0000030212403,4|2,0:0|0:0,0:0:0:0:
191,262,221298,1,8,0:0:0:0:
73,171,221462,1,2,0:0:0:0:
290,139,221626,2,0,B|342:163|402:127,1,99.0000030212403,0|2,0:0|0:0,0:0:0:0:
326,305,221954,1,8,0:0:0:0:
290,139,222118,1,2,0:0:0:0:
141,73,222282,2,0,P|77:69|37:37,2,99.0000030212403,4|2|8,0:0|0:0|0:0,0:0:0:0:
300,28,222774,2,0,L|348:72,1,49.5000015106202,2|2,0:0|0:0,0:0:0:0:
344,136,222938,2,0,B|366:182|366:182|344:236,1,99.0000030212403,8|2,0:0|0:0,0:0:0:0:
436,104,223266,2,0,B|448:56|448:56|488:20,1,99.0000030212403,8|2,0:0|0:0,0:0:0:0:
512,208,223593,6,0,B|488:264|488:264|460:292|460:292|448:352,1,148.50000453186,4|0,0:0|0:0,0:0:0:0:
380,364,223921,2,0,B|330:364|330:364|284:384,1,99.0000030212403,8|0,0:0|0:0,0:0:0:0:
344,136,224249,2,0,B|316:172|316:172|260:188,1,99.0000030212403,2|2,0:0|0:0,0:0:0:0:
180,344,224577,1,8,0:0:0:0:
265,187,224741,1,0,0:0:0:0:
180,344,224905,2,0,B|188:224|72:156,1,198.000006042481,2|8,0:0|0:0,0:0:0:0:
32,308,225397,1,0,0:0:0:0:
8,132,225561,2,0,P|35:91|80:72,2,99.0000030212403,2|2|8,0:0|0:0|0:0,0:0:0:0:
204,104,226052,1,0,0:0:0:0:
324,40,226216,6,0,B|360:56|360:56|415:13|472:56|472:56|504:40,2,198.000006042481,6|8|6,0:0|0:0|0:0,0:0:0:0:
462,183,227036,1,2,0:0:0:0:
462,183,227200,2,0,B|452:244|408:282|408:282|403:326,1,148.50000453186,8|0,0:0|0:0,0:0:0:0:
308,344,227528,6,0,L|348:400,1,49.5000015106202,12|8,0:0|0:0,0:0:0:0:
212,312,227692,2,0,L|218:369,1,49.5000015106202,12|12,0:3|0:3,0:0:0:0:
120,344,227856,2,0,B|98:323|98:323|32:316|5:254,1,148.50000453186,12|0,0:0|0:0,0:0:0:0:
40,158,228184,6,12,L|96:194,1,49.5000015106202,12|8,0:0|0:0,0:3:0:0:
200,196,228348,2,0,L|184:136,1,49.5000015106202,12|12,0:3|0:3,0:0:0:0:
120,56,228511,2,0,B|148:36|148:36|212:52|272:4,1,148.50000453186,12|0,0:0|0:0,0:0:0:0:
305,30,228839,5,6,0:0:0:0:
391,151,229003,2,0,P|436:130|470:71,1,99.0000030212403,2|8,0:0|0:0,0:0:0:0:
305,30,229331,1,0,0:0:0:0:
297,54,229413,1,0,0:0:0:0:
289,78,229495,2,0,B|241:154|297:230|297:230|273:270,2,198.000006042481,2|8|2,0:0|0:0|0:0,0:0:0:0:
391,151,230315,1,2,0:0:0:0:
475,273,230479,1,8,0:0:0:0:
279,260,230643,1,2,0:0:0:0:
382,366,230807,2,0,P|430:386|490:370,2,99.0000030212403,2|2|8,0:0|0:0|0:0,0:0:0:0:
325,196,231298,1,0,0:0:0:0:
148,220,231462,6,0,B|118:179|118:179|57:146,1,99.0000030212403,6|0,0:0|0:0,0:0:0:0:
136,324,231790,2,0,B|175:362|175:362|236:377,1,99.0000030212403,8|0,0:0|0:0,0:0:0:0:
24,244,232118,2,0,P|-2:151|49:57,2,198.000006042481,2|8|2,0:0|0:0|0:0,0:0:0:0:
196,176,232938,1,0,0:0:0:0:
232,32,233102,2,0,B|276:56|276:56|324:52,1,99.0000030212403,8|0,0:0|0:0,0:0:0:0:
349,50,233348,1,0,0:0:0:0:
373,47,233430,1,10,0:0:0:0:
196,176,233593,2,0,B|151:158|151:158|100:161,2,99.0000030212403,2|8|2,0:0|0:0|0:0,0:0:0:0:
232,352,234085,6,0,B|261:330|261:330|322:341|358:287,1,148.50000453186,6|0,0:0|0:0,0:0:0:0:
416,240,234413,2,0,P|466:265|490:312,1,99.0000030212403,8|0,0:0|0:0,0:0:0:0:
360,380,234741,1,2,0:0:0:0:
312,206,234905,1,0,0:0:0:0:
413,59,235069,2,0,B|469:58|496:102,1,99.0000030212403,8|0,0:0|0:0,0:0:0:0:
321,63,235397,2,0,P|257:111|177:107,1,148.50000453186,2|0,0:0|0:0,0:0:0:0:
124,76,235725,2,0,B|80:45|13:67,1,99.0000030212403,8|0,0:0|0:0,0:0:0:0:
60,208,236052,1,2,0:0:0:0:
228,268,236216,1,2,0:0:0:0:
80,356,236380,2,0,P|44:316|0:300,1,99.0000030212403,8|0,0:0|0:0,0:0:0:0:
160,352,236708,6,0,P|256:358|337:304,2,198.000006042481,6|8|2,0:0|0:0|0:0,0:0:0:0:
456,320,237528,1,2,0:0:0:0:
384,192,237692,2,0,B|422:151|480:174,1,99.0000030212403,8|0,0:0|0:0,0:0:0:0:
365,76,238020,6,0,L|267:57,1,99.0000030212403,6|0,0:0|0:0,0:0:0:0:
89,75,238348,1,14,0:0:0:0:
268,57,238511,1,2,0:0:0:0:
244,65,238593,1,2,0:0:0:0:
220,73,238675,1,12,0:0:0:0:
149,203,238839,2,0,L|246:221,2,99.0000030212403,2|12|2,0:0|0:0|0:0,0:0:0:0:
37,343,239331,6,0,B|133:351|133:351|257:315,1,198.000006042481,6|8,0:0|0:0,0:0:0:0:
358,346,239823,1,0,0:0:0:0:
388,200,239987,2,0,B|432:184|432:184|482:195,1,99.0000030212403,2|2,0:0|0:0,0:0:0:0:
358,346,240315,1,8,0:0:0:0:
483,195,240479,1,2,0:0:0:0:
384,48,240643,6,0,P|296:8|180:52,1,198.000006042481,2|8,0:0|0:0,0:0:0:0:
286,163,241134,1,0,0:0:0:0:
286,163,241216,1,0,0:0:0:0:
286,163,241298,2,0,P|280:216|228:264,1,99.0000030212403,2|2,0:0|0:0,0:0:0:0:
76,220,241626,1,8,0:0:0:0:
116,362,241790,1,0,0:0:0:0:
76,220,241954,2,0,B|100:180|92:124|92:124|120:64,1,148.50000453186,6|0,0:0|0:0,0:0:0:0:
185,52,242282,2,0,B|237:60|237:60|289:36,1,99.0000030212403,8|0,0:0|0:0,0:0:0:0:
236,216,242610,2,0,B|264:256|264:256|248:328,1,99.0000030212403,6|2,0:0|0:0,0:0:0:0:
372,144,242938,2,0,B|392:100|392:100|378:50,1,99.0000030212403,8|2,0:0|0:0,0:0:0:0:
480,160,243266,6,0,L|528:184,3,49.5000015106202,12|8|2|2,0:0|0:0|0:0|0:0,0:0:0:0:
436,268,243593,2,0,L|360:260,3,49.5000015106202,8|8|2|2,0:0|0:0|0:0|0:0,0:0:0:0:
312,332,243921,6,0,L|300:380,1,49.5000015106202,12|8,0:0|0:0,0:0:0:0:
204,296,244085,2,0,L|216:240,1,49.5000015106202,8|8,0:3|0:3,0:0:0:0:
88,336,244249,2,0,L|76:384,1,49.5000015106202,12|12,0:3|0:3,0:0:0:0:
24,216,244413,2,0,L|40:140,1,49.5000015106202,4|4,0:3|0:3,0:0:0:0:
110,159,244577,6,0,P|166:143|206:99,1,90,4|0,0:0|0:0,0:0:0:0:
300,4,244905,1,8,0:0:0:0:
112,64,245069,1,0,0:0:0:0:
274,144,245233,2,0,P|314:170|332:220,2,90,2|2|8,0:0|0:0|0:0,0:0:0:0:
408,56,245725,1,0,0:0:0:0:
408,56,245807,1,0,0:0:0:0:
408,56,245889,2,0,B|448:36|448:36|488:-12,1,90,2|0,0:0|0:0,0:0:0:0:
480,164,246216,2,0,B|440:184|440:184|400:232,1,90,8|0,0:0|0:0,0:0:0:0:
328,380,246544,1,2,0:0:0:0:
320,200,246708,1,2,0:0:0:0:
480,284,246872,1,8,0:0:0:0:
256,284,247036,5,0,0:0:0:0:
256,284,247118,1,0,0:0:0:0:
256,284,247200,2,0,P|167:283|91:329,2,180,6|8|6,0:0|0:0|0:0,0:0:0:0:
92,328,248020,1,2,0:0:0:0:
16,164,248184,2,0,B|-12:213|36:257,1,90,8|2,0:0|0:0,0:0:0:0:
174,140,248511,2,0,B|223:152|268:130,2,90,6|2|8,0:0|0:0|0:0,0:0:0:0:
320,34,249003,2,0,P|376:102|352:202,1,180,6|2,0:0|0:0,0:0:0:0:
476,352,249495,6,0,L|444:280,1,45,12|8,0:0|0:0,0:0:0:0:
368,288,249659,2,0,L|350:353,1,45,2|2,0:0|0:0,0:0:0:0:
268,352,249823,2,0,B|200:356|200:356|152:332,1,90,6|0,0:0|0:0,0:0:0:0:
32,192,250151,1,8,0:0:0:0:
192,160,250315,1,0,0:0:0:0:
110,319,250479,2,0,B|90:309|90:309|22:313,1,90,2|2,0:0|0:0,0:0:0:0:
192,160,250807,2,0,P|232:186|291:175,1,90,8|0,0:0|0:0,0:0:0:0:
181,43,251134,2,0,P|95:32|5:93,2,180,2|8|2,0:0|0:0|0:0,0:0:0:0:
319,49,251954,1,2,0:0:0:0:
429,127,252118,2,0,B|469:91|521:99,1,90,8|0,0:0|0:0,0:0:0:0:
482,230,252446,6,0,P|467:275|431:306,1,90,6|2,0:0|0:0,0:0:0:0:
357,242,252774,1,8,0:0:0:0:
287,312,252938,1,2,0:0:0:0:
287,149,253102,1,2,0:0:0:0:
177,329,253266,1,2,0:0:0:0:
80,183,253430,2,0,B|190:155,1,90,12|0,0:0|0:0,0:0:0:0:
0,292,253757,5,12,0:0:0:0:
36,304,253839,1,8,0:0:0:0:
72,316,253921,1,8,0:0:0:0:
108,328,254003,1,8,0:0:0:0:
144,340,254085,2,0,L|204:376,1,45,2|2,0:0|0:0,0:0:0:0:
275,310,254249,2,0,L|287:370,1,45,8|8,0:0|0:0,0:0:0:0:
408,348,254413,6,0,L|380:312,1,45,12|8,0:0|0:0,0:0:0:0:
512,228,254577,2,0,L|464:244,1,45,8|8,0:3|0:3,0:0:0:0:
328,152,254741,2,0,L|356:188,1,45,8|8,0:3|0:3,0:0:0:0:
496,76,254905,2,0,L|432:96,1,45,4|4,0:3|0:3,0:0:0:0:
364,56,255069,6,0,B|236:40|236:40|160:56,1,180,6|8,0:0|0:0,0:0:0:0:
72,32,255561,1,0,0:0:0:0:
196,176,255725,2,0,P|242:184|300:144,1,90,2|2,0:0|0:0,0:0:0:0:
48,168,256052,1,8,0:0:0:0:
114,301,256216,1,0,0:0:0:0:
114,301,256298,1,0,0:0:0:0:
114,301,256380,2,0,P|154:321|221:317,2,90,2|2|8,0:0|0:0|0:0,0:0:0:0:
253,185,256872,1,2,0:0:0:0:
413,204,257036,2,0,P|409:249|382:284,1,90,0|2,0:0|0:0,0:0:0:0:
485,157,257364,1,8,0:0:0:0:
383,283,257528,1,2,0:0:0:0:
419,31,257692,6,0,P|376:56|355:115,1,90,6|0,0:0|0:0,0:0:0:0:
141,113,258020,1,8,0:0:0:0:
300,140,258184,1,0,0:0:0:0:
384,284,258348,2,0,P|418:315|468:320,2,90,2|2|8,0:0|0:0|0:0,0:0:0:0:
244,368,258839,1,0,0:0:0:0:
120,292,259003,6,0,B|130:275|130:275|168:246,1,67.5,12|0,0:0|0:0,0:0:0:0:
116,160,259331,6,0,B|66:197|66:197|-1:198,1,101.250003862381,12|0,0:0|0:0,0:0:0:0:
52,64,259659,6,0,B|156:40|156:40|205:44,1,135,12|0,0:0|0:0,0:0:0:0:
229,49,259987,1,8,0:0:0:0:
273,56,260069,1,8,0:0:0:0:
317,63,260151,1,8,0:0:0:0:
361,69,260233,1,8,0:0:0:0:
405,77,260315,6,0,B|449:99|449:99|493:157,1,90,6|2,0:0|0:0,0:0:0:0:
422,266,260643,2,0,B|446:298|446:298|490:320,1,90,8|0,0:0|0:0,0:0:0:0:
386,172,260971,1,2,0:0:0:0:
313,335,261134,1,2,0:0:0:0:
230,227,261298,2,0,B|210:183|210:183|230:119,1,90,8|0,0:0|0:0,0:0:0:0:
222,143,261544,1,0,0:0:0:0:
222,143,261626,1,2,0:0:0:0:
128,46,261790,1,2,0:0:0:0:
75,218,261954,2,0,B|65:173|65:173|23:134,1,90,8|0,0:0|0:0,0:0:0:0:
230,227,262282,2,0,B|275:224|275:224|334:191,2,90,2|2|8,0:0|0:0|0:0,0:0:0:0:
87,306,262774,1,2,0:0:0:0:
192,341,262938,6,0,B|268:349|268:349|320:337,1,90,12|2,0:0|0:0,0:0:0:0:
385,324,263184,1,8,0:0:0:0:
385,324,263266,2,0,L|448:347,1,45,8|8,0:0|0:0,0:0:0:0:
476,200,263430,2,0,L|475:260,1,45,8|8,0:3|0:3,0:0:0:0:
320,180,263593,2,0,L|381:193,1,45,12|12,0:3|0:3,0:0:0:0:
432,96,263757,2,0,L|462:35,1,45,4|4,0:3|0:3,0:0:0:0:
328,40,263921,2,0,L|271:27,3,45,8|8|8|8,0:0|0:0|0:0|0:0,0:0:0:0:
180,72,264249,6,0,L|123:59,3,45,12|8|8|8,0:0|0:0|0:0|0:0,0:0:0:0:
51,152,264577,2,0,L|92:194,1,45,8|8,0:3|0:3,0:0:0:0:
244,187,264741,2,0,L|201:242,1,45,4|4,0:3|0:3,0:0:0:0:
151,313,264905,6,0,L|209:367,1,45,12|2,0:0|0:0,0:0:0:0:
272,320,265069,2,0,L|315:331,1,45,12|2,0:0|0:0,0:0:0:0:
380,266,265233,2,0,L|443:271,1,45,8|8,0:0|0:0,0:0:0:0:
438,179,265397,2,0,L|481:167,1,45,8|8,0:0|0:0,0:0:0:0:
256,192,266216,12,6,268266,0:0:0:0:
