osu file format v14

[General]
AudioFilename: audio.mp3
AudioLeadIn: 0
PreviewTime: 61345
Countdown: 0
SampleSet: Soft
StackLeniency: 0.7
Mode: 3
LetterboxInBreaks: 0
SpecialStyle: 0
WidescreenStoryboard: 1

[Editor]
DistanceSpacing: 1
BeatDivisor: 4
GridSize: 4
TimelineZoom: 1.9

[Metadata]
Title:W:Wonder tale (TV Size)
TitleUnicode:W:Wonder tale (TV Size)
Artist:Tamura Yukari
ArtistUnicode:田村ゆかり
Creator:Davin Fortune
Version:Normal
Source:俺の彼女と幼なじみが修羅場すぎる
Tags:Ore no Kanojo to Osananajimi ga Shuraba Sugiru Pop Japanese Ending 1 Oreshura 俺修羅 My Girlfriend and Childhood Friend Fight Too Much Anime A Spiral Seed Album
BeatmapID:1319281
BeatmapSetID:625857

[Difficulty]
HPDrainRate:6
CircleSize:4
OverallDifficulty:6
ApproachRate:5
SliderMultiplier:1.4
SliderTickRate:1

[Events]
//Background and Video events
0,0,"0001-c9466.jpg",0,0
//Break Periods
//Storyboard Layer 0 (Background)
//Storyboard Layer 1 (Fail)
//Storyboard Layer 2 (Pass)
//Storyboard Layer 3 (Foreground)
//Storyboard Sound Samples

[TimingPoints]
2510,392.156862745098,4,2,0,5,1,0
10254,327.510917030568,4,2,0,5,1,0
61345,-100,4,2,0,5,0,1
82306,-100,4,2,0,5,0,0

[HitObjects]
448,192,2510,128,0,2902:0:0:0:0:
320,192,2902,128,0,3294:0:0:0:0:
192,192,3294,128,0,3686:0:0:0:0:
64,192,3686,128,0,4078:0:0:0:0:
448,192,4078,1,0,0:0:0:0:
192,192,4862,128,0,5255:0:0:0:0:
320,192,5255,128,0,5647:0:0:0:0:
448,192,5647,1,0,0:0:0:0:
64,192,5647,128,0,6039:0:0:0:0:
192,192,6039,128,0,6431:0:0:0:0:
448,192,6431,128,0,6823:0:0:0:0:
320,192,6431,1,0,0:0:0:0:
64,192,6823,128,0,7215:0:0:0:0:
320,192,7215,128,0,8784:0:0:0:0:
448,192,7215,1,0,0:0:0:0:
64,192,9568,1,0,0:0:0:0:
192,192,9666,1,0,0:0:0:0:
320,192,9764,1,0,0:0:0:0:
448,192,9862,1,0,0:0:0:0:
64,192,9960,1,0,0:0:0:0:
192,192,10059,1,0,0:0:0:0:
320,192,10157,1,0,0:0:0:0:
64,192,10254,1,0,0:0:0:0:
448,192,10255,1,0,0:0:0:0:
320,192,10581,1,0,0:0:0:0:
192,192,10581,1,0,0:0:0:0:
64,192,10909,1,0,0:0:0:0:
192,192,11072,1,0,0:0:0:0:
448,192,11236,1,0,0:0:0:0:
320,192,11236,1,0,0:0:0:0:
320,192,11564,1,0,0:0:0:0:
192,192,11891,1,0,0:0:0:0:
448,192,11891,1,0,0:0:0:0:
320,192,12219,1,0,0:0:0:0:
192,192,12382,1,0,0:0:0:0:
64,192,12546,1,0,0:0:0:0:
448,192,12546,1,0,0:0:0:0:
448,192,12874,1,0,0:0:0:0:
192,192,13201,1,0,0:0:0:0:
64,192,13201,1,0,0:0:0:0:
320,192,13529,1,0,0:0:0:0:
448,192,13692,1,0,0:0:0:0:
192,192,13856,1,0,0:0:0:0:
320,192,13856,1,0,0:0:0:0:
448,192,14184,1,0,0:0:0:0:
320,192,14511,1,0,0:0:0:0:
64,192,14511,1,0,0:0:0:0:
192,192,14839,1,0,0:0:0:0:
320,192,15002,1,0,0:0:0:0:
448,192,15166,1,0,0:0:0:0:
192,192,15166,1,0,0:0:0:0:
320,192,15494,1,0,0:0:0:0:
192,192,15821,1,0,0:0:0:0:
64,192,15821,1,0,0:0:0:0:
192,192,16149,1,0,0:0:0:0:
320,192,16312,1,0,0:0:0:0:
192,192,16476,1,0,0:0:0:0:
448,192,16476,1,0,0:0:0:0:
448,192,16804,1,0,0:0:0:0:
192,192,17131,1,0,0:0:0:0:
64,192,17131,1,0,0:0:0:0:
320,192,17459,1,0,0:0:0:0:
192,192,17622,1,0,0:0:0:0:
448,192,17786,1,0,0:0:0:0:
320,192,17786,1,0,0:0:0:0:
64,192,17950,128,0,18114:0:0:0:0:
448,192,19424,1,0,0:0:0:0:
320,192,19424,1,0,0:0:0:0:
192,192,19751,1,0,0:0:0:0:
64,192,20079,1,0,0:0:0:0:
320,192,20406,1,0,0:0:0:0:
448,192,20734,1,0,0:0:0:0:
192,192,21061,1,0,0:0:0:0:
320,192,21389,1,0,0:0:0:0:
64,192,21716,1,0,0:0:0:0:
448,192,21880,128,0,22044:0:0:0:0:
192,192,22044,1,0,0:0:0:0:
320,192,22371,1,0,0:0:0:0:
64,192,22699,1,0,0:0:0:0:
320,192,23026,1,0,0:0:0:0:
448,192,23354,1,0,0:0:0:0:
192,192,23681,1,0,0:0:0:0:
448,192,24009,1,0,0:0:0:0:
64,192,24336,1,0,0:0:0:0:
320,192,24500,128,0,24664:0:0:0:0:
192,192,24664,1,0,0:0:0:0:
448,192,24991,1,0,0:0:0:0:
64,192,25319,1,0,0:0:0:0:
320,192,25647,1,0,0:0:0:0:
448,192,25974,1,0,0:0:0:0:
192,192,26302,1,0,0:0:0:0:
320,192,26629,1,0,0:0:0:0:
64,192,26957,1,0,0:0:0:0:
320,192,27120,128,0,27284:0:0:0:0:
448,192,27284,1,0,0:0:0:0:
192,192,27612,1,0,0:0:0:0:
64,192,27939,1,0,0:0:0:0:
320,192,28267,1,0,0:0:0:0:
64,192,28430,128,0,28594:0:0:0:0:
448,192,28594,1,0,0:0:0:0:
64,192,29413,1,0,0:0:0:0:
192,192,29413,1,0,0:0:0:0:
320,192,29577,1,0,0:0:0:0:
448,192,29577,1,0,0:0:0:0:
192,192,29904,1,0,0:0:0:0:
64,192,29904,1,0,0:0:0:0:
320,192,30232,1,0,0:0:0:0:
448,192,30232,1,0,0:0:0:0:
448,192,30559,1,0,0:0:0:0:
320,192,30723,1,0,0:0:0:0:
64,192,30887,1,0,0:0:0:0:
448,192,30887,1,0,0:0:0:0:
192,192,31214,1,0,0:0:0:0:
448,192,31542,1,0,0:0:0:0:
64,192,31542,1,0,0:0:0:0:
192,192,31869,1,0,0:0:0:0:
320,192,32033,1,0,0:0:0:0:
448,192,32197,1,0,0:0:0:0:
64,192,32197,1,0,0:0:0:0:
320,192,32524,1,0,0:0:0:0:
192,192,32852,1,0,0:0:0:0:
64,192,32852,1,0,0:0:0:0:
320,192,33179,1,0,0:0:0:0:
448,192,33343,1,0,0:0:0:0:
320,192,33507,1,0,0:0:0:0:
192,192,33507,1,0,0:0:0:0:
64,192,33834,1,0,0:0:0:0:
192,192,34162,1,0,0:0:0:0:
448,192,34162,1,0,0:0:0:0:
320,192,34489,1,0,0:0:0:0:
192,192,34653,1,0,0:0:0:0:
448,192,34817,1,0,0:0:0:0:
320,192,34817,1,0,0:0:0:0:
64,192,35144,1,0,0:0:0:0:
192,192,35472,1,0,0:0:0:0:
320,192,35472,1,0,0:0:0:0:
448,192,35799,1,0,0:0:0:0:
320,192,35963,1,0,0:0:0:0:
64,192,36127,1,0,0:0:0:0:
192,192,36127,1,0,0:0:0:0:
192,192,36454,1,0,0:0:0:0:
448,192,36782,1,0,0:0:0:0:
320,192,36782,1,0,0:0:0:0:
192,192,37109,1,0,0:0:0:0:
64,192,37273,1,0,0:0:0:0:
192,192,37437,1,0,0:0:0:0:
448,192,37437,1,0,0:0:0:0:
448,192,37764,1,0,0:0:0:0:
320,192,38092,1,0,0:0:0:0:
64,192,38092,1,0,0:0:0:0:
192,192,38419,1,0,0:0:0:0:
320,192,38583,1,0,0:0:0:0:
448,192,38747,1,0,0:0:0:0:
192,192,38747,1,0,0:0:0:0:
64,192,38911,128,0,39074:0:0:0:0:
320,192,39074,1,0,0:0:0:0:
192,192,39238,1,0,0:0:0:0:
192,192,39566,1,0,0:0:0:0:
192,192,39893,1,0,0:0:0:0:
320,192,40057,1,0,0:0:0:0:
448,192,40221,128,0,40385:0:0:0:0:
64,192,40385,1,0,0:0:0:0:
192,192,40385,1,0,0:0:0:0:
64,192,40876,1,0,0:0:0:0:
320,192,41040,1,0,0:0:0:0:
192,192,41040,1,0,0:0:0:0:
448,192,41367,1,0,0:0:0:0:
320,192,41695,1,0,0:0:0:0:
192,192,41858,1,0,0:0:0:0:
64,192,42022,1,0,0:0:0:0:
192,192,42350,1,0,0:0:0:0:
448,192,42350,1,0,0:0:0:0:
320,192,42677,1,0,0:0:0:0:
448,192,43005,1,0,0:0:0:0:
64,192,43005,1,0,0:0:0:0:
192,192,43496,1,0,0:0:0:0:
320,192,43660,1,0,0:0:0:0:
448,192,43987,1,0,0:0:0:0:
64,192,44151,128,0,44315:0:0:0:0:
320,192,44315,1,0,0:0:0:0:
448,192,44478,1,0,0:0:0:0:
192,192,44642,1,0,0:0:0:0:
320,192,44806,1,0,0:0:0:0:
448,192,44970,1,0,0:0:0:0:
192,192,45133,1,0,0:0:0:0:
64,192,45297,1,0,0:0:0:0:
320,192,45461,128,0,45625:0:0:0:0:
192,192,45625,1,0,0:0:0:0:
448,192,45625,1,0,0:0:0:0:
448,192,45952,1,0,0:0:0:0:
320,192,46116,1,0,0:0:0:0:
64,192,46280,1,0,0:0:0:0:
192,192,46280,1,0,0:0:0:0:
448,192,46607,1,0,0:0:0:0:
320,192,46935,1,0,0:0:0:0:
192,192,46935,1,0,0:0:0:0:
64,192,47098,1,0,0:0:0:0:
192,192,47262,1,0,0:0:0:0:
320,192,47590,1,0,0:0:0:0:
448,192,47917,1,0,0:0:0:0:
192,192,48245,1,0,0:0:0:0:
64,192,48245,1,0,0:0:0:0:
64,192,48900,1,0,0:0:0:0:
448,192,49227,1,0,0:0:0:0:
64,192,49555,1,0,0:0:0:0:
192,192,49719,1,0,0:0:0:0:
448,192,49882,1,0,0:0:0:0:
320,192,50046,1,0,0:0:0:0:
64,192,50210,1,0,0:0:0:0:
448,192,50210,1,0,0:0:0:0:
192,192,50374,128,0,50537:0:0:0:0:
448,192,50701,128,0,50865:0:0:0:0:
64,192,50865,1,0,0:0:0:0:
320,192,50865,1,0,0:0:0:0:
192,192,51192,1,0,0:0:0:0:
320,192,51520,1,0,0:0:0:0:
448,192,51847,1,0,0:0:0:0:
64,192,52175,1,0,0:0:0:0:
192,192,52502,1,0,0:0:0:0:
448,192,52830,1,0,0:0:0:0:
64,192,53157,1,0,0:0:0:0:
192,192,53485,1,0,0:0:0:0:
320,192,53812,1,0,0:0:0:0:
64,192,54140,1,0,0:0:0:0:
448,192,54467,1,0,0:0:0:0:
320,192,54795,1,0,0:0:0:0:
192,192,55122,1,0,0:0:0:0:
448,192,55450,1,0,0:0:0:0:
320,192,55614,1,0,0:0:0:0:
64,192,55778,1,0,0:0:0:0:
192,192,55778,1,0,0:0:0:0:
192,192,56105,1,0,0:0:0:0:
448,192,56433,1,0,0:0:0:0:
64,192,56433,1,0,0:0:0:0:
320,192,56760,1,0,0:0:0:0:
192,192,56924,1,0,0:0:0:0:
64,192,57088,1,0,0:0:0:0:
448,192,57088,1,0,0:0:0:0:
320,192,57415,1,0,0:0:0:0:
64,192,57743,1,0,0:0:0:0:
448,192,57743,1,0,0:0:0:0:
192,192,58070,1,0,0:0:0:0:
320,192,58234,1,0,0:0:0:0:
448,192,58398,1,0,0:0:0:0:
64,192,58398,1,0,0:0:0:0:
192,192,58725,1,0,0:0:0:0:
64,192,58725,1,0,0:0:0:0:
320,192,59053,1,0,0:0:0:0:
448,192,59053,1,0,0:0:0:0:
64,192,59380,1,0,0:0:0:0:
192,192,59544,1,0,0:0:0:0:
448,192,59708,1,0,0:0:0:0:
320,192,59708,1,0,0:0:0:0:
320,192,60035,128,0,60363:0:0:0:0:
64,192,60363,1,0,0:0:0:0:
192,192,60526,1,0,0:0:0:0:
448,192,60690,128,0,61345:0:0:0:0:
64,192,61345,1,0,0:0:0:0:
192,192,61673,1,0,0:0:0:0:
320,192,61673,1,0,0:0:0:0:
64,192,62000,1,0,0:0:0:0:
448,192,62164,1,0,0:0:0:0:
64,192,62328,1,0,0:0:0:0:
192,192,62328,1,0,0:0:0:0:
320,192,62655,1,0,0:0:0:0:
192,192,62983,1,0,0:0:0:0:
64,192,62983,1,0,0:0:0:0:
320,192,63310,1,0,0:0:0:0:
448,192,63474,1,0,0:0:0:0:
64,192,63638,1,0,0:0:0:0:
320,192,63638,1,0,0:0:0:0:
192,192,63965,1,0,0:0:0:0:
64,192,64293,1,0,0:0:0:0:
448,192,64293,1,0,0:0:0:0:
320,192,64620,1,0,0:0:0:0:
192,192,64784,1,0,0:0:0:0:
448,192,64948,1,0,0:0:0:0:
64,192,64948,1,0,0:0:0:0:
320,192,65275,1,0,0:0:0:0:
192,192,65603,1,0,0:0:0:0:
64,192,65603,1,0,0:0:0:0:
448,192,65930,1,0,0:0:0:0:
320,192,66094,1,0,0:0:0:0:
64,192,66258,1,0,0:0:0:0:
192,192,66258,1,0,0:0:0:0:
320,192,66585,1,0,0:0:0:0:
64,192,66913,1,0,0:0:0:0:
448,192,66913,1,0,0:0:0:0:
192,192,67240,1,0,0:0:0:0:
320,192,67404,1,0,0:0:0:0:
192,192,67568,1,0,0:0:0:0:
64,192,67568,1,0,0:0:0:0:
448,192,67895,1,0,0:0:0:0:
320,192,68223,1,0,0:0:0:0:
64,192,68223,1,0,0:0:0:0:
192,192,68550,1,0,0:0:0:0:
320,192,68714,1,0,0:0:0:0:
448,192,68878,1,0,0:0:0:0:
64,192,68878,1,0,0:0:0:0:
320,192,69205,1,0,0:0:0:0:
192,192,69533,1,0,0:0:0:0:
64,192,69533,1,0,0:0:0:0:
320,192,69860,1,0,0:0:0:0:
448,192,70024,1,0,0:0:0:0:
320,192,70188,1,0,0:0:0:0:
192,192,70188,1,0,0:0:0:0:
64,192,70516,128,0,70679:0:0:0:0:
192,192,70679,128,0,70843:0:0:0:0:
448,192,70843,1,0,0:0:0:0:
448,192,71171,128,0,71334:0:0:0:0:
320,192,71334,128,0,71498:0:0:0:0:
192,192,71498,1,0,0:0:0:0:
64,192,71826,1,0,0:0:0:0:
448,192,72153,1,0,0:0:0:0:
192,192,72153,1,0,0:0:0:0:
320,192,72481,1,0,0:0:0:0:
64,192,72644,1,0,0:0:0:0:
448,192,72808,1,0,0:0:0:0:
192,192,72808,1,0,0:0:0:0:
192,192,73136,1,0,0:0:0:0:
448,192,73463,1,0,0:0:0:0:
64,192,73463,1,0,0:0:0:0:
320,192,73791,1,0,0:0:0:0:
192,192,73954,1,0,0:0:0:0:
64,192,74118,1,0,0:0:0:0:
448,192,74118,1,0,0:0:0:0:
320,192,74446,1,0,0:0:0:0:
192,192,74773,1,0,0:0:0:0:
448,192,74773,1,0,0:0:0:0:
320,192,75101,1,0,0:0:0:0:
64,192,75264,1,0,0:0:0:0:
320,192,75428,1,0,0:0:0:0:
192,192,75428,1,0,0:0:0:0:
192,192,75756,1,0,0:0:0:0:
448,192,76083,1,0,0:0:0:0:
320,192,76083,1,0,0:0:0:0:
64,192,76411,1,0,0:0:0:0:
192,192,76574,1,0,0:0:0:0:
64,192,76738,1,0,0:0:0:0:
448,192,76738,1,0,0:0:0:0:
192,192,77066,1,0,0:0:0:0:
448,192,77393,1,0,0:0:0:0:
64,192,77393,1,0,0:0:0:0:
192,192,77721,1,0,0:0:0:0:
320,192,77885,1,0,0:0:0:0:
448,192,78048,1,0,0:0:0:0:
64,192,78048,1,0,0:0:0:0:
192,192,78376,1,0,0:0:0:0:
64,192,78703,1,0,0:0:0:0:
320,192,78703,1,0,0:0:0:0:
192,192,79031,1,0,0:0:0:0:
320,192,79195,1,0,0:0:0:0:
448,192,79358,1,0,0:0:0:0:
192,192,79358,1,0,0:0:0:0:
64,192,79686,1,0,0:0:0:0:
448,192,80013,1,0,0:0:0:0:
320,192,80013,1,0,0:0:0:0:
192,192,80341,1,0,0:0:0:0:
320,192,80505,1,0,0:0:0:0:
64,192,80668,1,0,0:0:0:0:
192,192,80668,1,0,0:0:0:0:
192,192,80996,128,0,81160:0:0:0:0:
448,192,81160,128,0,81323:0:0:0:0:
64,192,81323,1,0,0:0:0:0:
64,192,81651,128,0,81815:0:0:0:0:
320,192,81815,128,0,81978:0:0:0:0:
192,192,81978,1,0,0:0:0:0:
448,192,82306,1,0,0:0:0:0:
64,192,82633,1,0,0:0:0:0:
320,192,82633,1,0,0:0:0:0:
192,192,82961,1,0,0:0:0:0:
320,192,83125,1,0,0:0:0:0:
448,192,83288,1,0,0:0:0:0:
64,192,83288,1,0,0:0:0:0:
320,192,83616,1,0,0:0:0:0:
192,192,83943,1,0,0:0:0:0:
64,192,83943,1,0,0:0:0:0:
320,192,84271,1,0,0:0:0:0:
192,192,84435,1,0,0:0:0:0:
448,192,84598,1,0,0:0:0:0:
320,192,84598,1,0,0:0:0:0:
64,192,84926,1,0,0:0:0:0:
192,192,85254,1,0,0:0:0:0:
448,192,85254,1,0,0:0:0:0:
320,192,85581,1,0,0:0:0:0:
192,192,85745,1,0,0:0:0:0:
64,192,85909,1,0,0:0:0:0:
448,192,85909,1,0,0:0:0:0:
192,192,86236,128,0,86891:0:0:0:0:
320,192,86236,128,0,86891:0:0:0:0:
64,192,86891,128,0,87546:0:0:0:0:
448,192,86891,128,0,87546:0:0:0:0:
320,192,87546,128,0,90166:0:0:0:0:
