osu file format v14

[General]
AudioFilename: audio.mp3
AudioLeadIn: 0
PreviewTime: 61345
Countdown: 0
SampleSet: Soft
StackLeniency: 0.7
Mode: 3
LetterboxInBreaks: 0
SpecialStyle: 0
WidescreenStoryboard: 1

[Editor]
DistanceSpacing: 1
BeatDivisor: 4
GridSize: 4
TimelineZoom: 1.9

[Metadata]
Title:W:Wonder tale (TV Size)
TitleUnicode:W:Wonder tale (TV Size)
Artist:Tamura Yukari
ArtistUnicode:田村ゆかり
Creator:Davin Fortune
Version:Insane
Source:俺の彼女と幼なじみが修羅場すぎる
Tags:Ore no Kanojo to Osananajimi ga Shuraba Sugiru Pop Japanese Ending 1 Oreshura 俺修羅 My Girlfriend and Childhood Friend Fight Too Much Anime A Spiral Seed Album
BeatmapID:1319280
BeatmapSetID:625857

[Difficulty]
HPDrainRate:8
CircleSize:4
OverallDifficulty:8.5
ApproachRate:5
SliderMultiplier:1.4
SliderTickRate:1

[Events]
//Background and Video events
0,0,"t024.jpg",0,0
//Break Periods
//Storyboard Layer 0 (Background)
//Storyboard Layer 1 (Fail)
//Storyboard Layer 2 (Pass)
//Storyboard Layer 3 (Foreground)
//Storyboard Sound Samples

[TimingPoints]
2510,392.156862745098,4,2,0,5,1,0
10254,327.510917030568,4,2,0,5,1,0
61345,-100,4,2,0,5,0,1
82306,-100,4,2,0,5,0,0

[HitObjects]
64,192,2411,5,0,0:0:0:0:
192,192,2460,1,0,0:0:0:0:
320,192,2510,1,0,0:0:0:0:
448,192,2510,128,0,3294:0:0:0:0:
320,192,2706,1,0,0:0:0:0:
192,192,2804,1,0,0:0:0:0:
64,192,2902,1,0,0:0:0:0:
192,192,3000,1,0,0:0:0:0:
320,192,3098,1,0,0:0:0:0:
192,192,3196,1,0,0:0:0:0:
64,192,3294,128,0,3686:0:0:0:0:
320,192,3294,1,0,0:0:0:0:
448,192,3392,1,0,0:0:0:0:
320,192,3490,1,0,0:0:0:0:
192,192,3490,1,0,0:0:0:0:
448,192,3588,1,0,0:0:0:0:
320,192,3686,1,0,0:0:0:0:
192,192,3686,128,0,4078:0:0:0:0:
448,192,4078,1,0,0:0:0:0:
320,192,4078,1,0,0:0:0:0:
64,192,4078,128,0,4470:0:0:0:0:
320,192,4274,1,0,0:0:0:0:
192,192,4470,1,0,0:0:0:0:
448,192,4470,128,0,4862:0:0:0:0:
320,192,4470,1,0,0:0:0:0:
192,192,4862,128,0,5255:0:0:0:0:
64,192,4862,1,0,0:0:0:0:
320,192,4862,1,0,0:0:0:0:
448,192,4960,1,0,0:0:0:0:
320,192,5059,1,0,0:0:0:0:
64,192,5157,1,0,0:0:0:0:
320,192,5255,1,0,0:0:0:0:
64,192,5255,128,0,5647:0:0:0:0:
448,192,5647,128,0,6039:0:0:0:0:
320,192,5647,1,0,0:0:0:0:
192,192,5647,1,0,0:0:0:0:
192,192,5843,1,0,0:0:0:0:
320,192,6039,1,0,0:0:0:0:
192,192,6039,128,0,6431:0:0:0:0:
448,192,6235,1,0,0:0:0:0:
320,192,6235,1,0,0:0:0:0:
64,192,6431,1,0,0:0:0:0:
320,192,6431,128,0,6823:0:0:0:0:
448,192,6431,1,0,0:0:0:0:
192,192,6627,1,0,0:0:0:0:
64,192,6823,128,0,7215:0:0:0:0:
448,192,6823,1,0,0:0:0:0:
192,192,6823,1,0,0:0:0:0:
448,192,6921,1,0,0:0:0:0:
320,192,7019,1,0,0:0:0:0:
192,192,7117,1,0,0:0:0:0:
448,192,7215,128,0,8196:0:0:0:0:
320,192,7215,1,0,0:0:0:0:
192,192,7411,1,0,0:0:0:0:
320,192,7608,1,0,0:0:0:0:
64,192,7804,1,0,0:0:0:0:
192,192,8000,1,0,0:0:0:0:
320,192,8196,1,0,0:0:0:0:
64,192,8196,1,0,0:0:0:0:
192,192,8392,1,0,0:0:0:0:
320,192,8392,1,0,0:0:0:0:
448,192,8588,1,0,0:0:0:0:
192,192,8588,1,0,0:0:0:0:
320,192,8686,1,0,0:0:0:0:
192,192,8784,1,0,0:0:0:0:
192,192,9568,1,0,0:0:0:0:
64,192,9568,1,0,0:0:0:0:
320,192,9666,1,0,0:0:0:0:
448,192,9666,1,0,0:0:0:0:
192,192,9764,1,0,0:0:0:0:
64,192,9764,1,0,0:0:0:0:
320,192,9862,1,0,0:0:0:0:
448,192,9862,1,0,0:0:0:0:
192,192,9960,1,0,0:0:0:0:
64,192,9960,1,0,0:0:0:0:
320,192,10059,1,0,0:0:0:0:
448,192,10059,1,0,0:0:0:0:
192,192,10157,1,0,0:0:0:0:
64,192,10157,1,0,0:0:0:0:
448,192,10157,1,0,0:0:0:0:
320,192,10157,1,0,0:0:0:0:
192,192,10581,1,0,0:0:0:0:
64,192,10581,1,0,0:0:0:0:
448,192,10581,1,0,0:0:0:0:
320,192,10909,1,0,0:0:0:0:
192,192,11072,1,0,0:0:0:0:
64,192,11072,1,0,0:0:0:0:
64,192,11236,1,0,0:0:0:0:
192,192,11236,1,0,0:0:0:0:
448,192,11236,1,0,0:0:0:0:
448,192,11482,1,0,0:0:0:0:
320,192,11564,128,0,11727:0:0:0:0:
64,192,11564,1,0,0:0:0:0:
192,192,11564,1,0,0:0:0:0:
448,192,11727,1,0,0:0:0:0:
192,192,11891,1,0,0:0:0:0:
64,192,11891,1,0,0:0:0:0:
448,192,11891,1,0,0:0:0:0:
320,192,12055,1,0,0:0:0:0:
448,192,12219,1,0,0:0:0:0:
320,192,12382,1,0,0:0:0:0:
192,192,12382,1,0,0:0:0:0:
64,192,12546,1,0,0:0:0:0:
448,192,12546,1,0,0:0:0:0:
192,192,12546,1,0,0:0:0:0:
320,192,12792,1,0,0:0:0:0:
192,192,12874,128,0,13037:0:0:0:0:
64,192,12874,1,0,0:0:0:0:
448,192,12874,1,0,0:0:0:0:
320,192,13037,1,0,0:0:0:0:
448,192,13201,1,0,0:0:0:0:
64,192,13201,1,0,0:0:0:0:
192,192,13201,1,0,0:0:0:0:
320,192,13529,1,0,0:0:0:0:
192,192,13692,1,0,0:0:0:0:
64,192,13692,1,0,0:0:0:0:
64,192,13856,1,0,0:0:0:0:
192,192,13856,1,0,0:0:0:0:
448,192,13856,1,0,0:0:0:0:
320,192,14102,1,0,0:0:0:0:
192,192,14184,128,0,14347:0:0:0:0:
64,192,14184,1,0,0:0:0:0:
448,192,14184,1,0,0:0:0:0:
448,192,14347,1,0,0:0:0:0:
64,192,14511,1,0,0:0:0:0:
192,192,14511,1,0,0:0:0:0:
448,192,14511,1,0,0:0:0:0:
64,192,14839,1,0,0:0:0:0:
192,192,15002,1,0,0:0:0:0:
320,192,15002,1,0,0:0:0:0:
448,192,15166,1,0,0:0:0:0:
192,192,15166,1,0,0:0:0:0:
64,192,15166,1,0,0:0:0:0:
192,192,15412,1,0,0:0:0:0:
320,192,15494,128,0,15657:0:0:0:0:
448,192,15494,1,0,0:0:0:0:
64,192,15494,1,0,0:0:0:0:
64,192,15657,1,0,0:0:0:0:
64,192,15821,1,0,0:0:0:0:
192,192,15821,1,0,0:0:0:0:
448,192,15821,1,0,0:0:0:0:
320,192,16149,1,0,0:0:0:0:
192,192,16312,1,0,0:0:0:0:
64,192,16312,1,0,0:0:0:0:
448,192,16476,1,0,0:0:0:0:
320,192,16476,1,0,0:0:0:0:
192,192,16476,1,0,0:0:0:0:
192,192,16722,1,0,0:0:0:0:
448,192,16804,128,0,16967:0:0:0:0:
320,192,16804,1,0,0:0:0:0:
64,192,16804,1,0,0:0:0:0:
64,192,16967,1,0,0:0:0:0:
192,192,17131,1,0,0:0:0:0:
320,192,17131,1,0,0:0:0:0:
448,192,17131,1,0,0:0:0:0:
192,192,17459,1,0,0:0:0:0:
64,192,17622,1,0,0:0:0:0:
320,192,17622,1,0,0:0:0:0:
64,192,17786,1,0,0:0:0:0:
192,192,17786,1,0,0:0:0:0:
448,192,17786,1,0,0:0:0:0:
320,192,18032,1,0,0:0:0:0:
192,192,18073,1,0,0:0:0:0:
64,192,18114,128,0,19424:0:0:0:0:
448,192,18114,128,0,19096:0:0:0:0:
192,192,19424,1,0,0:0:0:0:
320,192,19424,1,0,0:0:0:0:
448,192,19424,1,0,0:0:0:0:
448,192,19751,1,0,0:0:0:0:
320,192,19751,1,0,0:0:0:0:
192,192,19915,1,0,0:0:0:0:
64,192,19915,1,0,0:0:0:0:
448,192,20079,1,0,0:0:0:0:
64,192,20079,1,0,0:0:0:0:
448,192,20406,1,0,0:0:0:0:
64,192,20406,1,0,0:0:0:0:
448,192,20570,1,0,0:0:0:0:
192,192,20570,1,0,0:0:0:0:
64,192,20734,1,0,0:0:0:0:
320,192,20734,1,0,0:0:0:0:
192,192,21061,1,0,0:0:0:0:
448,192,21061,1,0,0:0:0:0:
448,192,21225,1,0,0:0:0:0:
320,192,21225,1,0,0:0:0:0:
192,192,21389,1,0,0:0:0:0:
64,192,21389,1,0,0:0:0:0:
448,192,21716,1,0,0:0:0:0:
64,192,21716,1,0,0:0:0:0:
192,192,21880,1,0,0:0:0:0:
320,192,21880,1,0,0:0:0:0:
448,192,21962,1,0,0:0:0:0:
320,192,22044,1,0,0:0:0:0:
64,192,22044,1,0,0:0:0:0:
448,192,22371,1,0,0:0:0:0:
192,192,22371,1,0,0:0:0:0:
320,192,22535,1,0,0:0:0:0:
64,192,22535,1,0,0:0:0:0:
64,192,22699,1,0,0:0:0:0:
192,192,22699,1,0,0:0:0:0:
448,192,23026,1,0,0:0:0:0:
320,192,23026,1,0,0:0:0:0:
192,192,23190,1,0,0:0:0:0:
64,192,23190,1,0,0:0:0:0:
320,192,23354,1,0,0:0:0:0:
448,192,23354,1,0,0:0:0:0:
320,192,23681,1,0,0:0:0:0:
192,192,23681,1,0,0:0:0:0:
448,192,23845,1,0,0:0:0:0:
64,192,23845,1,0,0:0:0:0:
192,192,24009,1,0,0:0:0:0:
320,192,24009,1,0,0:0:0:0:
448,192,24336,1,0,0:0:0:0:
64,192,24336,1,0,0:0:0:0:
192,192,24500,1,0,0:0:0:0:
64,192,24500,1,0,0:0:0:0:
320,192,24582,1,0,0:0:0:0:
448,192,24664,1,0,0:0:0:0:
64,192,24664,1,0,0:0:0:0:
448,192,24991,1,0,0:0:0:0:
320,192,24991,1,0,0:0:0:0:
192,192,25155,1,0,0:0:0:0:
320,192,25155,1,0,0:0:0:0:
320,192,25319,1,0,0:0:0:0:
448,192,25319,1,0,0:0:0:0:
192,192,25647,1,0,0:0:0:0:
64,192,25647,1,0,0:0:0:0:
448,192,25810,1,0,0:0:0:0:
192,192,25810,1,0,0:0:0:0:
192,192,25974,1,0,0:0:0:0:
64,192,25974,1,0,0:0:0:0:
448,192,26302,1,0,0:0:0:0:
192,192,26302,1,0,0:0:0:0:
320,192,26465,1,0,0:0:0:0:
64,192,26465,1,0,0:0:0:0:
192,192,26629,1,0,0:0:0:0:
448,192,26629,1,0,0:0:0:0:
448,192,26957,1,0,0:0:0:0:
320,192,26957,1,0,0:0:0:0:
64,192,27120,1,0,0:0:0:0:
448,192,27120,1,0,0:0:0:0:
192,192,27202,1,0,0:0:0:0:
448,192,27284,1,0,0:0:0:0:
320,192,27284,1,0,0:0:0:0:
192,192,27612,1,0,0:0:0:0:
64,192,27612,1,0,0:0:0:0:
448,192,27775,1,0,0:0:0:0:
64,192,27775,1,0,0:0:0:0:
320,192,27939,1,0,0:0:0:0:
64,192,27939,1,0,0:0:0:0:
448,192,28267,1,0,0:0:0:0:
192,192,28267,1,0,0:0:0:0:
64,192,28430,1,0,0:0:0:0:
192,192,28471,1,0,0:0:0:0:
320,192,28512,1,0,0:0:0:0:
448,192,28553,1,0,0:0:0:0:
320,192,28594,1,0,0:0:0:0:
64,192,28594,1,0,0:0:0:0:
192,192,28594,1,0,0:0:0:0:
64,192,29413,1,0,0:0:0:0:
320,192,29413,1,0,0:0:0:0:
448,192,29413,1,0,0:0:0:0:
64,192,29577,1,0,0:0:0:0:
320,192,29577,1,0,0:0:0:0:
448,192,29577,1,0,0:0:0:0:
320,192,29904,1,0,0:0:0:0:
448,192,29904,1,0,0:0:0:0:
192,192,29904,128,0,30232:0:0:0:0:
448,192,30232,1,0,0:0:0:0:
320,192,30232,1,0,0:0:0:0:
64,192,30232,1,0,0:0:0:0:
192,192,30559,1,0,0:0:0:0:
64,192,30559,1,0,0:0:0:0:
448,192,30723,1,0,0:0:0:0:
192,192,30723,1,0,0:0:0:0:
320,192,30887,1,0,0:0:0:0:
64,192,30887,1,0,0:0:0:0:
192,192,30887,1,0,0:0:0:0:
64,192,31214,1,0,0:0:0:0:
320,192,31214,1,0,0:0:0:0:
448,192,31214,128,0,31542:0:0:0:0:
192,192,31542,1,0,0:0:0:0:
64,192,31542,1,0,0:0:0:0:
320,192,31542,1,0,0:0:0:0:
448,192,31869,1,0,0:0:0:0:
320,192,31869,1,0,0:0:0:0:
192,192,32033,1,0,0:0:0:0:
64,192,32033,1,0,0:0:0:0:
64,192,32197,1,0,0:0:0:0:
192,192,32197,1,0,0:0:0:0:
448,192,32197,1,0,0:0:0:0:
320,192,32442,1,0,0:0:0:0:
448,192,32524,1,0,0:0:0:0:
64,192,32524,1,0,0:0:0:0:
192,192,32524,128,0,32852:0:0:0:0:
64,192,32852,1,0,0:0:0:0:
320,192,32852,1,0,0:0:0:0:
448,192,32852,1,0,0:0:0:0:
448,192,33179,1,0,0:0:0:0:
192,192,33179,1,0,0:0:0:0:
320,192,33343,1,0,0:0:0:0:
192,192,33343,1,0,0:0:0:0:
64,192,33507,1,0,0:0:0:0:
192,192,33507,1,0,0:0:0:0:
448,192,33507,1,0,0:0:0:0:
320,192,33671,1,0,0:0:0:0:
192,192,33752,1,0,0:0:0:0:
64,192,33834,1,0,0:0:0:0:
448,192,33834,1,0,0:0:0:0:
320,192,33834,128,0,34162:0:0:0:0:
192,192,34162,1,0,0:0:0:0:
64,192,34162,1,0,0:0:0:0:
448,192,34162,1,0,0:0:0:0:
448,192,34489,1,0,0:0:0:0:
192,192,34489,1,0,0:0:0:0:
320,192,34653,1,0,0:0:0:0:
64,192,34653,1,0,0:0:0:0:
64,192,34817,1,0,0:0:0:0:
192,192,34817,1,0,0:0:0:0:
448,192,34817,1,0,0:0:0:0:
448,192,35062,1,0,0:0:0:0:
320,192,35144,1,0,0:0:0:0:
64,192,35144,1,0,0:0:0:0:
192,192,35144,128,0,35472:0:0:0:0:
64,192,35472,1,0,0:0:0:0:
448,192,35472,1,0,0:0:0:0:
320,192,35472,1,0,0:0:0:0:
448,192,35799,1,0,0:0:0:0:
320,192,35799,1,0,0:0:0:0:
320,192,35963,1,0,0:0:0:0:
64,192,35963,1,0,0:0:0:0:
64,192,36127,1,0,0:0:0:0:
192,192,36127,1,0,0:0:0:0:
448,192,36127,1,0,0:0:0:0:
320,192,36372,1,0,0:0:0:0:
448,192,36454,1,0,0:0:0:0:
64,192,36454,1,0,0:0:0:0:
192,192,36454,128,0,36782:0:0:0:0:
448,192,36782,1,0,0:0:0:0:
320,192,36782,1,0,0:0:0:0:
64,192,36782,1,0,0:0:0:0:
64,192,37109,1,0,0:0:0:0:
320,192,37109,1,0,0:0:0:0:
192,192,37273,1,0,0:0:0:0:
448,192,37273,1,0,0:0:0:0:
192,192,37437,1,0,0:0:0:0:
64,192,37437,1,0,0:0:0:0:
448,192,37437,1,0,0:0:0:0:
320,192,37683,1,0,0:0:0:0:
192,192,37764,1,0,0:0:0:0:
64,192,37764,1,0,0:0:0:0:
448,192,37764,128,0,38092:0:0:0:0:
320,192,38092,1,0,0:0:0:0:
192,192,38092,1,0,0:0:0:0:
64,192,38092,1,0,0:0:0:0:
448,192,38419,1,0,0:0:0:0:
320,192,38419,1,0,0:0:0:0:
192,192,38583,1,0,0:0:0:0:
64,192,38583,1,0,0:0:0:0:
64,192,38747,1,0,0:0:0:0:
192,192,38747,1,0,0:0:0:0:
448,192,38747,1,0,0:0:0:0:
320,192,38993,1,0,0:0:0:0:
192,192,39074,1,0,0:0:0:0:
64,192,39074,1,0,0:0:0:0:
448,192,39074,1,0,0:0:0:0:
192,192,39238,1,0,0:0:0:0:
448,192,39238,1,0,0:0:0:0:
192,192,39566,1,0,0:0:0:0:
448,192,39566,1,0,0:0:0:0:
192,192,39893,1,0,0:0:0:0:
448,192,39893,1,0,0:0:0:0:
320,192,40057,1,0,0:0:0:0:
64,192,40057,1,0,0:0:0:0:
448,192,40221,1,0,0:0:0:0:
320,192,40262,1,0,0:0:0:0:
192,192,40303,1,0,0:0:0:0:
64,192,40344,1,0,0:0:0:0:
192,192,40385,1,0,0:0:0:0:
448,192,40385,1,0,0:0:0:0:
320,192,40385,1,0,0:0:0:0:
320,192,40712,1,0,0:0:0:0:
192,192,40876,1,0,0:0:0:0:
64,192,40876,1,0,0:0:0:0:
64,192,41040,1,0,0:0:0:0:
192,192,41040,1,0,0:0:0:0:
448,192,41040,1,0,0:0:0:0:
320,192,41367,1,0,0:0:0:0:
448,192,41531,1,0,0:0:0:0:
320,192,41613,1,0,0:0:0:0:
192,192,41695,1,0,0:0:0:0:
64,192,41695,1,0,0:0:0:0:
448,192,41858,1,0,0:0:0:0:
192,192,41858,1,0,0:0:0:0:
320,192,42022,1,0,0:0:0:0:
192,192,42350,1,0,0:0:0:0:
64,192,42350,1,0,0:0:0:0:
64,192,42677,1,0,0:0:0:0:
192,192,42841,1,0,0:0:0:0:
448,192,43005,1,0,0:0:0:0:
320,192,43005,1,0,0:0:0:0:
64,192,43005,1,0,0:0:0:0:
448,192,43332,1,0,0:0:0:0:
192,192,43332,1,0,0:0:0:0:
320,192,43496,1,0,0:0:0:0:
192,192,43660,1,0,0:0:0:0:
64,192,43660,1,0,0:0:0:0:
448,192,43660,1,0,0:0:0:0:
448,192,43987,1,0,0:0:0:0:
320,192,43987,1,0,0:0:0:0:
192,192,44151,1,0,0:0:0:0:
64,192,44315,1,0,0:0:0:0:
320,192,44315,1,0,0:0:0:0:
448,192,44315,1,0,0:0:0:0:
192,192,44397,1,0,0:0:0:0:
320,192,44478,1,0,0:0:0:0:
448,192,44478,1,0,0:0:0:0:
192,192,44642,1,0,0:0:0:0:
64,192,44806,1,0,0:0:0:0:
320,192,44806,1,0,0:0:0:0:
192,192,44970,1,0,0:0:0:0:
320,192,44970,1,0,0:0:0:0:
448,192,44970,1,0,0:0:0:0:
192,192,45133,1,0,0:0:0:0:
64,192,45133,1,0,0:0:0:0:
192,192,45297,1,0,0:0:0:0:
320,192,45297,1,0,0:0:0:0:
448,192,45461,1,0,0:0:0:0:
320,192,45502,1,0,0:0:0:0:
192,192,45543,1,0,0:0:0:0:
64,192,45584,1,0,0:0:0:0:
192,192,45625,1,0,0:0:0:0:
448,192,45625,1,0,0:0:0:0:
320,192,45625,1,0,0:0:0:0:
320,192,45952,1,0,0:0:0:0:
192,192,46116,1,0,0:0:0:0:
64,192,46116,1,0,0:0:0:0:
192,192,46280,1,0,0:0:0:0:
64,192,46280,1,0,0:0:0:0:
448,192,46280,1,0,0:0:0:0:
320,192,46607,1,0,0:0:0:0:
64,192,46771,1,0,0:0:0:0:
192,192,46853,1,0,0:0:0:0:
320,192,46935,1,0,0:0:0:0:
448,192,46935,1,0,0:0:0:0:
64,192,46935,1,0,0:0:0:0:
192,192,47098,1,0,0:0:0:0:
64,192,47098,1,0,0:0:0:0:
320,192,47262,1,0,0:0:0:0:
448,192,47426,1,0,0:0:0:0:
64,192,47426,1,0,0:0:0:0:
64,192,47590,1,0,0:0:0:0:
192,192,47590,1,0,0:0:0:0:
448,192,47590,1,0,0:0:0:0:
320,192,47754,1,0,0:0:0:0:
64,192,47754,1,0,0:0:0:0:
192,192,47917,1,0,0:0:0:0:
320,192,48081,1,0,0:0:0:0:
448,192,48245,1,0,0:0:0:0:
64,192,48245,1,0,0:0:0:0:
192,192,48245,1,0,0:0:0:0:
320,192,48409,1,0,0:0:0:0:
448,192,48572,1,0,0:0:0:0:
64,192,48572,1,0,0:0:0:0:
192,192,48736,1,0,0:0:0:0:
64,192,48736,1,0,0:0:0:0:
192,192,48900,1,0,0:0:0:0:
64,192,48900,1,0,0:0:0:0:
448,192,48900,1,0,0:0:0:0:
320,192,49064,1,0,0:0:0:0:
192,192,49145,1,0,0:0:0:0:
64,192,49227,1,0,0:0:0:0:
448,192,49227,1,0,0:0:0:0:
320,192,49391,1,0,0:0:0:0:
192,192,49555,1,0,0:0:0:0:
64,192,49555,1,0,0:0:0:0:
448,192,49555,1,0,0:0:0:0:
192,192,49719,1,0,0:0:0:0:
64,192,49719,1,0,0:0:0:0:
320,192,49882,1,0,0:0:0:0:
192,192,50046,1,0,0:0:0:0:
448,192,50046,1,0,0:0:0:0:
448,192,50210,1,0,0:0:0:0:
64,192,50210,1,0,0:0:0:0:
192,192,50210,1,0,0:0:0:0:
320,192,50374,1,0,0:0:0:0:
64,192,50374,1,0,0:0:0:0:
192,192,50455,1,0,0:0:0:0:
448,192,50455,1,0,0:0:0:0:
320,192,50537,1,0,0:0:0:0:
64,192,50537,1,0,0:0:0:0:
64,192,50701,1,0,0:0:0:0:
192,192,50742,1,0,0:0:0:0:
320,192,50783,1,0,0:0:0:0:
448,192,50824,1,0,0:0:0:0:
320,192,50865,1,0,0:0:0:0:
64,192,50865,1,0,0:0:0:0:
192,192,50865,1,0,0:0:0:0:
192,192,51192,1,0,0:0:0:0:
448,192,51192,1,0,0:0:0:0:
320,192,51520,1,0,0:0:0:0:
64,192,51520,1,0,0:0:0:0:
192,192,51684,1,0,0:0:0:0:
320,192,51847,1,0,0:0:0:0:
448,192,51847,1,0,0:0:0:0:
192,192,52175,1,0,0:0:0:0:
64,192,52175,1,0,0:0:0:0:
448,192,52175,1,0,0:0:0:0:
320,192,52502,1,0,0:0:0:0:
448,192,52502,1,0,0:0:0:0:
192,192,52830,1,0,0:0:0:0:
64,192,52830,1,0,0:0:0:0:
320,192,52994,1,0,0:0:0:0:
448,192,53157,1,0,0:0:0:0:
192,192,53157,1,0,0:0:0:0:
320,192,53321,1,0,0:0:0:0:
192,192,53485,1,0,0:0:0:0:
64,192,53485,1,0,0:0:0:0:
448,192,53485,1,0,0:0:0:0:
192,192,53812,1,0,0:0:0:0:
320,192,53812,1,0,0:0:0:0:
448,192,54140,1,0,0:0:0:0:
64,192,54140,1,0,0:0:0:0:
192,192,54467,1,0,0:0:0:0:
320,192,54467,1,0,0:0:0:0:
448,192,54631,1,0,0:0:0:0:
320,192,54713,1,0,0:0:0:0:
192,192,54795,1,0,0:0:0:0:
64,192,54795,1,0,0:0:0:0:
448,192,54795,1,0,0:0:0:0:
320,192,55122,1,0,0:0:0:0:
192,192,55122,1,0,0:0:0:0:
64,192,55286,1,0,0:0:0:0:
192,192,55450,1,0,0:0:0:0:
320,192,55614,1,0,0:0:0:0:
448,192,55614,1,0,0:0:0:0:
192,192,55778,1,0,0:0:0:0:
64,192,55778,1,0,0:0:0:0:
448,192,55778,1,0,0:0:0:0:
448,192,56023,1,0,0:0:0:0:
320,192,56105,1,0,0:0:0:0:
64,192,56105,1,0,0:0:0:0:
192,192,56105,128,0,56433:0:0:0:0:
448,192,56433,1,0,0:0:0:0:
320,192,56433,1,0,0:0:0:0:
64,192,56433,1,0,0:0:0:0:
320,192,56760,1,0,0:0:0:0:
448,192,56760,1,0,0:0:0:0:
192,192,56924,1,0,0:0:0:0:
64,192,56924,1,0,0:0:0:0:
192,192,57088,1,0,0:0:0:0:
64,192,57088,1,0,0:0:0:0:
448,192,57088,1,0,0:0:0:0:
320,192,57333,1,0,0:0:0:0:
448,192,57415,1,0,0:0:0:0:
64,192,57415,1,0,0:0:0:0:
192,192,57415,128,0,57743:0:0:0:0:
448,192,57743,1,0,0:0:0:0:
320,192,57743,1,0,0:0:0:0:
64,192,57743,1,0,0:0:0:0:
320,192,58070,1,0,0:0:0:0:
192,192,58070,1,0,0:0:0:0:
64,192,58234,1,0,0:0:0:0:
448,192,58234,1,0,0:0:0:0:
64,192,58398,1,0,0:0:0:0:
192,192,58398,1,0,0:0:0:0:
448,192,58398,1,0,0:0:0:0:
320,192,58643,1,0,0:0:0:0:
448,192,58725,1,0,0:0:0:0:
64,192,58725,1,0,0:0:0:0:
192,192,58725,128,0,59053:0:0:0:0:
448,192,59053,1,0,0:0:0:0:
320,192,59053,1,0,0:0:0:0:
64,192,59053,1,0,0:0:0:0:
448,192,59380,1,0,0:0:0:0:
64,192,59380,1,0,0:0:0:0:
64,192,59544,1,0,0:0:0:0:
192,192,59544,1,0,0:0:0:0:
64,192,59708,1,0,0:0:0:0:
192,192,59708,1,0,0:0:0:0:
448,192,59708,1,0,0:0:0:0:
320,192,59953,1,0,0:0:0:0:
448,192,60035,1,0,0:0:0:0:
64,192,60035,1,0,0:0:0:0:
320,192,60199,1,0,0:0:0:0:
192,192,60199,1,0,0:0:0:0:
448,192,60281,1,0,0:0:0:0:
64,192,60281,1,0,0:0:0:0:
320,192,60363,1,0,0:0:0:0:
192,192,60363,1,0,0:0:0:0:
64,192,60526,1,0,0:0:0:0:
192,192,60526,1,0,0:0:0:0:
192,192,60690,1,0,0:0:0:0:
320,192,60690,1,0,0:0:0:0:
64,192,60772,1,0,0:0:0:0:
192,192,60854,1,0,0:0:0:0:
320,192,60936,1,0,0:0:0:0:
64,192,61018,1,0,0:0:0:0:
192,192,61018,1,0,0:0:0:0:
320,192,61100,1,0,0:0:0:0:
448,192,61100,1,0,0:0:0:0:
64,192,61181,1,0,0:0:0:0:
192,192,61181,1,0,0:0:0:0:
320,192,61263,1,0,0:0:0:0:
448,192,61263,1,0,0:0:0:0:
64,192,61345,1,0,0:0:0:0:
320,192,61345,128,0,62000:0:0:0:0:
192,192,61345,1,0,0:0:0:0:
448,192,61673,1,0,0:0:0:0:
64,192,61673,1,0,0:0:0:0:
192,192,61673,1,0,0:0:0:0:
192,192,62000,128,0,62655:0:0:0:0:
448,192,62000,1,0,0:0:0:0:
64,192,62000,1,0,0:0:0:0:
320,192,62164,1,0,0:0:0:0:
448,192,62164,1,0,0:0:0:0:
448,192,62328,1,0,0:0:0:0:
320,192,62328,1,0,0:0:0:0:
64,192,62328,1,0,0:0:0:0:
448,192,62491,1,0,0:0:0:0:
320,192,62573,1,0,0:0:0:0:
448,192,62655,1,0,0:0:0:0:
64,192,62655,1,0,0:0:0:0:
192,192,62819,1,0,0:0:0:0:
64,192,62819,1,0,0:0:0:0:
64,192,62983,1,0,0:0:0:0:
448,192,62983,1,0,0:0:0:0:
320,192,62983,1,0,0:0:0:0:
192,192,62983,128,0,63147:0:0:0:0:
320,192,63310,128,0,63965:0:0:0:0:
448,192,63310,1,0,0:0:0:0:
64,192,63310,1,0,0:0:0:0:
64,192,63474,1,0,0:0:0:0:
192,192,63474,1,0,0:0:0:0:
192,192,63638,1,0,0:0:0:0:
64,192,63638,1,0,0:0:0:0:
448,192,63638,1,0,0:0:0:0:
448,192,63965,128,0,64620:0:0:0:0:
192,192,63965,1,0,0:0:0:0:
64,192,63965,1,0,0:0:0:0:
192,192,64293,1,0,0:0:0:0:
64,192,64293,1,0,0:0:0:0:
320,192,64293,1,0,0:0:0:0:
192,192,64620,128,0,65275:0:0:0:0:
64,192,64620,1,0,0:0:0:0:
320,192,64620,1,0,0:0:0:0:
320,192,64784,1,0,0:0:0:0:
448,192,64784,1,0,0:0:0:0:
320,192,64948,1,0,0:0:0:0:
448,192,64948,1,0,0:0:0:0:
64,192,64948,1,0,0:0:0:0:
448,192,65275,1,0,0:0:0:0:
320,192,65275,1,0,0:0:0:0:
320,192,65439,1,0,0:0:0:0:
64,192,65439,1,0,0:0:0:0:
192,192,65603,1,0,0:0:0:0:
64,192,65603,1,0,0:0:0:0:
448,192,65603,1,0,0:0:0:0:
320,192,65603,128,0,65767:0:0:0:0:
448,192,65930,128,0,66585:0:0:0:0:
320,192,65930,1,0,0:0:0:0:
192,192,65930,1,0,0:0:0:0:
192,192,66094,1,0,0:0:0:0:
64,192,66094,1,0,0:0:0:0:
64,192,66258,1,0,0:0:0:0:
192,192,66258,1,0,0:0:0:0:
320,192,66258,1,0,0:0:0:0:
192,192,66585,128,0,67240:0:0:0:0:
320,192,66585,1,0,0:0:0:0:
64,192,66585,1,0,0:0:0:0:
448,192,66913,1,0,0:0:0:0:
320,192,66913,1,0,0:0:0:0:
64,192,66913,1,0,0:0:0:0:
448,192,67240,128,0,67895:0:0:0:0:
320,192,67240,1,0,0:0:0:0:
64,192,67240,1,0,0:0:0:0:
64,192,67404,1,0,0:0:0:0:
320,192,67404,1,0,0:0:0:0:
64,192,67568,1,0,0:0:0:0:
192,192,67568,1,0,0:0:0:0:
320,192,67568,1,0,0:0:0:0:
192,192,67895,128,0,68550:0:0:0:0:
64,192,67895,1,0,0:0:0:0:
320,192,67895,1,0,0:0:0:0:
448,192,68223,1,0,0:0:0:0:
320,192,68223,1,0,0:0:0:0:
64,192,68223,1,0,0:0:0:0:
64,192,68550,128,0,69205:0:0:0:0:
448,192,68550,1,0,0:0:0:0:
320,192,68550,1,0,0:0:0:0:
320,192,68714,1,0,0:0:0:0:
448,192,68714,1,0,0:0:0:0:
192,192,68878,1,0,0:0:0:0:
320,192,68878,1,0,0:0:0:0:
448,192,68878,1,0,0:0:0:0:
320,192,69205,128,0,69860:0:0:0:0:
448,192,69205,1,0,0:0:0:0:
192,192,69205,1,0,0:0:0:0:
64,192,69533,1,0,0:0:0:0:
192,192,69533,1,0,0:0:0:0:
448,192,69533,1,0,0:0:0:0:
448,192,69860,128,0,70516:0:0:0:0:
192,192,69860,1,0,0:0:0:0:
64,192,69860,1,0,0:0:0:0:
64,192,70024,1,0,0:0:0:0:
192,192,70024,1,0,0:0:0:0:
192,192,70188,1,0,0:0:0:0:
320,192,70188,1,0,0:0:0:0:
64,192,70188,1,0,0:0:0:0:
64,192,70516,1,0,0:0:0:0:
192,192,70516,1,0,0:0:0:0:
320,192,70516,1,0,0:0:0:0:
64,192,70679,1,0,0:0:0:0:
192,192,70679,1,0,0:0:0:0:
448,192,70843,1,0,0:0:0:0:
192,192,70843,1,0,0:0:0:0:
64,192,70843,1,0,0:0:0:0:
320,192,70843,128,0,71007:0:0:0:0:
64,192,71171,1,0,0:0:0:0:
448,192,71171,1,0,0:0:0:0:
320,192,71171,1,0,0:0:0:0:
448,192,71334,1,0,0:0:0:0:
64,192,71334,1,0,0:0:0:0:
64,192,71498,1,0,0:0:0:0:
448,192,71498,1,0,0:0:0:0:
320,192,71498,1,0,0:0:0:0:
192,192,71498,128,0,71662:0:0:0:0:
448,192,71826,128,0,72481:0:0:0:0:
320,192,71826,1,0,0:0:0:0:
64,192,71826,1,0,0:0:0:0:
64,192,72153,1,0,0:0:0:0:
192,192,72153,1,0,0:0:0:0:
320,192,72153,1,0,0:0:0:0:
320,192,72481,128,0,73136:0:0:0:0:
192,192,72481,1,0,0:0:0:0:
64,192,72481,1,0,0:0:0:0:
64,192,72644,1,0,0:0:0:0:
192,192,72644,1,0,0:0:0:0:
192,192,72808,1,0,0:0:0:0:
64,192,72808,1,0,0:0:0:0:
448,192,72808,1,0,0:0:0:0:
448,192,73136,128,0,73791:0:0:0:0:
192,192,73136,1,0,0:0:0:0:
64,192,73136,1,0,0:0:0:0:
64,192,73463,1,0,0:0:0:0:
192,192,73463,1,0,0:0:0:0:
320,192,73463,1,0,0:0:0:0:
320,192,73791,128,0,74446:0:0:0:0:
192,192,73791,1,0,0:0:0:0:
64,192,73791,1,0,0:0:0:0:
448,192,73954,1,0,0:0:0:0:
64,192,73954,1,0,0:0:0:0:
192,192,74118,1,0,0:0:0:0:
64,192,74118,1,0,0:0:0:0:
448,192,74118,1,0,0:0:0:0:
448,192,74446,128,0,75101:0:0:0:0:
192,192,74446,1,0,0:0:0:0:
64,192,74446,1,0,0:0:0:0:
64,192,74773,1,0,0:0:0:0:
192,192,74773,1,0,0:0:0:0:
320,192,74773,1,0,0:0:0:0:
192,192,75101,128,0,75756:0:0:0:0:
320,192,75101,1,0,0:0:0:0:
64,192,75101,1,0,0:0:0:0:
320,192,75264,1,0,0:0:0:0:
448,192,75264,1,0,0:0:0:0:
448,192,75428,1,0,0:0:0:0:
320,192,75428,1,0,0:0:0:0:
64,192,75428,1,0,0:0:0:0:
448,192,75756,1,0,0:0:0:0:
320,192,75756,1,0,0:0:0:0:
64,192,75756,1,0,0:0:0:0:
64,192,75919,1,0,0:0:0:0:
192,192,75919,1,0,0:0:0:0:
64,192,76083,1,0,0:0:0:0:
320,192,76083,1,0,0:0:0:0:
448,192,76083,1,0,0:0:0:0:
192,192,76083,128,0,76247:0:0:0:0:
448,192,76411,1,0,0:0:0:0:
192,192,76411,1,0,0:0:0:0:
64,192,76411,128,0,77066:0:0:0:0:
448,192,76574,1,0,0:0:0:0:
320,192,76574,1,0,0:0:0:0:
448,192,76738,1,0,0:0:0:0:
320,192,76738,1,0,0:0:0:0:
192,192,76738,1,0,0:0:0:0:
320,192,77066,128,0,77721:0:0:0:0:
192,192,77066,1,0,0:0:0:0:
448,192,77066,1,0,0:0:0:0:
448,192,77393,1,0,0:0:0:0:
192,192,77393,1,0,0:0:0:0:
64,192,77393,1,0,0:0:0:0:
448,192,77721,128,0,78376:0:0:0:0:
192,192,77721,1,0,0:0:0:0:
64,192,77721,1,0,0:0:0:0:
320,192,77885,1,0,0:0:0:0:
192,192,77885,1,0,0:0:0:0:
320,192,78048,1,0,0:0:0:0:
192,192,78048,1,0,0:0:0:0:
64,192,78048,1,0,0:0:0:0:
64,192,78376,128,0,79031:0:0:0:0:
320,192,78376,1,0,0:0:0:0:
192,192,78376,1,0,0:0:0:0:
320,192,78703,1,0,0:0:0:0:
192,192,78703,1,0,0:0:0:0:
448,192,78703,1,0,0:0:0:0:
320,192,79031,128,0,79686:0:0:0:0:
448,192,79031,1,0,0:0:0:0:
192,192,79031,1,0,0:0:0:0:
192,192,79195,1,0,0:0:0:0:
448,192,79195,1,0,0:0:0:0:
448,192,79358,1,0,0:0:0:0:
192,192,79358,1,0,0:0:0:0:
64,192,79358,1,0,0:0:0:0:
448,192,79686,128,0,80341:0:0:0:0:
192,192,79686,1,0,0:0:0:0:
64,192,79686,1,0,0:0:0:0:
64,192,80013,1,0,0:0:0:0:
192,192,80013,1,0,0:0:0:0:
320,192,80013,1,0,0:0:0:0:
192,192,80341,128,0,80996:0:0:0:0:
320,192,80341,1,0,0:0:0:0:
64,192,80341,1,0,0:0:0:0:
64,192,80505,1,0,0:0:0:0:
320,192,80505,1,0,0:0:0:0:
64,192,80668,1,0,0:0:0:0:
320,192,80668,1,0,0:0:0:0:
448,192,80668,1,0,0:0:0:0:
448,192,80996,1,0,0:0:0:0:
320,192,80996,1,0,0:0:0:0:
64,192,80996,1,0,0:0:0:0:
448,192,81160,1,0,0:0:0:0:
192,192,81160,1,0,0:0:0:0:
64,192,81323,1,0,0:0:0:0:
448,192,81323,1,0,0:0:0:0:
192,192,81323,1,0,0:0:0:0:
320,192,81323,128,0,81487:0:0:0:0:
448,192,81651,1,0,0:0:0:0:
192,192,81651,1,0,0:0:0:0:
64,192,81651,1,0,0:0:0:0:
192,192,81815,1,0,0:0:0:0:
64,192,81815,1,0,0:0:0:0:
64,192,81978,1,0,0:0:0:0:
320,192,81978,1,0,0:0:0:0:
448,192,81978,1,0,0:0:0:0:
192,192,81978,128,0,82142:0:0:0:0:
448,192,82306,128,0,82961:0:0:0:0:
320,192,82306,1,0,0:0:0:0:
64,192,82306,1,0,0:0:0:0:
64,192,82633,1,0,0:0:0:0:
192,192,82633,1,0,0:0:0:0:
320,192,82633,1,0,0:0:0:0:
192,192,82961,128,0,83616:0:0:0:0:
320,192,82961,1,0,0:0:0:0:
64,192,82961,1,0,0:0:0:0:
320,192,83125,1,0,0:0:0:0:
448,192,83125,1,0,0:0:0:0:
448,192,83288,1,0,0:0:0:0:
320,192,83288,1,0,0:0:0:0:
64,192,83288,1,0,0:0:0:0:
64,192,83616,128,0,84271:0:0:0:0:
448,192,83616,1,0,0:0:0:0:
320,192,83616,1,0,0:0:0:0:
448,192,83943,1,0,0:0:0:0:
320,192,83943,1,0,0:0:0:0:
192,192,83943,1,0,0:0:0:0:
320,192,84271,128,0,84926:0:0:0:0:
192,192,84271,1,0,0:0:0:0:
448,192,84271,1,0,0:0:0:0:
448,192,84435,1,0,0:0:0:0:
64,192,84435,1,0,0:0:0:0:
64,192,84598,1,0,0:0:0:0:
192,192,84598,1,0,0:0:0:0:
448,192,84598,1,0,0:0:0:0:
448,192,84926,128,0,85581:0:0:0:0:
192,192,84926,1,0,0:0:0:0:
64,192,84926,1,0,0:0:0:0:
192,192,85254,1,0,0:0:0:0:
320,192,85254,1,0,0:0:0:0:
64,192,85254,1,0,0:0:0:0:
64,192,85581,128,0,86236:0:0:0:0:
192,192,85581,1,0,0:0:0:0:
320,192,85663,1,0,0:0:0:0:
448,192,85745,1,0,0:0:0:0:
192,192,85827,1,0,0:0:0:0:
320,192,85909,1,0,0:0:0:0:
448,192,85990,1,0,0:0:0:0:
320,192,86072,1,0,0:0:0:0:
192,192,86154,1,0,0:0:0:0:
448,192,86236,1,0,0:0:0:0:
320,192,86236,1,0,0:0:0:0:
192,192,86318,1,0,0:0:0:0:
64,192,86318,1,0,0:0:0:0:
320,192,86400,1,0,0:0:0:0:
448,192,86400,1,0,0:0:0:0:
192,192,86482,1,0,0:0:0:0:
64,192,86482,1,0,0:0:0:0:
320,192,86564,1,0,0:0:0:0:
448,192,86564,1,0,0:0:0:0:
192,192,86645,1,0,0:0:0:0:
64,192,86645,1,0,0:0:0:0:
448,192,86727,1,0,0:0:0:0:
320,192,86727,1,0,0:0:0:0:
64,192,86809,1,0,0:0:0:0:
192,192,86809,1,0,0:0:0:0:
448,192,86891,1,0,0:0:0:0:
64,192,86891,1,0,0:0:0:0:
192,192,86973,1,0,0:0:0:0:
320,192,86973,1,0,0:0:0:0:
448,192,87055,1,0,0:0:0:0:
64,192,87055,1,0,0:0:0:0:
192,192,87137,1,0,0:0:0:0:
320,192,87137,1,0,0:0:0:0:
448,192,87219,1,0,0:0:0:0:
64,192,87219,1,0,0:0:0:0:
192,192,87300,1,0,0:0:0:0:
320,192,87300,1,0,0:0:0:0:
448,192,87382,1,0,0:0:0:0:
64,192,87382,1,0,0:0:0:0:
192,192,87464,1,0,0:0:0:0:
64,192,87546,128,0,90166:0:0:0:0:
320,192,87546,128,0,90166:0:0:0:0:
448,192,87710,1,0,0:0:0:0:
192,192,87874,1,0,0:0:0:0:
448,192,88037,1,0,0:0:0:0:
192,192,88201,1,0,0:0:0:0:
448,192,88365,1,0,0:0:0:0:
192,192,88529,1,0,0:0:0:0:
448,192,88692,1,0,0:0:0:0:
