osu file format v14

[General]
AudioFilename: Tamura Yukari - WWonder tale (TV Size).mp3
AudioLeadIn: 0
PreviewTime: 61337
Countdown: 0
SampleSet: Soft
StackLeniency: 0.7
Mode: 3
LetterboxInBreaks: 0
SpecialStyle: 0
WidescreenStoryboard: 0

[Editor]
DistanceSpacing: 1.2
BeatDivisor: 4
GridSize: 4
TimelineZoom: 2

[Metadata]
Title:W:Wonder tale
TitleUnicode:W:Wonder tale
Artist:Tamura Yukari
ArtistUnicode:田村ゆかり
Creator:Amiichii
Version:Normal
Source:俺の彼女と幼なじみが修羅場すぎる
Tags:oreshura ending Ore no Kanojo to Osananajimi ga Shuraba Sugiru tv size Leonita
BeatmapID:1258996
BeatmapSetID:595355

[Difficulty]
HPDrainRate:7
CircleSize:4
OverallDifficulty:7
ApproachRate:9
SliderMultiplier:1.83
SliderTickRate:2

[Events]
//Background and Video events
Video,1304,"ending.avi"
0,0,"BG12.jpg",0,0
//Break Periods
//Storyboard Layer 0 (Background)
//Storyboard Layer 1 (Fail)
//Storyboard Layer 2 (Pass)
//Storyboard Layer 3 (Foreground)
//Storyboard Sound Samples

[TimingPoints]
2604,379.746835443038,4,2,1,30,1,0
2604,-86.2068965517241,4,2,1,30,0,0
9535,327.868852459016,4,2,7,30,1,0
10190,327.868852459016,4,2,7,30,1,0
61337,-100,4,2,7,30,0,1
82321,-100,4,2,7,30,0,0

[HitObjects]
448,192,2604,5,0,0:0:0:0:
64,192,2604,1,0,0:0:0:0:
192,192,2793,1,0,0:0:0:0:
320,192,2983,1,0,0:0:0:0:
448,192,3173,1,0,0:0:0:0:
320,192,3553,1,0,0:0:0:0:
64,192,3933,1,0,0:0:0:0:
320,192,4122,1,0,0:0:0:0:
448,192,4122,1,0,0:0:0:0:
192,192,4502,1,0,0:0:0:0:
320,192,4502,1,0,0:0:0:0:
192,192,4882,1,0,0:0:0:0:
64,192,4882,1,0,0:0:0:0:
320,192,5262,1,0,0:0:0:0:
64,192,5641,1,0,0:0:0:0:
448,192,5641,1,0,0:0:0:0:
320,192,5831,1,0,0:0:0:0:
192,192,6021,1,0,0:0:0:0:
320,192,6211,1,0,0:0:0:0:
448,192,6401,1,0,0:0:0:0:
320,192,6591,1,0,0:0:0:0:
192,192,6781,1,0,0:0:0:0:
64,192,6971,1,0,0:0:0:0:
448,192,7160,1,0,0:0:0:0:
64,192,7350,1,0,0:0:0:0:
192,192,7540,1,0,0:0:0:0:
320,192,7730,1,0,0:0:0:0:
448,192,7920,1,0,0:0:0:0:
64,192,8110,1,0,0:0:0:0:
192,192,8300,1,0,0:0:0:0:
320,192,8490,1,0,0:0:0:0:
448,192,8679,1,0,0:0:0:0:
448,192,9535,128,0,10190:0:0:0:0:
64,192,9862,128,0,10190:0:0:0:0:
192,192,10190,1,0,0:0:0:0:
320,192,10190,1,0,0:0:0:0:
64,192,10517,1,0,0:0:0:0:
448,192,10517,1,0,0:0:0:0:
192,192,10845,1,0,0:0:0:0:
320,192,11009,1,0,0:0:0:0:
192,192,11173,1,0,0:0:0:0:
64,192,11173,1,0,0:0:0:0:
448,192,11501,1,0,0:0:0:0:
320,192,11829,1,0,0:0:0:0:
64,192,11829,1,0,0:0:0:0:
192,192,12157,1,0,0:0:0:0:
64,192,12321,1,0,0:0:0:0:
192,192,12485,1,0,0:0:0:0:
448,192,12485,1,0,0:0:0:0:
320,192,12812,1,0,0:0:0:0:
64,192,13140,1,0,0:0:0:0:
448,192,13140,1,0,0:0:0:0:
192,192,13468,1,0,0:0:0:0:
320,192,13632,1,0,0:0:0:0:
192,192,13796,1,0,0:0:0:0:
448,192,13796,1,0,0:0:0:0:
64,192,14124,1,0,0:0:0:0:
320,192,14452,1,0,0:0:0:0:
448,192,14452,1,0,0:0:0:0:
64,192,14780,1,0,0:0:0:0:
448,192,14944,1,0,0:0:0:0:
320,192,15108,1,0,0:0:0:0:
192,192,15108,1,0,0:0:0:0:
448,192,15435,1,0,0:0:0:0:
64,192,15435,1,0,0:0:0:0:
320,192,15763,1,0,0:0:0:0:
64,192,15763,1,0,0:0:0:0:
192,192,16091,1,0,0:0:0:0:
64,192,16255,1,0,0:0:0:0:
448,192,16419,1,0,0:0:0:0:
320,192,16419,1,0,0:0:0:0:
192,192,16747,1,0,0:0:0:0:
64,192,17075,1,0,0:0:0:0:
448,192,17075,1,0,0:0:0:0:
192,192,17403,1,0,0:0:0:0:
320,192,17567,1,0,0:0:0:0:
192,192,17730,1,0,0:0:0:0:
64,192,17730,1,0,0:0:0:0:
448,192,18058,1,0,0:0:0:0:
64,192,19370,1,0,0:0:0:0:
448,192,19370,1,0,0:0:0:0:
192,192,19698,1,0,0:0:0:0:
448,192,19862,1,0,0:0:0:0:
64,192,20189,1,0,0:0:0:0:
192,192,20517,1,0,0:0:0:0:
448,192,20517,1,0,0:0:0:0:
64,192,20845,1,0,0:0:0:0:
320,192,21009,1,0,0:0:0:0:
448,192,21173,1,0,0:0:0:0:
192,192,21501,1,0,0:0:0:0:
192,192,21993,1,0,0:0:0:0:
64,192,21993,1,0,0:0:0:0:
448,192,22157,1,0,0:0:0:0:
320,192,22321,1,0,0:0:0:0:
192,192,22485,1,0,0:0:0:0:
64,192,22812,1,0,0:0:0:0:
192,192,23140,1,0,0:0:0:0:
320,192,23140,1,0,0:0:0:0:
448,192,23468,1,0,0:0:0:0:
64,192,23632,1,0,0:0:0:0:
320,192,23796,1,0,0:0:0:0:
192,192,24124,1,0,0:0:0:0:
320,192,24616,1,0,0:0:0:0:
64,192,24616,1,0,0:0:0:0:
192,192,24780,1,0,0:0:0:0:
448,192,24944,1,0,0:0:0:0:
320,192,25108,1,0,0:0:0:0:
64,192,25435,1,0,0:0:0:0:
192,192,25763,1,0,0:0:0:0:
448,192,25763,1,0,0:0:0:0:
320,192,26091,1,0,0:0:0:0:
64,192,26255,1,0,0:0:0:0:
448,192,26419,1,0,0:0:0:0:
192,192,26747,1,0,0:0:0:0:
64,192,27239,1,0,0:0:0:0:
448,192,27239,1,0,0:0:0:0:
192,192,27403,1,0,0:0:0:0:
320,192,27567,1,0,0:0:0:0:
64,192,27730,1,0,0:0:0:0:
448,192,28058,1,0,0:0:0:0:
64,192,28386,128,0,28550:0:0:0:0:
320,192,28550,1,0,0:0:0:0:
192,192,28550,1,0,0:0:0:0:
448,192,29370,1,0,0:0:0:0:
64,192,29534,1,0,0:0:0:0:
320,192,29862,128,0,31173:0:0:0:0:
192,192,29862,1,0,0:0:0:0:
64,192,30189,1,0,0:0:0:0:
448,192,30189,1,0,0:0:0:0:
192,192,30517,1,0,0:0:0:0:
448,192,30681,1,0,0:0:0:0:
192,192,30845,1,0,0:0:0:0:
64,192,30845,1,0,0:0:0:0:
64,192,31173,128,0,32485:0:0:0:0:
448,192,31501,1,0,0:0:0:0:
320,192,31501,1,0,0:0:0:0:
192,192,31829,1,0,0:0:0:0:
448,192,31993,1,0,0:0:0:0:
320,192,32157,1,0,0:0:0:0:
192,192,32157,1,0,0:0:0:0:
448,192,32485,128,0,33796:0:0:0:0:
64,192,32812,1,0,0:0:0:0:
192,192,32812,1,0,0:0:0:0:
320,192,33140,1,0,0:0:0:0:
64,192,33304,1,0,0:0:0:0:
192,192,33468,1,0,0:0:0:0:
320,192,33468,1,0,0:0:0:0:
64,192,33796,128,0,35108:0:0:0:0:
320,192,34124,1,0,0:0:0:0:
448,192,34124,1,0,0:0:0:0:
192,192,34452,1,0,0:0:0:0:
320,192,34616,1,0,0:0:0:0:
448,192,34780,1,0,0:0:0:0:
192,192,34780,1,0,0:0:0:0:
320,192,35108,128,0,36419:0:0:0:0:
192,192,35435,1,0,0:0:0:0:
64,192,35435,1,0,0:0:0:0:
448,192,35763,1,0,0:0:0:0:
192,192,35927,1,0,0:0:0:0:
448,192,36091,1,0,0:0:0:0:
64,192,36091,1,0,0:0:0:0:
192,192,36419,1,0,0:0:0:0:
448,192,36747,1,0,0:0:0:0:
64,192,36747,1,0,0:0:0:0:
192,192,37075,1,0,0:0:0:0:
320,192,37239,1,0,0:0:0:0:
64,192,37403,1,0,0:0:0:0:
448,192,37403,1,0,0:0:0:0:
192,192,37730,1,0,0:0:0:0:
64,192,38058,1,0,0:0:0:0:
320,192,38058,1,0,0:0:0:0:
448,192,38386,1,0,0:0:0:0:
320,192,38550,1,0,0:0:0:0:
192,192,38714,1,0,0:0:0:0:
64,192,38714,1,0,0:0:0:0:
320,192,38878,1,0,0:0:0:0:
64,192,39042,1,0,0:0:0:0:
448,192,39042,1,0,0:0:0:0:
192,192,39206,1,0,0:0:0:0:
320,192,39534,1,0,0:0:0:0:
64,192,39862,1,0,0:0:0:0:
448,192,40026,1,0,0:0:0:0:
320,192,40189,128,0,40353:0:0:0:0:
192,192,40353,1,0,0:0:0:0:
64,192,40353,1,0,0:0:0:0:
448,192,40681,1,0,0:0:0:0:
192,192,40845,1,0,0:0:0:0:
320,192,41009,1,0,0:0:0:0:
64,192,41009,1,0,0:0:0:0:
448,192,41337,1,0,0:0:0:0:
64,192,41665,1,0,0:0:0:0:
192,192,41829,1,0,0:0:0:0:
448,192,41829,1,0,0:0:0:0:
320,192,41993,1,0,0:0:0:0:
64,192,42157,1,0,0:0:0:0:
192,192,42321,1,0,0:0:0:0:
448,192,42321,1,0,0:0:0:0:
320,192,42649,1,0,0:0:0:0:
64,192,42976,1,0,0:0:0:0:
448,192,43304,1,0,0:0:0:0:
320,192,43468,1,0,0:0:0:0:
192,192,43632,1,0,0:0:0:0:
64,192,43632,1,0,0:0:0:0:
320,192,43960,1,0,0:0:0:0:
448,192,44288,1,0,0:0:0:0:
320,192,44452,1,0,0:0:0:0:
64,192,44452,1,0,0:0:0:0:
448,192,44616,1,0,0:0:0:0:
192,192,44780,1,0,0:0:0:0:
320,192,44944,1,0,0:0:0:0:
64,192,44944,1,0,0:0:0:0:
448,192,45108,1,0,0:0:0:0:
192,192,45271,1,0,0:0:0:0:
64,192,45435,128,0,45599:0:0:0:0:
320,192,45599,1,0,0:0:0:0:
448,192,45599,1,0,0:0:0:0:
192,192,45927,1,0,0:0:0:0:
320,192,46091,1,0,0:0:0:0:
448,192,46255,1,0,0:0:0:0:
64,192,46255,1,0,0:0:0:0:
192,192,46583,1,0,0:0:0:0:
448,192,46911,1,0,0:0:0:0:
192,192,47075,1,0,0:0:0:0:
64,192,47075,1,0,0:0:0:0:
320,192,47239,1,0,0:0:0:0:
448,192,47403,1,0,0:0:0:0:
192,192,47567,1,0,0:0:0:0:
64,192,47567,1,0,0:0:0:0:
320,192,47730,1,0,0:0:0:0:
320,192,48058,1,0,0:0:0:0:
64,192,48222,1,0,0:0:0:0:
192,192,48550,1,0,0:0:0:0:
448,192,48714,1,0,0:0:0:0:
320,192,48878,1,0,0:0:0:0:
64,192,48878,1,0,0:0:0:0:
448,192,49206,1,0,0:0:0:0:
192,192,49534,1,0,0:0:0:0:
320,192,49698,1,0,0:0:0:0:
448,192,49698,1,0,0:0:0:0:
64,192,49862,1,0,0:0:0:0:
192,192,50026,1,0,0:0:0:0:
320,192,50189,1,0,0:0:0:0:
448,192,50189,1,0,0:0:0:0:
192,192,50353,1,0,0:0:0:0:
448,192,50517,1,0,0:0:0:0:
64,192,50517,1,0,0:0:0:0:
320,192,50681,128,0,50845:0:0:0:0:
192,192,50845,1,0,0:0:0:0:
64,192,50845,1,0,0:0:0:0:
448,192,51173,1,0,0:0:0:0:
64,192,51501,1,0,0:0:0:0:
320,192,51829,1,0,0:0:0:0:
192,192,52157,1,0,0:0:0:0:
320,192,52485,1,0,0:0:0:0:
448,192,52812,1,0,0:0:0:0:
64,192,53140,1,0,0:0:0:0:
320,192,53468,1,0,0:0:0:0:
192,192,53796,1,0,0:0:0:0:
448,192,54124,1,0,0:0:0:0:
320,192,54452,1,0,0:0:0:0:
64,192,54780,1,0,0:0:0:0:
192,192,55108,1,0,0:0:0:0:
320,192,55435,1,0,0:0:0:0:
192,192,55599,1,0,0:0:0:0:
448,192,55763,1,0,0:0:0:0:
64,192,55763,1,0,0:0:0:0:
320,192,56091,1,0,0:0:0:0:
192,192,56091,128,0,57403:0:0:0:0:
64,192,56419,1,0,0:0:0:0:
448,192,56419,1,0,0:0:0:0:
320,192,56747,1,0,0:0:0:0:
64,192,56911,1,0,0:0:0:0:
320,192,57075,1,0,0:0:0:0:
448,192,57075,1,0,0:0:0:0:
64,192,57403,128,0,58058:0:0:0:0:
448,192,57567,1,0,0:0:0:0:
320,192,57730,1,0,0:0:0:0:
192,192,57730,1,0,0:0:0:0:
448,192,58058,128,0,58386:0:0:0:0:
320,192,58222,1,0,0:0:0:0:
192,192,58386,128,0,58714:0:0:0:0:
64,192,58386,1,0,0:0:0:0:
448,192,58714,128,0,59370:0:0:0:0:
320,192,58878,1,0,0:0:0:0:
192,192,59042,1,0,0:0:0:0:
64,192,59042,1,0,0:0:0:0:
64,192,59370,128,0,59698:0:0:0:0:
192,192,59534,1,0,0:0:0:0:
320,192,59698,1,0,0:0:0:0:
448,192,59698,1,0,0:0:0:0:
192,192,60026,128,0,60681:0:0:0:0:
448,192,60189,1,0,0:0:0:0:
64,192,60299,1,0,0:0:0:0:
320,192,60517,1,0,0:0:0:0:
64,192,60681,1,0,0:0:0:0:
448,192,60681,128,0,61337:0:0:0:0:
64,192,61009,128,0,61337:0:0:0:0:
320,192,61337,1,0,0:0:0:0:
192,192,61337,1,0,0:0:0:0:
448,192,61665,1,0,0:0:0:0:
64,192,61665,1,0,0:0:0:0:
320,192,61993,1,0,0:0:0:0:
192,192,62157,1,0,0:0:0:0:
320,192,62321,1,0,0:0:0:0:
448,192,62321,1,0,0:0:0:0:
64,192,62649,1,0,0:0:0:0:
448,192,62976,1,0,0:0:0:0:
192,192,62976,1,0,0:0:0:0:
64,192,63304,1,0,0:0:0:0:
320,192,63468,1,0,0:0:0:0:
64,192,63632,1,0,0:0:0:0:
448,192,63632,1,0,0:0:0:0:
320,192,63960,1,0,0:0:0:0:
192,192,64288,1,0,0:0:0:0:
64,192,64288,1,0,0:0:0:0:
448,192,64616,1,0,0:0:0:0:
64,192,64780,1,0,0:0:0:0:
192,192,64944,1,0,0:0:0:0:
320,192,64944,1,0,0:0:0:0:
448,192,65271,128,0,65435:0:0:0:0:
192,192,65435,128,0,65599:0:0:0:0:
320,192,65599,128,0,65763:0:0:0:0:
448,192,65599,1,0,0:0:0:0:
64,192,65763,128,0,65927:0:0:0:0:
192,192,65927,1,0,0:0:0:0:
448,192,66091,128,0,66255:0:0:0:0:
64,192,66255,128,0,66419:0:0:0:0:
192,192,66255,1,0,0:0:0:0:
320,192,66419,128,0,66583:0:0:0:0:
192,192,66583,1,0,0:0:0:0:
448,192,66583,1,0,0:0:0:0:
64,192,66911,1,0,0:0:0:0:
320,192,66911,1,0,0:0:0:0:
192,192,67239,1,0,0:0:0:0:
448,192,67403,1,0,0:0:0:0:
320,192,67567,1,0,0:0:0:0:
192,192,67567,1,0,0:0:0:0:
64,192,67894,1,0,0:0:0:0:
320,192,68222,1,0,0:0:0:0:
448,192,68222,1,0,0:0:0:0:
192,192,68550,1,0,0:0:0:0:
64,192,68714,1,0,0:0:0:0:
448,192,68878,1,0,0:0:0:0:
192,192,68878,1,0,0:0:0:0:
320,192,69206,1,0,0:0:0:0:
64,192,69534,1,0,0:0:0:0:
448,192,69534,1,0,0:0:0:0:
192,192,69862,1,0,0:0:0:0:
448,192,70026,1,0,0:0:0:0:
320,192,70189,1,0,0:0:0:0:
64,192,70189,1,0,0:0:0:0:
448,192,70517,1,0,0:0:0:0:
192,192,70681,1,0,0:0:0:0:
448,192,70845,1,0,0:0:0:0:
320,192,70845,1,0,0:0:0:0:
64,192,71173,1,0,0:0:0:0:
320,192,71337,1,0,0:0:0:0:
192,192,71501,1,0,0:0:0:0:
64,192,71501,1,0,0:0:0:0:
192,192,71829,1,0,0:0:0:0:
448,192,71829,1,0,0:0:0:0:
448,192,72157,1,0,0:0:0:0:
64,192,72157,1,0,0:0:0:0:
320,192,72485,1,0,0:0:0:0:
192,192,72649,1,0,0:0:0:0:
320,192,72812,1,0,0:0:0:0:
64,192,72812,1,0,0:0:0:0:
448,192,73140,1,0,0:0:0:0:
192,192,73468,1,0,0:0:0:0:
320,192,73468,1,0,0:0:0:0:
448,192,73796,1,0,0:0:0:0:
192,192,73960,1,0,0:0:0:0:
448,192,74124,1,0,0:0:0:0:
64,192,74124,1,0,0:0:0:0:
192,192,74452,1,0,0:0:0:0:
320,192,74780,1,0,0:0:0:0:
448,192,74780,1,0,0:0:0:0:
64,192,75108,1,0,0:0:0:0:
448,192,75271,1,0,0:0:0:0:
320,192,75435,1,0,0:0:0:0:
192,192,75435,1,0,0:0:0:0:
448,192,75763,128,0,75927:0:0:0:0:
64,192,75927,128,0,76091:0:0:0:0:
320,192,76091,128,0,76255:0:0:0:0:
448,192,76091,1,0,0:0:0:0:
64,192,76255,128,0,76419:0:0:0:0:
192,192,76419,1,0,0:0:0:0:
448,192,76583,128,0,76747:0:0:0:0:
64,192,76747,128,0,76911:0:0:0:0:
192,192,76747,1,0,0:0:0:0:
320,192,76911,128,0,77075:0:0:0:0:
192,192,77075,1,0,0:0:0:0:
448,192,77075,1,0,0:0:0:0:
64,192,77403,1,0,0:0:0:0:
320,192,77403,1,0,0:0:0:0:
448,192,77730,1,0,0:0:0:0:
192,192,77894,1,0,0:0:0:0:
320,192,78058,1,0,0:0:0:0:
448,192,78058,1,0,0:0:0:0:
64,192,78386,1,0,0:0:0:0:
192,192,78714,1,0,0:0:0:0:
448,192,78714,1,0,0:0:0:0:
64,192,79042,1,0,0:0:0:0:
448,192,79206,1,0,0:0:0:0:
192,192,79370,1,0,0:0:0:0:
64,192,79370,1,0,0:0:0:0:
320,192,79698,1,0,0:0:0:0:
64,192,80026,1,0,0:0:0:0:
448,192,80026,1,0,0:0:0:0:
192,192,80353,1,0,0:0:0:0:
320,192,80517,1,0,0:0:0:0:
192,192,80681,1,0,0:0:0:0:
64,192,80681,1,0,0:0:0:0:
448,192,81009,1,0,0:0:0:0:
192,192,81173,1,0,0:0:0:0:
64,192,81337,1,0,0:0:0:0:
320,192,81337,1,0,0:0:0:0:
192,192,81665,1,0,0:0:0:0:
320,192,81829,1,0,0:0:0:0:
448,192,81993,1,0,0:0:0:0:
64,192,81993,1,0,0:0:0:0:
192,192,82321,1,0,0:0:0:0:
448,192,82321,1,0,0:0:0:0:
64,192,82649,1,0,0:0:0:0:
320,192,82649,1,0,0:0:0:0:
448,192,82976,1,0,0:0:0:0:
192,192,83140,1,0,0:0:0:0:
64,192,83304,1,0,0:0:0:0:
448,192,83304,1,0,0:0:0:0:
320,192,83632,1,0,0:0:0:0:
448,192,83960,1,0,0:0:0:0:
192,192,83960,1,0,0:0:0:0:
64,192,84288,1,0,0:0:0:0:
192,192,84452,1,0,0:0:0:0:
448,192,84616,1,0,0:0:0:0:
64,192,84616,1,0,0:0:0:0:
192,192,84944,1,0,0:0:0:0:
448,192,84944,1,0,0:0:0:0:
320,192,85271,1,0,0:0:0:0:
64,192,85271,1,0,0:0:0:0:
192,192,85599,1,0,0:0:0:0:
448,192,85763,1,0,0:0:0:0:
320,192,85927,1,0,0:0:0:0:
192,192,85927,1,0,0:0:0:0:
64,192,86276,128,0,86911:0:0:0:0:
448,192,86276,1,0,0:0:0:0:
320,192,86439,1,0,0:0:0:0:
192,192,86603,1,0,0:0:0:0:
320,192,86767,1,0,0:0:0:0:
448,192,86911,128,0,87567:0:0:0:0:
320,192,87075,1,0,0:0:0:0:
192,192,87239,1,0,0:0:0:0:
64,192,87403,1,0,0:0:0:0:
320,192,87567,1,0,0:0:0:0:
64,192,87730,1,0,0:0:0:0:
192,192,87894,1,0,0:0:0:0:
320,192,88058,1,0,0:0:0:0:
448,192,88222,1,0,0:0:0:0:
64,192,88386,1,0,0:0:0:0:
320,192,88591,128,0,90189:0:0:0:0:
192,192,88755,128,0,90189:0:0:0:0:
