osu file format v14

[General]
AudioFilename: audio.mp3
AudioLeadIn: 0
PreviewTime: 59489
Countdown: 0
SampleSet: Soft
StackLeniency: 0.4
Mode: 0
LetterboxInBreaks: 0
WidescreenStoryboard: 1

[Editor]
Bookmarks: 919,8474,17654,28146,38637,49115,59573,85849,95028,105519,116011,126508,136972,164386,174824,185508,196013,206496,218299,244503,254977,266021,272457
DistanceSpacing: 1
BeatDivisor: 3
GridSize: 16
TimelineZoom: 2.619999

[Metadata]
Title:W:Wonder tale
TitleUnicode:W:Wonder tale
Artist:Tamura Yukari
ArtistUnicode:田村ゆかり
Creator:Amateurre
Version:Ai
Source:俺の彼女と幼なじみが修羅場すぎる
Tags:Ore no Kanojo to Osananajimi ga Shuraba Sugiru oreshura wonder wwonder wondertale j-pop japanese pop jpop koldnoodl wen shizuku- shikibe mayu kazato asa dailycare iljaaz keqing fuju stratos dahkjdas kowari agatsu yogurtt some hero some_hero heroine akito zelq elicz1
BeatmapID:3364202
BeatmapSetID:1648167

[Difficulty]
HPDrainRate:5
CircleSize:4
OverallDifficulty:8.7
ApproachRate:9.2
SliderMultiplier:1.8
SliderTickRate:1

[Events]
//Background and Video events
0,0,"amateurre_wondertale.jpg",0,0
//Break Periods
2,206694,216417
//Storyboard Layer 0 (Background)
//Storyboard Layer 1 (Fail)
//Storyboard Layer 2 (Pass)
//Storyboard Layer 3 (Foreground)
//Storyboard Layer 4 (Overlay)
//Storyboard Sound Samples

[TimingPoints]
-599,379.746835443038,4,2,1,50,1,0
919,-166.666666666667,4,2,1,50,0,0
3948,387.096774193548,4,2,1,50,1,0
3948,-142.857142857143,4,2,1,50,0,0
4335,365.853658536585,4,2,1,50,1,0
4700,368.098159509202,4,2,1,50,1,0
4700,-142.857142857143,4,2,1,50,0,0
5067,397.350993377485,4,2,1,50,1,0
5466,363.636363636365,4,2,1,50,1,0
6194,379.746835443038,4,2,1,50,1,0
6573,387.096774193548,4,2,1,50,1,0
6962,428.571428571428,4,2,1,50,1,0
7821,327.868852459016,4,2,1,100,1,0
8474,327.868852459016,4,2,1,80,1,0
17572,-100,4,2,1,5,0,0
17654,-125,4,2,1,55,0,0
28146,-111.111111111111,4,2,1,65,0,0
38637,-142.857142857143,4,2,1,60,0,0
46506,-142.857142857143,4,2,1,60,0,0
48473,319.148936170212,4,2,1,60,1,0
48791,322.58064516129,4,2,1,60,1,0
48792,-142.857142857143,4,2,1,60,0,0
49115,327.868852459016,4,2,1,60,1,0
49115,-111.111111111111,4,2,1,60,0,0
51737,332.409972299168,4,2,1,60,1,0
51737,-111.111111111111,4,2,1,60,0,0
52735,327.868852459016,4,2,1,60,1,0
52735,-111.111111111111,4,2,1,60,0,0
53063,327.868852459016,4,2,1,60,1,0
53063,-111.111111111111,4,2,1,60,0,0
54374,-111.111111111111,4,2,1,70,0,0
58308,-111.111111111111,4,2,1,70,0,0
58310,271.493212669683,4,2,1,70,1,0
58581,353.77358490566,4,2,1,70,1,0
58934,318.302387267905,4,2,1,70,1,0
59573,335.195530726257,4,2,1,80,1,1
59573,-90.9090909090909,4,2,1,80,0,1
60918,331.491712707182,4,2,1,80,1,1
60918,-90.9090909090909,4,2,1,80,0,1
62243,327.868852459016,4,2,1,80,1,1
62243,-90.9090909090909,4,2,1,80,0,1
85849,-90.9090909090909,4,2,1,80,0,0
86341,-100,4,2,1,80,0,0
93716,344.827586206897,4,2,1,60,1,0
93716,-166.666666666667,4,2,1,60,0,0
94491,-166.666666666667,4,2,1,5,0,0
94577,281.69014084507,4,2,1,55,1,0
94717,310.880829015544,4,2,1,55,1,0
94717,-166.666666666667,4,2,1,55,0,0
95028,327.868852459016,4,2,1,55,1,0
95028,-125,4,2,1,55,0,0
105519,-111.111111111111,4,2,1,65,0,0
116011,-142.857142857143,4,2,1,50,0,0
126175,335.195530726257,4,2,1,50,1,0
126175,-142.857142857143,4,2,1,50,0,0
126508,325.379609544469,4,2,1,60,1,0
126508,-111.111111111111,4,2,1,60,0,0
126833,327.868852459016,4,2,1,60,1,0
126833,-111.111111111111,4,2,1,60,0,0
127816,322.58064516129,4,2,1,60,1,0
127816,-111.111111111111,4,2,1,60,0,0
128624,327.868852459016,4,2,1,60,1,0
129115,327.868852459016,4,2,1,60,1,0
129115,-111.111111111111,4,2,1,60,0,0
131410,340.90909090909,4,2,1,60,1,0
131580,-100,4,2,1,70,0,0
131751,327.868852459016,4,2,1,70,1,0
131751,-111.111111111111,4,2,1,70,0,0
136341,312.5,4,2,1,70,1,0
136653,331.491712707182,4,2,1,70,1,0
136818,309.278350515464,4,2,1,70,1,0
136972,355.029585798817,4,2,1,80,1,1
136972,-90.9090909090909,4,2,1,80,0,1
137324,327.868852459016,4,2,1,80,1,1
137324,-90.9090909090909,4,2,1,80,0,1
138307,327.868852459016,4,2,1,80,1,1
138307,-90.9090909090909,4,2,1,80,0,1
161913,322.58064516129,4,2,1,80,1,1
162558,-90.9090909090909,4,2,1,80,0,1
163122,-168.5,4,2,1,80,0,1
163203,653.950953678473,4,2,1,80,1,1
163856,530.973451327434,4,2,1,80,1,1
164386,324.763193504736,4,2,1,70,1,0
164386,-100,4,2,1,70,0,0
165847,327.868852459016,4,2,1,70,1,0
173715,309.278350515464,4,2,1,70,1,0
174024,320.000000000001,4,2,1,70,1,8
174824,348.027842227379,4,2,1,70,1,0
175172,280.373831775701,4,2,1,70,1,0
175312,338.983050847458,4,2,1,70,1,0
176669,329.67032967033,4,2,1,70,1,0
177493,317.460317460318,4,2,1,70,1,0
177969,333.333333333334,4,2,1,70,1,0
179303,330.396475770925,4,2,1,70,1,0
179633,315.789473684211,4,2,1,70,1,0
179948,361.445783132531,4,2,1,70,1,0
180129,327.868852459017,4,2,1,70,1,0
180620,327.868852459016,4,2,1,70,1,0
184202,337.078651685393,4,2,1,80,1,0
184202,-66.6666666666667,4,2,1,80,0,0
184876,-100,4,2,1,80,0,0
185530,327.868852459016,4,2,1,60,1,0
185857,-125,4,2,1,60,0,0
186185,-125,4,2,1,60,0,0
189466,350.877192982457,4,2,1,60,1,0
189641,-125,4,2,1,60,0,0
189818,315.789473684211,4,2,1,60,1,0
189968,335.195530726257,4,2,1,60,1,0
190135,306.122448979592,4,2,1,60,1,0
190440,322.58064516129,4,2,1,60,1,0
190766,327.868852459016,4,2,1,60,1,0
190766,-125,4,2,1,60,0,0
195181,331.491712707181,4,2,1,60,1,0
195181,-125,4,2,1,60,0,0
195346,307.692307692308,4,2,1,60,1,0
195655,357.142857142856,4,2,1,60,1,0
195655,-125,4,2,1,60,0,0
196013,327.868852459016,4,2,1,60,1,0
196013,-111.111111111111,4,2,1,60,0,0
201258,-111.111111111111,4,2,1,70,0,0
204870,372.670807453416,4,2,1,70,1,0
205059,326.086956521739,4,2,1,70,1,0
205221,315.789473684211,4,2,1,70,1,0
205540,307.692307692308,4,2,1,70,1,0
205695,340.909090909091,4,2,1,70,1,0
205864,295.566502463054,4,2,1,70,1,0
206018,329.670329670329,4,2,1,100,1,0
206182,312.499999999999,4,2,1,80,1,0
206496,327.868852459016,4,2,1,70,1,0
218299,-90.9090909090909,4,2,1,80,0,1
228135,-90.9090909090909,4,2,1,80,0,1
228136,298.507462686567,4,2,1,80,1,1
228210,-100,4,2,1,100,0,1
228285,-100,4,2,1,80,0,1
228359,-100,4,2,1,100,0,1
228434,363.636363636364,4,2,1,80,1,1
228434,-90.9090909090909,4,2,1,80,0,1
228792,327.868852459016,4,2,1,80,1,1
228792,-90.9090909090909,4,2,1,80,0,1
243218,317.460317460317,4,2,1,80,1,1
243535,-90.9090909090909,4,2,1,80,0,1
243852,324.324324324324,4,2,1,80,1,1
243852,-90.9090909090909,4,2,1,80,0,1
244338,331.491712707182,4,2,1,80,1,1
244338,-90.9090909090909,4,2,1,80,0,1
244503,344.827586206897,4,2,1,80,1,0
245365,319.148936170213,4,2,1,80,1,0
245524,320.855614973262,4,2,1,80,1,0
245846,327.868852459016,4,2,1,80,1,0
249288,270.27027027027,4,2,1,80,1,0
249423,317.460317460317,4,2,1,80,1,0
249740,327.868852459016,4,2,1,80,1,0
250067,344.827586206897,4,2,1,80,1,0
250411,327.868852459016,4,2,1,80,1,0
251066,327.868852459016,4,2,1,80,1,0
252542,359.281437125748,4,2,1,80,1,0
252721,327.868852459016,4,2,1,80,1,0
253704,331.491712707182,4,2,1,80,1,0
253869,337.457817772778,4,2,1,80,1,0
254206,320.855614973262,4,2,1,80,1,0
254526,297.029702970297,4,2,1,80,1,0
254674,303.030303030303,4,2,1,80,1,0
254977,338.983050847457,4,2,1,80,1,0
256332,327.868852459016,4,2,1,80,1,0
262889,322.58064516129,4,2,1,70,1,0
263212,307.692307692308,4,2,1,70,1,0
263519,333.333333333333,4,2,1,70,1,0
263684,333.333333333334,4,2,1,70,1,0
263850,312.5,4,2,1,70,1,0
263928,315.789473684211,4,2,1,70,1,0
264165,340.909090909091,4,2,1,80,1,0
264510,338.983050847458,4,2,1,80,1,0
264850,333.333333333334,4,2,1,80,1,0
265184,306.122448979592,4,2,1,80,1,0
266021,314.13612565445,4,2,1,50,1,0
266335,306.122448979592,4,2,1,50,1,0

[Colours]
Combo1 : 253,187,225
Combo2 : 219,188,254
Combo3 : 243,101,183
Combo4 : 194,232,254

[HitObjects]
5,44,919,6,0,P|60:35|111:23,1,107.999996704102,2|0,0:0|0:0,0:0:0:0:
233,151,1679,2,0,P|180:139|126:130,1,107.999996704102,2|0,0:0|0:0,0:0:0:0:
62,207,2438,1,2,0:0:0:0:
79,300,2818,1,0,0:0:0:0:
258,383,3198,5,2,0:0:0:0:
275,290,3578,1,2,0:0:0:0:
359,234,3948,2,0,P|324:197|238:201,1,125.999996154785,2|0,0:0|0:0,0:0:0:0:
158,298,4700,2,0,P|234:284|286:282,1,125.999996154785,2|0,0:0|0:0,0:0:0:0:
457,345,5466,5,2,0:0:0:0:
256,192,5556,12,0,6962,0:0:0:0:
23,289,7821,5,0,1:0:0:0:
25,299,7902,1,0,1:0:0:0:
27,310,7984,1,0,1:0:0:0:
30,321,8066,1,0,1:0:0:0:
58,356,8148,1,0,1:0:0:0:
99,367,8230,1,0,1:0:0:0:
143,363,8312,1,0,1:0:0:0:
179,336,8394,1,0,1:0:0:0:
193,294,8474,6,0,P|180:222|168:161,1,135,6|0,3:2|0:2,0:2:0:0:
164,146,8801,1,0,1:2:0:0:
305,56,8965,2,0,P|260:44|217:34,1,90,0|0,0:2|3:2,0:2:0:0:
321,181,9293,1,0,3:2:0:0:
467,42,9457,2,0,P|458:89|451:130,1,90,0|0,1:2|0:2,0:2:0:0:
324,292,9785,6,0,B|424:270|387:344|499:319,1,180,2|0,3:2|1:2,0:2:0:0:
288,384,10277,1,0,0:2:0:0:
407,207,10441,1,0,3:2:0:0:
509,312,10605,1,0,3:2:0:0:
315,273,10769,2,0,P|296:232|298:187,1,90,0|0,1:2|0:2,0:2:0:0:
465,41,11096,6,0,P|399:30|332:16,1,135,2|0,3:2|0:2,0:2:0:0:
314,3,11424,1,0,1:2:0:0:
200,196,11588,2,0,P|250:181|294:171,1,90,0|0,0:2|3:2,0:2:0:0:
167,58,11916,1,0,3:2:0:0:
106,231,12080,2,0,P|100:258|88:319,1,90,0|0,1:2|0:2,0:2:0:0:
26,120,12408,5,2,3:2:0:0:
201,206,12572,1,2,0:2:0:0:
7,289,12736,1,2,1:2:0:0:
98,210,12900,1,2,0:2:0:0:
98,210,12982,1,0,0:2:0:0:
98,210,13064,1,0,3:2:0:0:
282,338,13228,1,2,3:2:0:0:
215,107,13392,2,0,P|206:146|195:194,1,90,2|2,1:2|0:2,0:2:0:0:
127,367,13719,6,0,P|200:351|283:350,1,135,6|0,3:2|0:2,0:2:0:0:
285,356,14047,2,0,P|297:307|305:265,1,90,0|0,1:2|0:2,0:2:0:0:
362,81,14375,1,2,3:2:0:0:
436,262,14539,1,0,3:2:0:0:
235,195,14703,2,0,P|278:190|330:176,1,90,0|0,1:2|0:2,0:2:0:0:
512,40,15031,6,0,P|426:14|349:81,1,180,2|0,3:2|1:2,0:2:0:0:
222,211,15523,1,0,0:2:0:0:
35,83,15687,1,0,3:0:0:0:
31,116,15768,1,0,3:0:0:0:
26,149,15850,1,0,3:0:0:0:
20,183,15932,1,0,3:0:0:0:
13,216,16014,2,0,P|18:238|18:253,6,22.5,0|0|0|0|0|0|0,1:0|0:0|1:0|0:0|1:0|0:0|1:0,0:0:0:0:
141,151,16342,1,0,0:0:0:0:
256,192,16424,12,0,17572,0:0:0:0:
101,353,17654,6,0,P|156:345|254:335,1,144,0|0,3:2|3:2,0:2:0:0:
244,336,18146,1,0,0:2:0:0:
423,278,18310,2,0,P|490:288|516:295,1,72,2|2,3:2|0:2,0:2:0:0:
368,364,18637,1,2,3:2:0:0:
324,271,18801,2,0,P|328:232|336:199,1,72,2|0,0:2|3:2,0:2:0:0:
459,31,19129,6,0,P|473:83|457:119,1,72,2|0,0:2|3:2,0:2:0:0:
301,86,19457,2,0,P|351:81|394:68,1,72,2|0,0:2|3:2,0:2:0:0:
492,186,19785,2,0,P|456:178|420:175,1,72,2|0,0:2|3:2,0:2:0:0:
332,278,20113,5,2,0:2:0:0:
332,278,20195,1,0,0:2:0:0:
332,278,20277,2,0,P|245:291|171:318,1,144,0|0,3:2|3:2,0:2:0:0:
49,361,20769,2,0,P|55:326|65:291,1,72,0|0,0:2|3:2,0:2:0:0:
100,144,21096,1,2,0:2:0:0:
3,199,21260,1,2,3:2:0:0:
181,295,21424,6,0,P|212:250|200:153,1,144,2|0,0:2|0:2,0:2:0:0:
111,17,21916,1,0,3:2:0:0:
256,74,22080,2,0,P|213:78|178:82,1,72,0|0,0:2|3:2,0:2:0:0:
83,200,22408,2,0,P|86:164|90:128,1,72,0|0,0:2|3:2,0:2:0:0:
338,7,22736,5,0,0:2:0:0:
338,7,22818,1,0,0:2:0:0:
338,7,22900,2,0,P|364:71|337:145,1,144,0|0,3:2|3:2,0:2:0:0:
341,139,23392,1,0,0:2:0:0:
439,266,23555,2,0,P|473:257|509:253,1,72,2|2,3:2|0:2,0:2:0:0:
442,174,23883,1,2,3:2:0:0:
336,308,24047,6,0,P|342:253|351:220,1,72,2|0,0:2|3:2,0:2:0:0:
254,97,24375,2,0,P|248:152|239:185,1,72,2|0,0:2|3:2,0:2:0:0:
142,262,24703,2,0,B|70:264|-6:284,1,144,0|2,0:2|0:2,0:2:0:0:
67,189,25195,1,2,3:2:0:0:
226,323,25359,5,2,0:2:0:0:
226,323,25441,1,0,0:2:0:0:
226,323,25523,1,0,3:2:0:0:
270,249,25687,2,0,P|268:213|258:179,1,72,0|0,0:2|3:2,0:2:0:0:
383,66,26014,2,0,P|375:117|369:173,1,108,0|0,0:2|0:2,0:2:0:0:
375,189,26342,5,2,0:2:0:0:
481,104,26506,1,2,3:2:0:0:
277,24,26670,1,2,0:2:0:0:
277,24,26752,1,0,0:2:0:0:
277,24,26834,1,0,3:2:0:0:
277,24,27654,5,8,3:0:0:0:
101,158,27818,2,0,P|65:154|29:154,1,72,4|0,3:0|0:0,0:0:0:0:
179,55,28146,6,0,P|195:112|201:154,1,80.9999975280763,4|0,3:2|0:2,0:2:0:0:
348,250,28473,2,0,P|355:210|367:171,1,80.9999975280763,0|0,1:2|0:2,0:2:0:0:
439,47,28801,1,2,3:2:0:0:
290,108,28965,1,2,3:2:0:0:
494,196,29129,1,2,1:2:0:0:
340,262,29293,6,0,P|285:253|254:251,1,80.9999975280763,2|0,0:2|3:2,0:2:0:0:
42,201,29621,2,0,P|32:154|44:120,1,80.9999975280763,2|0,0:2|1:2,0:2:0:0:
143,244,29949,2,0,P|130:310|129:333,1,80.9999975280763,2|0,0:2|3:2,0:2:0:0:
234,173,30277,1,2,3:2:0:0:
51,225,30441,1,0,1:2:0:0:
222,364,30605,6,0,P|233:271|242:203,1,161.999995056153,2|0,0:2|0:2,0:2:0:0:
204,23,31096,1,2,1:2:0:0:
114,143,31260,2,0,P|168:124|202:115,1,80.9999975280763,2|0,0:2|3:2,0:2:0:0:
394,40,31588,2,0,P|355:28|317:14,1,80.9999975280763,2|0,3:2|1:2,0:2:0:0:
366,237,31916,6,0,P|446:247|512:202,1,161.999995056153,2|0,0:2|0:2,0:2:0:0:
402,49,32408,1,2,1:2:0:0:
429,163,32572,1,2,0:2:0:0:
429,163,32654,1,0,0:2:0:0:
429,163,32736,1,0,3:2:0:0:
491,83,32900,1,0,3:2:0:0:
328,116,33064,2,0,P|288:107|248:101,1,80.9999975280763,0|0,1:2|0:2,0:2:0:0:
36,165,33392,6,0,B|131:157|103:214|198:199,1,161.999995056153,6|2,3:2|1:2,0:2:0:0:
186,27,33883,2,0,P|160:95|162:129,1,80.9999975280763,2|0,0:2|3:2,0:2:0:0:
98,269,34211,2,0,P|62:289|17:278,1,80.9999975280763,2|0,3:2|1:2,0:2:0:0:
198,191,34539,6,0,P|274:189|325:283,1,161.999995056153,2|0,0:2|0:2,0:2:0:0:
477,340,35031,2,0,P|486:300|496:261,1,80.9999975280763,2|0,1:2|0:2,0:2:0:0:
385,152,35359,1,2,3:2:0:0:
512,89,35523,1,0,3:2:0:0:
403,269,35687,2,0,P|354:256|320:251,1,80.9999975280763,2|2,1:2|0:2,0:2:0:0:
211,150,36014,6,0,P|201:99|189:57,1,80.9999975280763,0|0,3:2|0:2,0:2:0:0:
109,268,36342,2,0,P|119:319|131:361,1,80.9999975280763,2|0,1:2|0:2,0:2:0:0:
10,179,36670,1,2,3:2:0:0:
232,240,36834,1,2,3:2:0:0:
28,366,36998,1,0,1:2:0:0:
126,145,37162,1,2,3:2:0:0:
306,302,37326,5,0,1:0:0:0:
0,269,37490,5,8,3:0:0:0:
85,250,37818,5,4,3:0:0:0:
170,231,38146,5,0,3:0:0:0:
213,305,38310,2,0,P|203:343|197:384,1,80.9999975280763,0|0,3:0|0:0,0:0:0:0:
376,239,38637,6,0,P|398:182|380:122,1,125.999996154785,4|2,3:2|0:2,0:2:0:0:
226,45,39129,1,0,3:2:0:0:
318,0,39293,2,0,P|310:54|299:124,1,125.999996154785,2|2,1:2|0:2,0:2:0:0:
280,150,39703,1,0,0:2:0:0:
280,150,39785,6,0,P|249:141|218:136,1,62.9999980773926,2|0,0:2|3:2,0:2:0:0:
111,86,40113,1,0,1:2:0:0:
135,188,40277,2,0,P|140:217|145:256,1,62.9999980773926,2|0,0:2|3:2,0:2:0:0:
102,373,40605,2,0,P|73:377|40:385,1,62.9999980773926,0|0,1:2|0:2,0:2:0:0:
217,293,40933,2,0,P|246:297|278:305,1,62.9999980773926,2|0,0:2|0:2,0:2:0:0:
489,337,41260,6,0,P|439:368|354:340,1,125.999996154785,2|0,3:2|0:2,0:2:0:0:
323,240,41752,1,2,3:2:0:0:
425,278,41916,2,0,P|433:207|446:137,1,125.999996154785,0|2,1:2|0:2,0:2:0:0:
406,12,42408,5,0,0:2:0:0:
501,67,42572,1,0,3:2:0:0:
363,125,42736,2,0,P|291:131|237:140,1,125.999996154785,2|0,1:2|3:2,0:2:0:0:
49,145,43228,1,0,1:2:0:0:
172,69,43392,1,8,3:0:0:0:
185,215,43555,1,4,3:0:0:0:
141,149,43719,5,0,0:2:0:0:
141,149,43801,1,0,0:2:0:0:
141,149,43883,2,0,P|131:208|123:273,1,125.999996154785,4|2,3:2|0:2,0:2:0:0:
0,230,44375,1,0,3:2:0:0:
74,350,44539,2,0,P|134:363|190:336,1,125.999996154785,2|2,1:2|0:2,0:2:0:0:
370,226,45031,5,2,0:2:0:0:
370,226,45113,1,0,0:2:0:0:
370,226,45195,2,0,P|420:235|442:239,1,62.9999980773926,0|0,3:2|1:2,0:2:0:0:
416,315,45523,2,0,P|366:306|344:302,1,62.9999980773926,2|0,0:2|3:2,0:2:0:0:
276,379,45851,2,0,P|264:305|254:242,1,125.999996154785,2|2,1:2|0:2,0:2:0:0:
167,160,46342,1,2,0:2:0:0:
253,64,46506,6,0,P|303:44|382:71,1,125.999996154785,0|2,3:2|0:2,0:2:0:0:
473,21,46998,1,2,3:2:0:0:
481,197,47162,2,0,P|494:140|502:118,1,62.9999980773926,0|0,1:0|0:0,0:0:0:0:
383,75,47490,2,0,P|374:105|368:136,1,62.9999980773926,2|0,0:0|0:0,0:0:0:0:
388,255,47818,5,0,3:0:0:0:
257,220,47982,2,0,P|227:226|195:231,1,62.9999980773926,2|0,1:2|0:0,0:0:0:0:
308,296,48310,5,0,3:0:0:0:
365,143,48473,1,2,1:2:0:0:
250,209,48632,1,2,3:2:0:0:
397,341,48792,2,0,P|453:332|488:332,1,62.9999980773926,2|0,1:2|2:0,0:2:0:0:
482,346,49032,1,0,0:0:0:0:
482,346,49115,6,0,P|491:279|499:222,1,121.499996292114,4|0,0:0|2:0,0:0:0:0:
491,209,49442,2,0,P|450:214|411:223,1,80.9999975280763,2|0,3:2|0:2,0:2:0:0:
261,116,49770,2,0,P|266:69|275:22,1,80.9999975280763,2|0,3:2|0:2,0:2:0:0:
362,133,50098,1,2,3:2:0:0:
184,180,50262,5,2,0:2:0:0:
184,180,50344,1,0,0:2:0:0:
184,180,50426,2,0,P|144:170|104:166,1,80.9999975280763,0|0,3:2|0:2,0:2:0:0:
262,288,50754,2,0,P|301:278|341:274,1,80.9999975280763,0|0,3:2|0:2,0:2:0:0:
138,364,51082,2,0,P|127:308|117:278,1,80.9999975280763,0|2,3:2|0:2,0:2:0:0:
110,262,51328,1,0,0:2:0:0:
110,262,51410,1,2,3:2:0:0:
250,305,51574,1,2,0:2:0:0:
297,148,51737,6,0,P|284:92|275:60,1,80.9999975280763,2|0,3:2|0:2,0:2:0:0:
391,0,52069,2,0,P|401:39|410:78,1,80.9999975280763,2|0,3:2|0:2,0:2:0:0:
368,232,52318,1,0,0:0:0:0:
512,179,52568,1,0,0:2:0:0:
512,179,52651,1,0,0:2:0:0:
512,179,52735,2,0,P|464:170|412:161,1,80.9999975280763,2|0,3:2|0:2,0:2:0:0:
205,78,53063,6,0,P|253:69|305:60,1,80.9999975280763,2|0,3:2|0:2,0:2:0:0:
391,0,53390,1,0,1:2:0:0:
368,232,53554,2,0,P|310:246|256:220,1,121.499996292114,2|0,3:2|0:2,0:2:0:0:
244,205,53882,1,0,3:2:0:0:
96,290,54046,2,0,P|91:332|85:376,1,80.9999975280763,0|0,1:2|0:2,0:2:0:0:
32,215,54374,6,0,P|85:189|143:203,1,121.499996292114,4|0,3:2|0:2,0:2:0:0:
160,222,54702,1,2,1:2:0:0:
53,38,54866,2,0,P|42:78|33:126,1,80.9999975280763,2|0,0:2|3:2,0:2:0:0:
86,276,55194,1,2,3:2:0:0:
284,176,55358,2,0,P|244:164|197:145,1,80.9999975280763,0|0,1:2|0:2,0:2:0:0:
4,323,55685,6,0,P|106:302|173:293,1,161.999995056153,0|0,3:2|1:2,0:2:0:0:
336,305,56177,1,0,0:2:0:0:
336,305,56259,1,0,0:2:0:0:
336,305,56341,2,0,P|324:352|317:406,1,80.9999975280763,0|0,3:2|3:2,0:2:0:0:
240,239,56669,1,0,1:2:0:0:
455,330,56833,5,0,0:2:0:0:
455,330,56915,1,0,0:2:0:0:
455,330,56997,2,0,P|494:263|468:176,1,161.999995056153,2|0,3:2|1:2,0:2:0:0:
313,80,57489,1,0,0:2:0:0:
489,49,57653,1,2,3:2:0:0:
360,214,57817,1,2,3:2:0:0:
214,5,57981,2,0,P|205:39|195:83,1,80.9999975280763,2|0,1:2|0:2,0:2:0:0:
0,281,58308,5,4,3:0:0:0:
282,171,58445,1,0,1:0:0:0:
282,171,58513,1,0,1:0:0:0:
282,171,58581,1,0,1:0:0:0:
102,68,58757,1,8,3:0:0:0:
102,68,58846,1,8,3:0:0:0:
102,68,58934,1,4,3:0:0:0:
169,191,59093,5,0,1:0:0:0:
163,220,59172,1,0,1:0:0:0:
158,250,59252,1,0,1:0:0:0:
154,279,59331,1,0,1:0:0:0:
149,309,59411,1,0,1:0:0:0:
145,339,59490,1,0,1:0:0:0:
140,368,59573,6,0,P|188:358|237:349,1,99.0000030212403,6|0,3:2|0:2,0:2:0:0:
492,262,59908,2,0,P|443:252|394:243,1,99.0000030212403,2|0,1:2|0:2,0:2:0:0:
226,94,60243,1,2,3:2:0:0:
365,37,60410,1,0,3:2:0:0:
318,177,60578,2,0,P|294:267|289:289,1,99.0000030212403,2|0,1:2|0:2,0:2:0:0:
121,112,60918,6,0,P|109:63|95:16,1,99.0000030212403,2|0,3:2|0:2,0:2:0:0:
207,190,61249,1,0,1:2:0:0:
0,293,61415,1,0,0:2:0:0:
0,293,61498,1,0,0:2:0:0:
0,293,61580,1,2,3:2:0:0:
34,168,61746,1,0,3:2:0:0:
236,307,61912,2,0,P|188:294|139:287,1,99.0000030212403,2|0,1:2|0:2,0:2:0:0:
263,71,62243,6,0,P|350:73|386:122,1,148.50000453186,2|0,3:2|0:2,0:2:0:0:
392,136,62570,2,0,P|383:175|371:237,1,99.0000030212403,2|0,1:2|0:2,0:2:0:0:
471,59,62898,1,2,3:2:0:0:
284,153,63062,1,0,3:2:0:0:
496,299,63226,2,0,P|484:248|474:200,1,99.0000030212403,2|0,1:2|0:2,0:2:0:0:
328,39,63554,5,2,3:2:0:0:
195,208,63718,1,0,0:2:0:0:
393,262,63882,1,0,1:2:0:0:
291,160,64046,1,0,0:2:0:0:
291,160,64128,1,0,0:2:0:0:
291,160,64210,1,2,3:2:0:0:
185,358,64374,1,0,3:2:0:0:
0,226,64538,5,2,1:2:0:0:
24,202,64619,1,0,0:2:0:0:
55,190,64701,1,0,0:2:0:0:
88,189,64783,1,0,0:2:0:0:
120,200,64865,2,0,P|161:215|215:231,1,99.0000030212403,6|0,3:2|0:2,0:2:0:0:
229,30,65193,2,0,P|200:99|192:133,1,99.0000030212403,2|0,1:2|0:2,0:2:0:0:
74,279,65521,1,2,3:2:0:0:
21,108,65685,1,0,3:2:0:0:
216,237,65849,2,0,P|259:229|319:215,1,99.0000030212403,2|0,1:2|0:2,0:2:0:0:
503,55,66177,6,0,P|447:17|365:32,1,148.50000453186,2|0,3:2|0:2,0:2:0:0:
349,48,66505,1,2,1:2:0:0:
512,172,66669,1,0,0:2:0:0:
512,172,66751,1,0,0:2:0:0:
512,172,66833,1,2,3:2:0:0:
310,233,66997,1,0,3:2:0:0:
423,107,67161,2,0,P|415:164|407:219,1,99.0000030212403,2|0,1:2|0:2,0:2:0:0:
444,368,67488,6,0,P|405:359|343:348,1,99.0000030212403,2|0,3:2|0:2,0:2:0:0:
176,181,67816,2,0,P|220:170|276:159,1,99.0000030212403,2|0,1:2|0:2,0:2:0:0:
95,378,68144,1,2,3:2:0:0:
0,235,68308,1,0,3:2:0:0:
234,287,68472,2,0,P|225:342|216:399,1,99.0000030212403,2|0,1:2|0:2,0:2:0:0:
370,156,68800,5,0,3:2:0:0:
512,227,68963,1,0,3:2:0:0:
359,150,69128,2,0,P|318:160|260:173,1,99.0000030212403,4|0,1:2|0:2,0:2:0:0:
100,262,69455,5,0,3:2:0:0:
226,384,69620,1,0,3:2:0:0:
91,248,69783,2,0,P|101:207|117:153,1,99.0000030212403,4|0,1:2|0:2,0:2:0:0:
11,0,70111,6,0,P|56:55|128:54,1,148.50000453186,6|0,3:2|0:2,0:2:0:0:
148,35,70439,2,0,P|196:46|243:61,1,99.0000030212403,2|0,1:2|0:2,0:2:0:0:
483,61,70766,1,2,3:2:0:0:
394,224,70930,1,0,3:2:0:0:
363,31,71095,2,0,P|370:74|378:136,1,99.0000030212403,2|0,1:2|0:2,0:2:0:0:
320,313,71423,6,0,B|436:290|390:371|513:340,1,198.000006042481,2|0,3:2|1:2,0:2:0:0:
290,211,71914,1,0,0:2:0:0:
290,211,71996,1,0,0:2:0:0:
290,211,72078,1,2,3:2:0:0:
208,371,72242,1,0,3:2:0:0:
424,299,72406,2,0,P|428:241|402:203,1,99.0000030212403,2|0,1:2|0:2,0:2:0:0:
139,255,72734,6,0,P|199:271|243:289,1,99.0000030212403,2|0,3:2|0:2,0:2:0:0:
452,106,73062,2,0,P|405:123|357:135,1,99.0000030212403,2|0,1:2|0:2,0:2:0:0:
155,87,73389,1,2,3:2:0:0:
310,11,73553,1,0,3:2:0:0:
281,214,73718,2,0,P|262:144|248:99,1,99.0000030212403,2|0,1:2|0:2,0:2:0:0:
112,4,74045,5,2,3:2:0:0:
17,229,74209,1,0,0:2:0:0:
186,177,74373,1,0,1:2:0:0:
71,108,74537,1,0,0:2:0:0:
71,108,74619,1,0,0:2:0:0:
71,108,74701,1,2,3:2:0:0:
211,39,74865,1,0,3:2:0:0:
139,254,75029,2,0,P|124:301|112:349,1,99.0000030212403,2|0,1:2|0:2,0:2:0:0:
131,365,75274,1,0,0:2:0:0:
131,365,75357,6,0,P|185:358|229:355,1,99.0000030212403,6|0,3:2|0:2,0:2:0:0:
416,231,75685,2,0,P|431:278|443:326,1,99.0000030212403,2|0,1:2|0:2,0:2:0:0:
445,350,75930,1,0,0:2:0:0:
445,350,76012,1,2,3:2:0:0:
301,190,76176,1,0,3:2:0:0:
480,66,76341,2,0,P|503:108|495:156,1,99.0000030212403,2|0,1:2|0:2,0:2:0:0:
335,291,76669,6,0,P|286:281|237:277,1,99.0000030212403,2|0,3:2|0:2,0:2:0:0:
51,164,76997,2,0,P|100:160|148:150,1,99.0000030212403,2|0,1:2|0:2,0:2:0:0:
356,110,77324,1,2,3:2:0:0:
233,14,77488,1,0,3:2:0:0:
263,182,77652,2,0,P|251:224|237:277,1,99.0000030212403,2|0,1:2|0:2,0:2:0:0:
15,372,77980,6,0,P|-7:329|0:281,1,99.0000030212403,2|0,3:2|0:2,0:2:0:0:
152,155,78307,1,2,1:2:0:0:
245,285,78471,1,0,0:2:0:0:
245,285,78553,1,0,0:2:0:0:
245,285,78636,2,0,P|184:268|143:260,1,99.0000030212403,2|0,3:2|3:2,0:2:0:0:
0,103,78964,2,0,P|58:71|111:86,1,99.0000030212403,2|0,1:2|0:2,0:2:0:0:
260,173,79292,5,0,3:2:0:0:
391,88,79456,1,0,3:2:0:0:
248,177,79620,2,0,P|199:164|151:154,1,99.0000030212403,4|0,1:2|0:2,0:2:0:0:
451,354,79947,5,0,3:2:0:0:
233,281,80111,1,0,3:2:0:0:
460,361,80275,2,0,P|470:312|482:264,1,99.0000030212403,4|0,1:2|0:2,0:2:0:0:
482,230,80521,1,0,0:2:0:0:
482,230,80603,6,0,P|431:236|370:246,1,99.0000030212403,6|0,3:2|0:2,0:2:0:0:
217,378,80931,2,0,L|232:280,1,99.0000030212403,0|0,1:2|0:2,0:2:0:0:
129,83,81259,1,2,3:2:0:0:
281,159,81423,1,0,3:2:0:0:
138,298,81587,2,0,P|87:283|30:267,1,99.0000030212403,0|0,1:2|0:2,0:2:0:0:
321,384,81915,6,0,P|384:312|366:218,1,198.000006042481,2|0,3:2|1:2,0:2:0:0:
234,49,82405,1,0,0:2:0:0:
234,49,82487,1,0,0:2:0:0:
234,49,82569,1,2,3:2:0:0:
159,151,82733,1,0,3:2:0:0:
378,86,82898,2,0,P|429:79|486:72,1,99.0000030212403,0|0,1:2|0:2,0:2:0:0:
490,271,83226,6,0,P|450:313|338:288,1,148.50000453186,2|0,3:2|0:2,0:2:0:0:
335,306,83554,2,0,P|343:258|351:202,1,99.0000030212403,0|0,1:2|0:2,0:2:0:0:
243,22,83882,1,2,3:2:0:0:
349,95,84046,1,0,3:0:0:0:
349,95,84128,1,0,3:0:0:0:
349,95,84210,2,0,L|389:87,6,24.7500007553101,0|0|0|0|0|0|0,1:0|0:0|1:0|0:0|1:0|0:0|1:0,0:0:0:0:
259,206,84538,5,0,1:0:0:0:
214,227,84620,1,0,1:0:0:0:
165,228,84702,1,0,1:0:0:0:
120,209,84783,1,0,1:0:0:0:
88,172,84865,1,0,1:0:0:0:
74,125,84947,1,0,1:0:0:0:
81,76,85029,1,0,1:0:0:0:
108,35,85111,1,0,1:0:0:0:
150,9,85193,2,0,P|184:19|210:27,1,49.5000015106202,0|0,1:0|1:0,0:0:0:0:
387,182,85356,5,8,3:0:0:0:
382,197,85439,1,8,3:0:0:0:
377,213,85521,1,4,3:0:0:0:
373,228,85603,1,4,3:0:0:0:
369,245,85685,1,4,3:0:0:0:
364,261,85767,1,4,3:0:0:0:
360,276,85849,5,6,0:2:0:0:
259,206,86013,1,2,0:2:0:0:
317,365,86177,1,2,1:2:0:0:
461,265,86341,2,0,P|443:175|424:88,1,180,2|0,0:2|3:2,0:2:0:0:
279,5,86833,2,0,P|270:49|263:93,1,90,0|0,1:2|0:2,0:2:0:0:
89,251,87161,6,0,P|44:242|0:236,1,90,2|0,3:2|0:2,0:2:0:0:
90,143,87488,1,0,1:2:0:0:
219,261,87652,1,0,0:2:0:0:
219,261,87734,1,0,0:2:0:0:
219,261,87816,2,0,P|226:216|234:172,1,90,0|0,3:2|3:2,0:2:0:0:
66,48,88144,2,0,P|73:92|81:136,1,90,0|0,1:2|0:2,0:2:0:0:
12,358,88472,6,0,P|63:328|183:351,1,180,2|0,3:2|1:2,0:2:0:0:
397,277,88964,1,0,0:2:0:0:
397,277,89046,1,0,0:2:0:0:
397,277,89128,1,0,3:2:0:0:
232,194,89292,1,0,3:2:0:0:
289,384,89456,2,0,P|294:339|302:294,1,90,0|0,1:2|0:2,0:2:0:0:
423,100,89783,5,2,3:2:0:0:
240,47,89947,1,2,0:2:0:0:
336,165,90110,1,2,1:2:0:0:
501,23,90275,1,2,0:2:0:0:
501,23,90357,1,0,0:2:0:0:
501,23,90439,2,0,P|509:60|521:115,1,90,0|2,3:2|3:2,0:2:0:0:
349,285,90767,5,2,1:2:0:0:
326,260,90849,1,0,1:2:0:0:
316,228,90931,1,2,1:2:0:0:
319,194,91013,1,0,1:2:0:0:
336,165,91095,2,0,P|384:171|437:190,1,90,6|0,3:2|0:2,0:2:0:0:
271,328,91423,2,0,P|226:333|183:346,1,90,0|0,1:2|0:2,0:2:0:0:
0,252,91751,1,2,3:2:0:0:
196,171,91915,1,0,3:2:0:0:
55,55,92079,2,0,P|77:127|85:163,1,90,0|0,1:2|0:2,0:2:0:0:
171,364,92406,6,0,P|190:257|208:172,1,180,2|0,3:2|1:2,0:2:0:0:
415,80,92898,1,0,0:2:0:0:
290,28,93062,1,0,3:0:0:0:
294,61,93144,1,0,3:0:0:0:
299,94,93226,1,0,3:0:0:0:
305,128,93308,1,0,3:0:0:0:
312,161,93390,2,0,L|304:197,6,22.5,0|0|0|0|0|0|0,1:0|0:0|1:0|0:0|1:0|0:0|1:0,0:0:0:0:
199,247,93716,6,0,P|344:218|445:195,1,242.999992584229
511,255,94577,5,0,0:0:0:0:
511,255,94647,1,0,0:0:0:0:
511,255,94717,2,0,L|499:316,1,53.9999983520508
381,384,95028,6,0,P|349:334|382:241,1,144,0|0,3:0|3:0,0:0:0:0:
367,255,95520,1,2,0:2:0:0:
269,318,95684,2,0,P|233:310|197:307,1,72,2|0,3:2|0:2,0:2:0:0:
47,231,96011,1,2,3:2:0:0:
102,367,96175,2,0,P|105:331|113:296,1,72,2|0,0:2|3:2,0:2:0:0:
68,141,96503,6,0,P|32:136|0:150,1,72,2|0,0:2|3:2,0:2:0:0:
146,223,96831,2,0,P|181:215|217:212,1,72,2|0,0:2|3:2,0:2:0:0:
365,316,97159,2,0,P|329:315|294:304,1,72,2|0,0:2|3:2,0:2:0:0:
374,91,97487,5,2,0:2:0:0:
374,91,97569,1,0,0:2:0:0:
374,91,97651,2,0,P|352:159|343:230,1,144,0|0,3:2|3:2,0:2:0:0:
444,364,98143,2,0,P|450:329|460:294,1,72,0|0,0:2|3:2,0:2:0:0:
434,183,98470,1,2,0:2:0:0:
346,239,98634,1,2,3:2:0:0:
216,141,98798,6,0,P|205:71|241:9,1,144,2|0,0:2|0:2,0:2:0:0:
302,83,99290,1,0,3:2:0:0:
126,136,99454,2,0,P|83:132|48:128,1,72,0|0,0:2|3:2,0:2:0:0:
197,222,99782,2,0,P|232:219|268:215,1,72,0|0,0:2|3:2,0:2:0:0:
495,301,100110,5,0,0:2:0:0:
495,301,100192,1,0,0:2:0:0:
495,301,100274,2,0,P|521:237|494:163,1,144,0|0,3:2|3:2,0:2:0:0:
498,169,100766,1,0,0:2:0:0:
356,251,100929,2,0,P|390:242|426:238,1,72,2|0,3:2|0:2,0:2:0:0:
376,162,101257,1,2,3:2:0:0:
272,242,101421,6,0,P|264:277|262:313,1,72,2|0,0:2|3:2,0:2:0:0:
168,147,101749,2,0,P|175:111|177:75,1,72,2|0,0:2|3:2,0:2:0:0:
12,192,102077,2,0,P|-6:259|46:323,1,144,0|2,0:2|0:2,0:2:0:0:
175,286,102569,1,2,3:2:0:0:
91,250,102733,5,2,0:2:0:0:
91,250,102815,1,0,0:2:0:0:
91,250,102896,2,0,P|98:214|100:178,1,72,0|0,3:2|0:2,0:2:0:0:
25,100,103224,1,0,3:2:0:0:
132,14,103388,2,0,P|183:22|286:33,1,144,0|2,0:2|0:2,0:2:0:0:
375,145,103880,1,2,3:2:0:0:
476,15,104044,1,2,0:2:0:0:
476,15,104126,1,0,0:2:0:0:
476,15,104208,1,0,3:2:0:0:
476,15,104536,5,8,3:0:0:0:
368,156,104700,2,0,P|360:188|352:226,1,72,8|0,3:0|0:0,0:0:0:0:
282,98,105027,5,4,3:0:0:0:
442,204,105191,2,0,P|477:196|513:193,1,72,4|0,3:0|0:0,0:0:0:0:
289,306,105519,6,0,P|265:250|277:209,1,80.9999975280763,4|0,3:2|0:2,0:2:0:0:
150,60,105847,2,0,P|170:94|171:134,1,80.9999975280763,0|0,1:2|0:2,0:2:0:0:
50,237,106174,1,2,3:2:0:0:
0,130,106338,1,2,3:2:0:0:
160,222,106502,1,2,1:2:0:0:
43,334,106667,6,0,P|39:293|32:253,1,80.9999975280763,2|0,0:2|3:2,0:2:0:0:
152,56,106995,2,0,P|111:60|72:69,1,80.9999975280763,2|0,0:2|1:2,0:2:0:0:
173,213,107323,2,0,P|213:217|252:226,1,80.9999975280763,2|0,0:2|3:2,0:2:0:0:
442,165,107650,1,2,3:2:0:0:
292,78,107814,1,0,1:2:0:0:
339,301,107978,5,2,0:2:0:0:
339,301,108060,1,0,2:0:0:0:
339,301,108143,2,0,P|348:220|358:140,1,161.999995056153,0|2,3:0|1:2,2:0:0:0:
465,13,108634,2,0,P|426:24|388:38,1,80.9999975280763,2|0,0:2|3:2,0:2:0:0:
187,146,108962,2,0,P|225:160|264:172,1,80.9999975280763,2|0,3:2|1:2,0:2:0:0:
461,118,109290,6,0,P|504:184|494:262,1,161.999995056153,2|0,0:2|0:2,0:2:0:0:
392,326,109782,1,2,1:2:0:0:
505,384,109945,1,2,0:2:0:0:
505,384,110027,1,0,0:2:0:0:
505,384,110109,1,0,3:2:0:0:
395,227,110273,1,0,3:2:0:0:
281,359,110437,2,0,P|241:350|201:344,1,80.9999975280763,0|0,1:2|0:2,0:2:0:0:
9,239,110765,6,0,P|87:197|162:226,1,161.999995056153,6|2,3:2|1:2,0:2:0:0:
109,381,111257,2,0,P|101:341|92:300,1,80.9999975280763,2|0,0:2|3:2,0:2:0:0:
120,79,111585,1,2,3:2:0:0:
1,138,111749,1,0,1:2:0:0:
163,225,111913,6,0,B|258:217|230:274|325:259,1,161.999995056153,2|0,0:2|0:2,0:2:0:0:
439,225,112404,2,0,P|428:264|420:303,1,80.9999975280763,2|0,1:2|0:2,0:2:0:0:
430,318,112650,1,0,2:0:0:0:
430,318,112732,1,2,3:2:0:0:
349,170,112896,1,0,3:2:0:0:
254,355,113060,2,0,P|245:315|235:276,1,80.9999975280763,2|2,1:2|0:2,0:2:0:0:
130,104,113388,5,0,3:2:0:0:
266,63,113552,1,0,0:2:0:0:
204,174,113716,1,2,1:2:0:0:
40,33,113880,1,0,0:2:0:0:
40,33,113962,1,0,2:0:0:0:
40,33,114043,1,2,3:2:0:0:
123,245,114207,1,2,3:2:0:0:
350,148,114371,1,0,1:2:0:0:
186,42,114535,5,2,3:2:0:0:
186,42,114618,1,0,2:0:0:0:
186,42,114699,1,0,1:0:0:0:
247,188,114863,5,8,3:0:0:0:
266,103,115191,5,4,3:0:0:0:
285,18,115519,5,0,3:0:0:0:
363,68,115683,2,0,P|402:57|442:51,1,80.9999975280763,0|0,3:0|0:0,0:0:0:0:
467,63,115929,1,0,0:0:0:0:
467,63,116011,6,0,P|457:129|449:187,1,125.999996154785,4|2,3:2|0:2,0:2:0:0:
426,320,116503,1,0,3:2:0:0:
512,275,116667,2,0,P|431:281|323:290,1,188.999994232178,2|2,1:2|0:2,0:2:0:0:
323,290,117241,1,0,2:0:0:0:
323,290,117323,5,0,3:2:0:0:
253,214,117487,1,0,1:2:0:0:
175,294,117650,2,0,P|167:324|164:355,1,62.9999980773926,2|0,0:2|3:2,0:2:0:0:
72,218,117978,2,0,P|46:224|10:233,2,62.9999980773926,0|0|2,1:2|0:2|0:2,0:2:0:0:
219,78,118470,5,0,0:2:0:0:
124,28,118634,2,0,P|135:92|144:152,1,125.999996154785,2|0,3:2|0:2,0:2:0:0:
148,286,119126,1,2,3:2:0:0:
57,243,119290,2,0,B|156:221|144:293|241:262,1,188.999994232178,0|0,1:2|0:2,0:2:0:0:
238,263,119864,1,0,2:0:0:0:
238,263,119946,5,0,3:2:0:0:
454,372,120109,2,0,P|487:294|469:247,1,125.999996154785,2|0,1:2|3:2,0:2:0:0:
327,143,120601,1,0,1:2:0:0:
470,77,120765,1,8,3:0:0:0:
425,173,120929,1,4,3:0:0:0:
257,79,121093,5,0,0:2:0:0:
257,79,121175,1,0,0:2:0:0:
257,79,121257,2,0,P|231:140|253:206,1,125.999996154785,4|2,3:2|0:2,0:2:0:0:
196,303,121749,1,0,3:2:0:0:
107,256,121913,2,0,B|206:234|194:306|292:275,1,188.999994232178,2|2,1:2|0:2,0:2:0:0:
289,275,122487,1,0,0:2:0:0:
289,275,122569,5,0,3:2:0:0:
399,235,122732,1,0,1:2:0:0:
458,322,122896,2,0,P|454:353|450:384,1,62.9999980773926,2|0,0:2|3:2,0:2:0:0:
323,178,123224,2,0,P|326:146|330:115,2,62.9999980773926,2|0|2,1:2|2:0|0:2,0:2:0:0:
139,232,123716,5,2,0:2:0:0:
226,133,123880,2,0,P|234:194|242:257,1,125.999996154785,0|2,3:2|0:2,0:2:0:0:
211,376,124372,1,2,3:2:0:0:
117,330,124536,2,0,P|198:336|306:345,1,188.999994232178,0|0,1:0|0:0,0:0:0:0:
305,344,125110,1,0,2:0:0:0:
305,344,125192,5,0,3:0:0:0:
470,279,125355,2,0,P|462:216|453:154,1,125.999996154785,2|0,1:2|3:0,0:0:0:0:
278,105,125847,1,2,1:2:0:0:
352,199,126011,1,2,3:2:0:0:
392,42,126175,2,0,P|382:78|377:125,1,62.9999980773926,2|0,1:2|0:2,0:2:0:0:
218,218,126508,6,0,P|164:188|97:200,1,121.499996292114,4|0,0:0|0:0,0:0:0:0:
80,208,126833,2,0,P|73:169|63:128,1,80.9999975280763,2|0,3:2|0:2,0:2:0:0:
192,28,127160,2,0,P|182:67|175:107,1,80.9999975280763,2|0,3:2|0:2,0:2:0:0:
202,233,127488,1,2,3:2:0:0:
322,180,127652,5,2,0:2:0:0:
322,180,127734,1,0,0:2:0:0:
322,180,127816,2,0,P|359:185|402:189,1,80.9999975280763,0|0,3:2|0:2,0:2:0:0:
498,298,128138,2,0,P|457:302|417:307,1,80.9999975280763,0|0,3:2|0:2,0:2:0:0:
222,213,128461,1,0,3:2:0:0:
194,339,128624,1,2,0:2:0:0:
194,339,128705,1,0,0:2:0:0:
194,339,128787,1,2,3:2:0:0:
301,275,128951,1,2,0:2:0:0:
188,98,129115,6,0,P|178:58|169:19,1,80.9999975280763,2|0,3:2|0:2,0:2:0:0:
72,210,129442,2,0,P|82:250|90:288,1,80.9999975280763,2|0,3:2|0:2,0:2:0:0:
178,191,129770,1,2,3:2:0:0:
84,105,129934,1,0,0:2:0:0:
84,105,130016,1,0,0:2:0:0:
84,105,130098,2,0,P|42:92|-1:83,1,80.9999975280763,2|0,3:2|0:2,0:2:0:0:
186,201,130426,6,0,P|264:182|324:172,1,121.499996292114,2|0,3:2|2:0,0:2:0:0:
326,176,130754,1,0,1:2:0:0:
508,227,130918,1,2,0:2:0:0:
445,81,131082,1,0,3:0:0:0:
438,111,131164,1,0,3:2:0:0:
432,140,131246,1,0,3:2:0:0:
425,170,131328,1,0,3:0:0:0:
419,200,131410,1,0,1:2:0:0:
400,333,131580,5,0,2:0:0:0:
400,333,131665,1,0,2:0:0:0:
400,333,131751,2,0,P|453:322|479:317,1,80.9999975280763,4|0,3:2|2:0,0:2:0:0:
327,229,132078,1,2,1:2:0:0:
229,377,132242,2,0,P|237:336|244:297,1,80.9999975280763,2|0,0:2|3:2,0:2:0:0:
182,123,132570,1,2,3:2:0:0:
104,237,132734,2,0,P|143:228|183:221,1,80.9999975280763,0|0,1:2|0:2,0:2:0:0:
200,232,132980,1,0,2:0:0:0:
200,231,133062,5,0,3:2:0:0:
86,128,133226,2,0,P|46:120|6:112,1,80.9999975280763,0|0,2:0|1:2,2:0:0:0:
173,10,133554,1,0,0:2:0:0:
173,10,133636,1,0,0:2:0:0:
173,10,133718,2,0,P|180:49|188:89,1,80.9999975280763,0|0,3:2|3:2,0:2:0:0:
301,266,134046,2,0,P|309:203|317:167,1,80.9999975280763,0|0,1:2|0:2,2:0:0:0:
476,49,134373,6,0,P|437:80|358:70,1,121.499996292114,2|0,3:2|2:0,0:2:0:0:
350,64,134701,1,0,1:2:0:0:
217,207,134865,1,0,0:2:0:0:
440,298,135029,1,2,3:2:0:0:
324,165,135193,1,2,3:2:0:0:
205,384,135357,2,0,P|196:336|188:304,1,80.9999975280763,2|0,1:2|0:2,0:2:0:0:
92,81,135685,5,0,1:0:0:0:
225,215,135849,1,8,3:0:0:0:
225,215,135931,1,8,3:0:0:0:
225,215,136013,1,4,3:0:0:0:
0,163,136177,1,0,1:0:0:0:
0,163,136259,1,0,1:0:0:0:
0,163,136341,1,0,1:0:0:0:
264,52,136497,5,0,1:0:0:0:
264,52,136575,1,0,1:0:0:0:
264,52,136653,2,0,L|254:119,1,45,0|0,1:0|1:0,0:0:0:0:
118,322,136818,2,0,L|111:277,1,45,0|0,1:0|1:0,0:0:0:0:
1,60,136972,6,0,P|76:77|128:86,1,99.0000030212403,6|0,3:2|0:2,0:2:0:0:
297,255,137324,2,0,P|248:264|200:276,1,99.0000030212403,2|0,1:2|0:2,0:2:0:0:
72,200,137651,1,2,3:2:0:0:
179,120,137815,1,0,3:2:0:0:
286,362,137979,2,0,P|298:283|306:243,1,99.0000030212403,2|0,1:2|0:2,0:2:0:0:
467,110,138307,6,0,P|477:176|488:256,1,148.50000453186,2|0,3:2|2:0,0:2:0:0:
490,278,138634,1,0,1:2:0:0:
324,159,138798,1,0,0:2:0:0:
324,159,138880,1,0,0:2:0:0:
324,159,138962,1,2,3:2:0:0:
275,374,139126,1,0,3:2:0:0:
407,291,139290,2,0,P|359:279|310:273,1,99.0000030212403,2|0,1:2|0:2,0:2:0:0:
43,208,139618,6,0,P|118:190|188:167,1,148.50000453186,2|0,3:2|0:2,0:2:0:0:
213,159,139946,2,0,P|236:203|218:253,1,99.0000030212403,2|0,1:2|0:2,0:2:0:0:
19,321,140274,1,2,3:2:0:0:
108,106,140438,1,0,3:2:0:0:
268,341,140602,2,0,P|220:329|171:323,1,99.0000030212403,2|0,1:2|0:2,0:2:0:0:
7,140,140929,5,2,3:2:0:0:
201,30,141093,1,0,0:2:0:0:
232,244,141257,1,0,1:2:0:0:
134,136,141421,1,0,0:2:0:0:
134,136,141503,1,0,0:2:0:0:
134,136,141585,1,2,3:2:0:0:
38,325,141749,1,0,3:2:0:0:
249,254,141913,2,0,P|297:246|347:244,1,99.0000030212403,2|0,1:2|0:2,2:0:0:0:
372,269,142159,1,0,0:2:0:0:
372,269,142241,6,0,P|362:317|354:366,1,99.0000030212403,6|0,3:2|0:2,0:2:0:0:
231,242,142569,2,0,P|209:198|227:148,1,99.0000030212403,2|0,1:2|0:2,0:2:0:0:
369,59,142897,1,2,3:2:0:0:
249,16,143061,1,0,3:2:0:0:
356,177,143225,2,0,P|404:165|452:155,1,99.0000030212403,2|0,1:2|0:2,0:2:0:0:
221,345,143552,6,0,P|141:330|50:319,1,148.50000453186,2|0,3:2|0:2,0:2:0:0:
53,329,143880,1,2,1:2:0:0:
221,201,144044,1,0,0:2:0:0:
221,201,144126,1,0,0:2:0:0:
221,201,144208,1,2,3:2:0:0:
21,100,144372,1,0,3:2:0:0:
102,239,144536,2,0,P|108:189|118:140,1,99.0000030212403,2|0,1:2|0:2,0:2:0:0:
245,29,144864,6,0,P|272:81|268:121,1,99.0000030212403,2|0,3:2|0:2,0:2:0:0:
388,275,145192,2,0,P|387:226|411:184,1,99.0000030212403,2|0,1:2|0:2,0:2:0:0:
426,168,145438,1,0,2:0:0:0:
426,168,145520,1,2,3:2:0:0:
276,219,145684,1,0,3:2:0:0:
373,73,145847,1,2,1:2:0:0:
480,314,146011,5,0,0:2:0:0:
480,314,146093,1,0,2:0:0:0:
480,314,146175,1,0,3:2:0:0:
291,232,146339,1,0,3:2:0:0:
495,323,146503,2,0,L|514:215,1,99.0000030212403,4|0,1:2|0:2,0:2:0:0:
352,84,146831,5,0,3:2:0:0:
512,18,146995,1,0,3:2:0:0:
338,91,147159,2,0,P|292:82|237:72,1,99.0000030212403,4|0,1:2|0:2,0:2:0:0:
53,118,147487,6,0,P|27:70|37:24,1,99.0000030212403,6|0,3:2|2:0,0:2:0:0:
163,233,147815,2,0,P|150:280|141:329,1,99.0000030212403,2|0,1:2|0:2,0:2:0:0:
257,158,148143,1,2,3:2:0:0:
55,212,148307,1,0,3:2:0:0:
241,353,148470,2,0,P|289:344|339:341,1,99.0000030212403,2|0,1:2|0:2,0:2:0:0:
501,231,148798,6,0,P|435:196|362:216,1,148.50000453186,2|0,3:2|2:0,0:2:0:0:
351,227,149126,1,0,1:2:0:0:
223,42,149290,1,0,0:2:0:0:
223,42,149372,1,0,0:2:0:0:
223,42,149454,2,0,P|276:52|319:62,1,99.0000030212403,2|0,3:2|3:2,2:0:0:0:
257,263,149782,2,0,P|247:214|236:166,1,99.0000030212403,2|0,1:2|0:2,0:2:0:0:
54,77,150110,6,0,P|31:132|47:172,1,99.0000030212403,2|0,3:2|0:2,0:2:0:0:
239,153,150438,2,0,P|185:138|136:129,1,99.0000030212403,2|0,1:2|0:2,0:2:0:0:
35,352,150766,1,2,3:2:0:0:
239,286,150929,1,0,3:2:0:0:
114,224,151093,2,0,P|135:297|140:336,1,99.0000030212403,2|0,1:2|0:2,0:2:0:0:
336,372,151421,5,2,3:2:0:0:
489,263,151585,1,0,0:2:0:0:
241,159,151749,1,0,1:2:0:0:
338,269,151913,1,0,0:2:0:0:
338,269,151995,1,0,0:2:0:0:
338,269,152077,1,2,3:2:0:0:
465,123,152241,1,0,3:2:0:0:
487,359,152405,1,2,1:2:0:0:
362,159,152569,5,0,0:2:0:0:
362,159,152651,1,0,0:2:0:0:
362,159,152733,2,0,P|370:113|380:52,1,99.0000030212403,6|0,3:2|0:2,0:2:0:0:
233,255,153061,2,0,P|187:263|126:273,1,99.0000030212403,2|0,1:2|0:2,0:2:0:0:
5,106,153388,1,2,3:2:0:0:
173,172,153552,1,0,3:2:0:0:
52,342,153716,2,0,P|27:283|36:237,1,99.0000030212403,2|0,1:2|0:2,0:2:0:0:
200,164,154044,6,0,P|275:178|345:192,1,148.50000453186,2|0,3:2|2:0,0:2:0:0:
366,177,154372,2,0,P|362:129|356:78,1,99.0000030212403,2|0,1:2|0:2,0:2:0:0:
286,258,154700,1,2,3:2:0:0:
464,160,154864,1,0,3:2:0:0:
296,10,155028,2,0,P|271:49|271:105,1,99.0000030212403,2|0,1:2|0:2,0:2:0:0:
120,284,155356,6,0,P|42:294|2:304,1,99.0000030212403,2|0,3:2|0:2,0:2:0:0:
177,185,155684,1,2,1:2:0:0:
242,369,155847,1,0,0:2:0:0:
242,369,155929,1,0,0:2:0:0:
242,369,156011,2,0,P|266:329|266:273,1,99.0000030212403,2|0,3:2|3:2,0:2:0:0:
432,179,156339,1,2,1:2:0:0:
269,131,156503,5,0,0:2:0:0:
269,131,156585,1,0,2:0:0:0:
269,131,156667,1,0,3:2:0:0:
378,280,156831,1,0,3:2:0:0:
257,113,156995,2,0,P|265:64|276:16,1,99.0000030212403,4|0,1:2|0:2,0:2:0:0:
166,286,157323,5,0,3:2:0:0:
322,209,157487,1,0,3:2:0:0:
152,293,157651,2,0,P|113:285|54:274,1,99.0000030212403,4|0,1:2|0:2,0:2:0:0:
0,92,157979,6,0,P|74:54|138:77,1,148.50000453186,6|0,3:2|2:0,0:2:0:0:
146,93,158306,2,0,P|133:145|125:189,1,99.0000030212403,0|0,1:2|0:2,0:2:0:0:
171,320,158634,1,2,3:2:0:0:
1,375,158798,1,0,3:2:0:0:
1,375,158880,1,0,2:0:0:0:
1,375,158962,1,0,1:2:0:0:
69,285,159126,1,0,0:2:0:0:
256,384,159290,6,0,P|268:287|281:187,1,198.000006042481,2|0,3:2|1:2,0:2:0:0:
481,99,159782,1,0,0:2:0:0:
481,99,159864,1,0,0:2:0:0:
481,99,159946,1,2,3:2:0:0:
408,226,160110,1,0,3:2:0:0:
352,27,160274,2,0,P|365:72|376:122,1,99.0000030212403,0|0,1:2|0:2,0:2:0:0:
428,324,160602,6,0,P|381:312|331:300,1,99.0000030212403,2|0,3:2|0:0,0:0:0:0:
168,202,160929,2,0,P|180:270|190:348,1,148.50000453186,0|0,1:0|0:0,0:0:0:0:
190,373,161257,1,2,3:2:0:0:
81,259,161421,1,0,3:0:0:0:
259,165,161585,2,0,P|274:101|259:64,1,99.0000030212403,0|0,1:0|0:0,0:0:0:0:
91,131,161913,5,0,1:0:0:0:
303,273,162074,1,0,1:0:0:0:
303,273,162154,1,0,1:0:0:0:
303,273,162235,1,0,1:0:0:0:
16,384,162396,1,0,1:0:0:0:
175,170,162558,6,0,L|164:254,1,49.5000015106202,0|0,1:0|1:0,0:0:0:0:
215,384,162719,2,0,L|221:334,1,49.5000015106202,8|8,3:0|3:0,0:0:0:0:
423,164,162880,5,4,3:0:0:0:
420,139,162961,1,4,3:0:0:0:
418,114,163042,1,4,3:0:0:0:
416,90,163122,2,0,P|321:82|319:175,1,188.999994232178,4|0,3:0|0:0,0:0:0:0:
361,234,163775,5,0,0:0:0:0:
361,234,163856,2,0,P|355:255|342:309,2,60,2|2|2,0:0|0:0|0:0,0:0:0:0:
244,214,164386,6,0,B|142:205|178:277|72:268,1,180,6|0,0:0|3:0,0:0:0:0:
76,102,164873,2,0,P|100:141|100:189,1,90,0|0,1:0|0:0,0:0:0:0:
29,373,165197,1,2,3:2:0:0:
206,326,165360,1,2,3:2:0:0:
0,212,165522,1,2,1:2:0:0:
219,338,165685,6,0,P|290:325|364:317,1,135,2|0,0:2|0:0,0:0:0:0:
371,326,166010,1,0,0:0:0:0:
319,130,166174,1,2,1:2:0:0:
501,245,166338,2,0,P|457:235|412:227,1,90,2|0,0:2|3:2,0:2:0:0:
209,113,166666,1,2,3:2:0:0:
395,40,166830,1,2,1:2:0:0:
315,239,166994,6,0,P|302:137|291:60,1,180,6|0,0:2|3:2,0:2:0:0:
161,269,167487,1,2,1:2:0:0:
56,173,167651,1,2,0:2:0:0:
56,173,167733,1,0,0:2:0:0:
56,173,167815,1,2,3:2:0:0:
13,331,167979,1,2,3:2:0:0:
236,212,168143,1,2,1:2:0:0:
118,57,168306,6,0,P|128:98|137:144,1,90,2|0,0:2|3:2,0:2:0:0:
245,315,168634,1,2,3:2:0:0:
245,315,168716,1,0,0:2:0:0:
245,315,168798,1,2,1:2:0:0:
110,364,168962,2,0,P|43:348|-3:343,1,90,0|0,0:2|3:2,0:2:0:0:
249,201,169290,5,2,3:2:0:0:
12,115,169454,1,2,3:2:0:0:
119,373,169618,6,0,P|129:267|136:193,1,180,6|0,0:2|3:2,0:2:0:0:
324,102,170110,1,2,1:2:0:0:
188,22,170274,2,0,P|208:83|218:118,1,90,2|0,0:2|3:2,0:2:0:0:
341,277,170602,2,0,P|353:233|368:191,1,90,2|0,3:2|1:2,0:2:0:0:
502,67,170929,6,0,P|446:78|405:85,1,90,2|0,0:2|3:2,0:2:0:0:
172,185,171257,2,0,P|216:192|260:202,1,90,2|0,3:2|1:2,0:2:0:0:
489,297,171585,2,0,P|476:253|461:211,1,90,2|0,0:2|3:2,0:2:0:0:
285,330,171913,1,2,3:2:0:0:
285,330,171995,1,0,3:2:0:0:
285,330,172077,1,2,3:2:0:0:
331,88,172241,6,0,P|348:168|370:272,1,180,6|0,0:2|3:2,0:2:0:0:
256,185,172733,1,2,1:2:0:0:
434,107,172897,1,2,0:2:0:0:
374,278,173061,1,2,3:2:0:0:
221,58,173225,1,2,3:2:0:0:
141,287,173388,1,2,1:2:0:0:
274,179,173552,1,2,0:2:0:0:
13,73,173715,5,0,1:0:0:0:
7,118,173792,1,0,1:0:0:0:
22,160,173869,2,0,P|46:156|70:154,1,45,0|0,1:0|1:0,2:0:0:0:
269,54,174024,2,0,P|245:50|221:48,1,45,0|0,1:0|1:0,0:0:0:0:
122,34,174184,2,0,P|128:56|133:78,1,45,0|0,1:0|1:0,0:0:0:0:
163,164,174344,5,0,3:0:0:0:
171,195,174424,1,8,3:0:0:0:
179,229,174504,1,8,3:0:0:0:
187,261,174584,1,8,3:0:0:0:
192,294,174664,2,0,P|187:314|177:347,1,45,8|8,3:0|3:0,0:0:0:0:
486,153,174824,6,0,P|437:119|351:123,1,135,6|0,1:2|0:2,0:2:0:0:
347,135,175172,1,0,3:2:0:0:
386,314,175312,2,0,P|402:232|413:204,1,90,0|0,1:2|2:2,0:2:0:0:
282,58,175650,5,2,3:2:0:0:
178,186,175820,1,2,3:2:0:0:
178,186,175905,1,0,3:2:0:0:
178,186,175989,2,0,P|238:177|288:175,1,90,2|0,1:2|0:2,0:2:0:0:
418,236,176328,5,2,3:2:0:0:
471,95,176498,1,0,3:2:0:0:
347,152,176669,1,2,1:2:0:0:
490,343,176833,2,0,P|498:298|512:256,1,90,2|0,0:2|3:2,0:2:0:0:
372,67,177163,1,2,3:2:0:0:
278,229,177328,1,2,1:2:0:0:
424,193,177493,6,0,P|475:183|521:177,1,90,6|0,0:2|0:2,0:2:0:0:
361,291,177810,1,2,3:2:0:0:
261,138,177969,1,2,1:2:0:0:
140,288,178135,1,2,0:2:0:0:
168,292,178219,1,0,0:2:0:0:
197,297,178302,2,0,P|192:252|186:207,1,90,0|2,3:2|3:2,0:2:0:0:
179,180,178552,1,0,0:2:0:0:
179,180,178635,1,2,1:2:0:0:
62,33,178802,1,2,0:2:0:0:
220,79,178969,5,2,3:2:0:0:
17,245,179135,1,2,3:2:0:0:
62,16,179302,1,2,1:2:0:0:
259,154,179468,1,2,0:2:0:0:
29,117,179633,5,0,1:2:0:0:
341,38,179790,1,0,1:2:0:0:
14,123,179948,1,0,1:2:0:0:
302,250,180129,6,0,B|403:231|375:305|493:280,1,180,6|0,0:2|2:2,0:2:0:0:
353,159,180620,5,2,1:2:0:0:
214,347,180783,2,0,P|208:295|205:249,1,90,6|0,0:2|0:2,0:2:0:0:
202,248,181029,1,0,0:2:0:0:
202,248,181111,1,0,0:2:0:0:
328,361,181275,1,2,1:2:0:0:
459,187,181439,6,0,P|447:122|436:53,1,135,6|0,0:2|0:2,0:2:0:0:
437,34,181767,1,0,3:2:0:0:
318,177,181931,1,2,1:2:0:0:
198,66,182095,2,0,P|244:78|298:92,1,90,6|0,0:2|0:2,0:2:0:0:
466,194,182423,1,0,3:2:0:0:
466,194,182505,1,0,0:2:0:0:
466,194,182587,1,2,1:2:0:0:
341,10,182751,6,0,P|335:83|326:189,1,180,6|0,0:2|3:2,0:2:0:0:
181,331,183242,1,2,1:2:0:0:
430,277,183406,1,2,0:2:0:0:
430,277,183488,1,0,0:2:0:0:
430,277,183570,1,2,3:2:0:0:
232,144,183734,1,2,3:2:0:0:
275,384,183898,2,0,P|280:339|285:294,1,90,2|0,1:2|0:2,0:2:0:0:
137,86,184202,6,0,P|92:93|47:96,1,90,0|0,1:0|0:0,0:0:0:0:
68,241,184426,2,0,P|112:233|157:230,1,90,0|0,1:0|0:0,0:0:0:0:
232,144,184651,1,0,1:0:0:0:
374,323,184876,6,0,P|433:327|492:339,2,120,8|8|8,3:0|3:0|3:0,0:0:0:0:
308,215,185530,5,2,0:0:0:0:
308,215,185857,6,0,P|302:252|299:286,1,72,2|0,0:0|0:0,0:0:0:0:
134,337,186185,2,0,P|82:342|27:350,2,108,10|6|2,3:0|3:0|3:0,0:0:0:0:
220,372,186841,6,0,P|225:336|217:301,1,72,4|0,0:0|0:0,0:0:0:0:
139,248,187169,2,0,L|151:177,1,72,2|0,0:0|0:0,0:0:0:0:
210,50,187497,1,10,3:0:0:0:
124,69,187661,1,4,3:0:0:0:
41,89,187825,2,0,P|45:49|48:10,1,72,2|0,3:0|0:0,0:0:0:0:
256,136,188152,6,0,P|326:149|404:168,2,144,6|0|8,0:0|3:0|3:0,0:0:0:0:
180,292,188972,1,0,0:0:0:0:
180,292,189054,1,4,3:0:0:0:
180,292,189136,2,0,P|184:332|186:363,1,72,4|0,3:0|3:0,0:0:0:0:
91,183,189466,5,2,3:0:0:0:
1,260,189641,2,0,P|43:269|93:281,1,72,2|0,0:0|3:0,0:0:0:0:
196,198,189968,1,10,3:0:0:0:
196,198,190051,1,8,3:0:0:0:
196,198,190135,1,8,3:0:0:0:
129,99,190288,1,2,3:0:0:0:
81,285,190441,1,0,3:2:0:0:
289,249,190601,5,2,0:0:0:0:
289,249,190681,1,0,0:0:0:0:
289,249,190766,2,0,P|365:258|434:267,2,144,6|2|2,0:0|3:0|3:2,0:0:0:0:
243,115,191585,1,0,0:0:0:0:
358,172,191749,2,0,P|363:133|367:100,1,72,2|2,3:0|0:0,0:0:0:0:
383,79,191995,1,8,3:0:0:0:
383,79,192077,6,0,P|429:67|456:63,1,72,4|0,3:0|0:0,0:0:0:0:
366,190,192405,1,2,3:0:0:0:
269,45,192569,2,0,P|261:82|254:129,1,72,4|2,0:0|0:0,0:0:0:0:
176,228,192897,1,8,3:0:0:0:
90,247,193061,1,6,3:0:0:0:
7,267,193225,1,10,3:0:0:0:
176,228,193388,6,0,P|246:243|315:262,1,144,6|0,0:0|3:0,0:0:0:0:
315,262,193880,1,0,0:0:0:0:
455,225,194044,2,0,P|462:254|466:295,1,72,2|0,3:0|0:0,0:0:0:0:
366,175,194372,2,0,P|369:139|377:104,1,72,2|0,3:0|0:0,0:0:0:0:
393,84,194618,1,8,3:0:0:0:
393,84,194700,5,8,3:0:0:0:
282,132,194864,2,0,P|258:126|211:118,1,72,4|0,3:0|0:0,0:0:0:0:
112,202,195181,2,0,P|103:237|98:272,1,72,0|0,3:0|0:0,0:0:0:0:
31,156,195499,5,0,3:0:0:0:
194,253,195655,2,0,P|245:244|290:239,1,72,0|0,1:0|0:0,0:0:0:0:
290,248,195922,1,0,0:0:0:0:
290,248,196013,6,0,P|283:291|276:334,1,80.9999975280763,4|0,0:0|0:0,0:0:0:0:
455,273,196340,2,0,P|416:260|369:243,1,80.9999975280763,2|0,3:2|0:2,0:2:0:0:
212,166,196668,2,0,P|250:153|297:136,1,80.9999975280763,2|0,3:2|0:2,0:2:0:0:
412,11,196996,5,2,3:2:0:0:
465,101,197160,1,2,0:2:0:0:
465,101,197242,1,0,0:2:0:0:
465,101,197324,2,0,P|454:137|444:186,1,80.9999975280763,0|0,3:2|0:2,0:2:0:0:
281,229,197652,2,0,P|289:189|300:150,1,80.9999975280763,0|0,3:2|0:2,0:2:0:0:
211,19,197980,2,0,P|280:46|309:57,1,80.9999975280763,0|2,3:2|0:2,0:2:0:0:
304,59,198226,1,0,0:2:0:0:
304,59,198308,1,2,3:2:0:0:
198,135,198472,1,2,0:2:0:0:
115,6,198635,6,0,P|107:45|97:98,1,80.9999975280763,2|0,3:2|0:2,0:2:0:0:
192,224,198963,2,0,P|199:184|207:144,1,80.9999975280763,2|0,3:2|0:2,0:2:0:0:
23,166,199291,2,0,P|69:173|122:188,1,80.9999975280763,2|0,3:2|0:2,0:2:0:0:
102,181,199537,1,0,0:2:0:0:
102,181,199619,1,2,3:2:0:0:
173,305,199783,5,0,0:2:0:0:
281,196,199947,2,0,P|294:275|306:355,1,161.999995056153,6|2,0:2|3:2,0:2:0:0:
413,214,200439,1,0,0:2:0:0:
470,318,200603,1,0,3:2:0:0:
326,272,200767,1,0,3:2:0:0:
478,143,200931,2,0,P|485:103|470:66,1,80.9999975280763,0|0,1:2|0:2,0:2:0:0:
445,57,201176,1,0,0:2:0:0:
445,57,201258,6,0,P|376:71|310:91,1,121.499996292114,6|0,3:2|0:2,0:2:0:0:
309,100,201586,1,2,1:2:0:0:
185,231,201750,2,0,P|189:190|194:150,1,80.9999975280763,2|0,0:2|3:2,0:2:0:0:
203,39,202078,1,2,3:2:0:0:
279,236,202242,2,0,P|326:229|370:223,1,80.9999975280763,2|0,1:2|0:2,0:2:0:0:
185,140,202570,6,0,P|108:125|28:185,1,161.999995056153,0|0,3:2|1:2,0:2:0:0:
212,319,203062,1,0,0:2:0:0:
212,319,203144,1,0,0:2:0:0:
212,319,203226,1,0,3:2:0:0:
21,358,203390,1,0,3:2:0:0:
126,214,203553,2,0,P|119:252|113:294,1,80.9999975280763,0|0,1:2|0:2,0:2:0:0:
311,383,203881,6,0,P|316:323|322:263,1,121.499996292114,4|0,0:2|0:2,0:2:0:0:
327,236,204209,1,0,1:2:0:0:
235,62,204373,1,0,3:2:0:0:
416,156,204537,1,0,1:2:0:0:
218,271,204701,1,0,3:2:0:0:
218,271,204783,1,0,0:2:0:0:
218,271,204870,1,0,1:2:0:0:
352,77,205056,1,0,3:2:0:0:
464,333,205222,5,0,1:0:0:0:
432,321,205299,1,0,1:0:0:0:
399,313,205378,1,0,1:0:0:0:
366,308,205457,1,0,1:0:0:0:
332,306,205540,2,0,L|316:239,1,45,0|0,1:0|0:0,0:0:0:0:
220,119,205695,1,0,1:0:0:0:
220,119,205780,1,0,1:0:0:0:
220,119,205864,2,0,L|209:182,1,45,0|0,1:0|0:0,0:0:0:0:
140,255,206018,1,0,1:0:0:0:
314,150,206182,5,0,1:0:0:0:
320,116,206260,1,0,1:0:0:0:
315,83,206338,1,0,1:0:0:0:
299,53,206416,1,0,1:0:0:0:
274,30,206494,1,0,1:0:0:0:
87,333,216987,5,0,0:0:0:0:
87,333,218299,6,0,P|134:320|183:310,1,99.0000030212403,6|0,3:2|0:2,0:2:0:0:
336,195,218627,2,0,P|287:185|239:171,1,99.0000030212403,2|0,1:2|0:2,0:2:0:0:
80,92,218955,1,2,3:2:0:0:
204,39,219118,1,0,3:2:0:0:
111,237,219282,2,0,P|96:284|86:332,1,99.0000030212403,2|0,1:2|0:2,0:2:0:0:
29,168,219610,6,0,P|82:133|178:159,1,148.50000453186,2|0,3:2|2:0,0:2:0:0:
186,163,219938,1,0,1:2:0:0:
392,40,220102,1,0,0:2:0:0:
392,40,220184,1,0,0:2:0:0:
392,40,220266,1,2,3:2:0:0:
246,10,220430,1,0,3:2:0:0:
395,185,220594,2,0,P|442:172|490:159,1,99.0000030212403,2|0,1:2|0:2,0:2:0:0:
312,81,220922,6,0,P|304:121|295:178,1,99.0000030212403,2|0,3:2|2:0,0:2:0:0:
465,355,221250,2,0,P|471:305|481:257,1,99.0000030212403,2|0,1:2|0:2,0:2:0:0:
498,137,221577,1,2,3:2:0:0:
389,211,221741,1,0,3:2:0:0:
203,90,221905,2,0,P|266:78|311:66,1,99.0000030212403,2|0,1:2|0:2,0:2:0:0:
418,21,222233,5,2,3:2:0:0:
502,249,222397,1,0,0:2:0:0:
264,196,222561,1,0,1:2:0:0:
401,153,222725,1,0,0:2:0:0:
401,153,222807,1,0,0:2:0:0:
401,153,222889,1,2,3:2:0:0:
273,326,223053,1,0,3:2:0:0:
40,117,223217,5,2,1:2:0:0:
16,141,223298,1,0,1:2:0:0:
4,172,223380,1,0,1:2:0:0:
3,205,223462,1,0,1:2:0:0:
14,237,223545,2,0,P|90:248|174:266,1,148.50000453186,6|0,3:2|2:0,0:2:0:0:
176,252,223873,2,0,P|171:203|163:153,1,99.0000030212403,2|0,1:2|0:2,0:2:0:0:
243,3,224200,1,2,3:2:0:0:
291,160,224364,1,0,3:2:0:0:
49,88,224528,2,0,P|113:76|156:61,1,99.0000030212403,2|0,1:2|0:2,0:2:0:0:
394,9,224856,6,0,P|370:75|362:108,1,99.0000030212403,2|0,3:2|2:0,0:2:0:0:
294,245,225184,1,2,1:2:0:0:
504,205,225348,1,0,0:2:0:0:
504,205,225430,1,0,0:2:0:0:
504,205,225512,1,2,3:2:0:0:
372,119,225676,1,0,3:2:0:0:
381,341,225840,2,0,P|393:293|411:247,1,99.0000030212403,2|0,1:2|0:2,0:2:0:0:
512,74,226168,6,0,P|410:111|366:87,1,148.50000453186,2|0,3:2|2:0,0:2:0:0:
353,85,226495,2,0,P|306:95|256:107,1,99.0000030212403,2|0,1:2|0:2,0:2:0:0:
57,64,226823,1,2,3:2:0:0:
202,7,226987,1,0,3:2:0:0:
131,166,227151,2,0,P|116:213|103:261,1,99.0000030212403,2|0,1:2|0:2,0:2:0:0:
301,373,227479,5,0,3:2:0:0:
306,348,227560,1,0,3:0:0:0:
312,324,227642,1,0,3:2:0:0:
318,300,227724,1,0,3:0:0:0:
324,276,227807,2,0,P|271:283|223:290,1,99.0000030212403,4|0,1:2|0:2,0:2:0:0:
29,155,228135,5,0,3:2:0:0:
23,130,228210,1,0,3:0:0:0:
17,106,228285,1,0,3:2:0:0:
11,82,228359,1,0,3:0:0:0:
6,58,228434,2,0,P|59:65|107:72,1,99.0000030212403,4|0,1:2|0:2,0:2:0:0:
365,245,228792,6,0,P|291:250|239:201,1,148.50000453186,6|0,3:2|0:2,0:2:0:0:
224,210,229119,2,0,P|230:160|237:111,1,99.0000030212403,2|0,1:2|0:2,0:2:0:0:
123,254,229447,1,2,3:2:0:0:
328,170,229611,1,0,3:2:0:0:
141,17,229775,2,0,P|147:66|154:115,1,99.0000030212403,2|0,1:2|0:2,0:2:0:0:
7,309,230103,6,0,P|60:260|132:266,1,148.50000453186,2|0,3:2|2:0,0:2:0:0:
154,284,230431,1,0,1:2:0:0:
356,234,230595,1,0,0:2:0:0:
356,234,230677,1,0,0:2:0:0:
356,234,230759,1,2,3:2:0:0:
277,363,230923,1,0,3:2:0:0:
228,158,231087,2,0,P|241:202|255:261,1,99.0000030212403,2|0,1:2|0:2,0:2:0:0:
430,379,231414,6,0,P|441:330|455:283,1,99.0000030212403,2|0,3:2|0:2,0:2:0:0:
497,98,231742,2,0,P|430:122|396:134,1,99.0000030212403,2|0,1:2|0:2,0:2:0:0:
178,86,232070,1,2,3:2:0:0:
262,253,232234,1,0,3:2:0:0:
326,27,232398,2,0,P|314:70|299:136,1,99.0000030212403,2|0,1:2|0:2,0:2:0:0:
177,282,232726,5,2,3:2:0:0:
0,208,232890,1,0,0:2:0:0:
153,95,233054,1,0,1:2:0:0:
110,199,233218,1,0,0:2:0:0:
110,199,233300,1,0,0:2:0:0:
110,199,233382,1,2,3:2:0:0:
294,142,233546,1,0,3:2:0:0:
165,1,233710,1,2,1:2:0:0:
264,238,233873,5,0,0:2:0:0:
264,238,233955,1,0,0:2:0:0:
264,238,234037,2,0,P|318:230|361:220,1,99.0000030212403,2|0,3:2|0:2,0:2:0:0:
179,15,234365,2,0,P|168:63|161:112,1,99.0000030212403,2|0,1:2|0:2,0:2:0:0:
86,326,234693,1,2,3:2:0:0:
10,204,234857,1,0,3:2:0:0:
165,273,235021,2,0,P|189:315|186:363,1,99.0000030212403,2|0,1:2|0:2,0:2:0:0:
19,218,235349,6,0,P|34:145|50:72,1,148.50000453186,2|0,3:2|2:0,0:2:0:0:
59,51,235677,1,2,1:2:0:0:
264,202,235841,1,0,0:2:0:0:
264,202,235923,1,0,2:0:0:0:
264,202,236005,1,2,3:2:0:0:
303,25,236169,1,0,3:2:0:0:
125,122,236332,2,0,P|177:112|234:103,1,99.0000030212403,2|0,1:2|0:2,0:2:0:0:
495,224,236660,6,0,P|439:178|367:186,1,148.50000453186,2|0,3:2|2:0,0:2:0:0:
349,211,236988,2,0,P|356:263|363:320,1,99.0000030212403,2|0,1:2|0:2,2:0:0:0:
133,108,237316,1,2,3:2:0:0:
301,43,237480,1,0,3:2:0:0:
255,238,237644,2,0,P|207:224|159:213,1,99.0000030212403,2|0,1:2|0:2,0:2:0:0:
24,145,237972,5,0,3:2:0:0:
170,28,238136,1,0,3:2:0:0:
14,155,238301,2,0,P|22:203|30:253,1,99.0000030212403,4|0,1:2|0:2,0:2:0:0:
123,373,238628,5,0,3:2:0:0:
261,282,238792,1,0,3:2:0:0:
113,382,238955,2,0,P|64:373|14:366,1,99.0000030212403,4|0,1:2|0:2,0:2:0:0:
2,352,239201,1,0,0:2:0:0:
2,352,239283,6,0,P|77:283|167:307,1,198.000006042481,6|0,3:2|1:2,0:2:0:0:
357,236,239775,1,0,0:2:0:0:
357,236,239857,1,0,2:0:0:0:
357,236,239939,2,0,P|364:183|371:138,1,99.0000030212403,2|0,3:2|3:2,2:0:0:0:
281,32,240267,2,0,P|272:80|266:129,1,99.0000030212403,0|0,1:2|0:2,0:2:0:0:
123,260,240595,5,2,3:2:0:0:
72,146,240759,1,0,2:0:0:0:
30,303,240923,1,0,1:2:0:0:
226,229,241087,1,0,0:2:0:0:
226,229,241169,1,0,0:2:0:0:
226,229,241251,2,0,P|272:217|323:210,1,99.0000030212403,2|0,3:2|3:2,2:0:0:0:
466,132,241578,1,0,1:2:0:0:
417,267,241742,1,0,0:2:0:0:
278,37,241905,5,0,1:0:0:0:
482,137,242069,1,0,3:0:0:0:
178,166,242233,5,0,1:0:0:0:
489,220,242397,1,0,3:0:0:0:
187,337,242561,5,0,1:0:0:0:
509,305,242725,1,0,3:0:0:0:
509,305,242807,1,0,3:0:0:0:
509,305,242889,1,0,1:0:0:0:
426,17,243053,5,0,3:0:0:0:
426,17,243135,1,0,3:0:0:0:
426,17,243217,1,0,1:0:0:0:
418,53,243297,1,0,1:0:0:0:
411,89,243376,1,0,1:0:0:0:
404,126,243456,1,0,1:0:0:0:
398,162,243535,2,0,L|338:178,1,49.5000015106202,0|0,1:0|1:0,0:0:0:0:
168,44,243694,1,0,1:0:0:0:
168,44,243773,1,0,1:0:0:0:
168,44,243852,2,0,L|245:59,1,49.5000015106202,0|0,1:0|1:0,0:0:0:0:
163,254,244014,5,8,3:0:0:0:
116,268,244095,1,8,3:0:0:0:
72,279,244176,2,0,L|7:259,1,49.5000015106202,4|4,3:0|3:0,0:0:0:0:
98,130,244338,2,0,L|107:202,1,49.5000015106202,4|4,3:0|3:0,0:0:0:0:
213,333,244503,5,6,3:2:0:0:
437,271,244675,1,2,3:2:0:0:
266,202,244847,1,6,1:2:0:0:
339,366,245020,2,0,P|349:268|359:185,1,180,2|0,3:2|3:2,0:2:0:0:
403,40,245524,2,0,P|447:30|491:23,1,90,0|0,1:2|0:2,0:2:0:0:
358,187,245846,6,0,P|313:178|269:172,1,90,2|0,3:2|0:2,0:2:0:0:
182,87,246173,1,0,1:2:0:0:
55,237,246337,1,0,0:2:0:0:
55,237,246419,1,0,0:2:0:0:
55,237,246501,2,0,P|62:192|70:148,1,90,0|0,3:2|0:2,0:2:0:0:
192,287,246829,2,0,P|185:331|177:375,1,90,0|0,1:2|0:2,0:2:0:0:
489,311,247157,6,0,P|444:269|321:277,1,180,2|0,3:2|1:2,0:2:0:0:
227,183,247649,1,0,0:2:0:0:
227,183,247731,1,0,0:2:0:0:
227,183,247813,1,0,3:2:0:0:
352,138,247977,1,0,0:2:0:0:
318,360,248141,2,0,P|323:315|331:270,1,90,0|0,1:2|0:2,0:2:0:0:
390,19,248468,5,2,3:2:0:0:
263,104,248632,1,2,0:2:0:0:
512,216,248796,1,2,1:2:0:0:
446,92,248960,1,2,3:2:0:0:
446,92,249042,1,0,3:2:0:0:
446,92,249124,2,0,P|438:129|426:184,1,90,0|2,3:2|0:2,0:2:0:0:
247,350,249423,5,0,1:2:0:0:
224,325,249502,1,0,1:2:0:0:
214,293,249581,1,0,1:2:0:0:
217,259,249661,1,0,1:2:0:0:
234,230,249740,2,0,P|282:236|335:255,1,90,6|0,1:2|0:2,0:2:0:0:
460,336,250067,2,0,P|415:341|372:354,1,90,0|0,1:2|0:2,0:2:0:0:
131,216,250411,1,2,3:2:0:0:
294,134,250574,1,0,3:2:0:0:
164,36,250738,2,0,P|176:82|185:123,1,90,0|0,1:2|0:2,0:2:0:0:
148,309,251066,6,0,P|86:304|50:279,1,90,2|0,3:2|0:2,0:2:0:0:
40,117,251393,1,0,1:2:0:0:
131,216,251557,1,0,0:2:0:0:
294,134,251721,2,0,P|284:178|278:222,1,90,0|0,3:2|0:2,0:2:0:0:
386,370,252049,2,0,P|395:325|401:281,1,90,0|0,1:2|0:2,0:2:0:0:
496,110,252377,5,2,3:2:0:0:
294,134,252541,1,0,0:2:0:0:
375,1,252721,2,0,P|385:44|394:88,1,90,0|0,1:2|0:2,0:2:0:0:
316,250,253048,1,0,3:2:0:0:
507,317,253212,1,0,3:2:0:0:
439,186,253376,1,0,1:2:0:0:
261,333,253540,1,0,0:2:0:0:
80,153,253704,5,0,1:0:0:0:
226,85,253869,1,0,1:0:0:0:
226,85,253953,1,0,1:0:0:0:
226,85,254037,2,0,L|212:164,1,45,0|0,1:0|1:0,0:0:0:0:
107,283,254206,2,0,L|99:238,1,45,0|0,1:0|1:0,0:0:0:0:
59,63,254366,1,0,1:0:0:0:
208,223,254526,6,0,L|259:217,1,45,8|8,3:0|3:0,0:0:0:0:
475,130,254674,2,0,L|424:124,1,45,8|8,3:0|3:0,0:0:0:0:
321,68,254825,5,4,3:0:0:0:
321,68,254901,1,4,3:0:0:0:
321,68,254977,2,0,P|335:146|352:232,1,135,6|0,3:2|0:2,0:2:0:0:
351,218,255315,1,0,1:2:0:0:
217,358,255485,1,0,0:2:0:0:
376,328,255654,1,0,3:2:0:0:
233,202,255824,1,0,3:2:0:0:
195,373,255993,1,2,1:2:0:0:
45,259,256163,5,2,0:2:0:0:
45,259,256248,1,0,0:2:0:0:
45,259,256332,2,0,P|55:206|67:148,1,90,2|0,3:2|0:2,0:2:0:0:
237,69,256659,1,0,1:2:0:0:
132,3,256823,2,0,P|150:129|158:195,1,180,0|0,0:2|3:2,0:2:0:0:
299,283,257315,1,0,1:2:0:0:
485,180,257479,5,0,0:2:0:0:
485,180,257561,1,0,0:2:0:0:
485,180,257643,2,0,L|405:161,1,45,2|0,3:2|0:2,0:2:0:0:
347,125,257807,2,0,P|354:166|361:213,1,90,0|0,0:2|1:2,0:2:0:0:
239,355,258135,5,0,0:2:0:0:
239,355,258217,1,0,0:2:0:0:
239,355,258299,2,0,L|159:336,1,45,0|0,3:2|0:2,0:2:0:0:
108,378,258463,2,0,P|114:333|122:289,1,90,0|0,3:2|1:2,0:2:0:0:
121,85,258791,5,0,0:2:0:0:
121,85,258872,1,0,0:2:0:0:
121,85,258954,1,2,3:2:0:0:
28,177,259118,1,2,0:2:0:0:
264,117,259282,1,2,1:2:0:0:
174,2,259446,2,0,L|145:207,1,180,2|0,0:2|3:2,0:2:0:0:
126,359,259938,1,2,1:2:0:0:
0,261,260102,1,2,0:2:0:0:
223,310,260266,6,0,P|118:330|17:351,1,180,2|0,3:2|1:2,0:2:0:0:
223,214,260758,2,0,P|295:238|345:256,1,90,0|0,0:2|3:2,0:2:0:0:
487,303,261086,1,0,3:2:0:0:
367,363,261250,1,0,1:2:0:0:
432,171,261413,1,0,0:2:0:0:
308,242,261577,5,2,3:2:0:0:
164,124,261741,2,0,P|216:116|276:110,1,90,0|0,0:2|1:2,0:2:0:0:
375,357,262069,2,0,P|292:336|195:312,1,180,0|0,0:2|3:2,0:2:0:0:
185,311,262479,1,0,0:2:0:0:
185,311,262561,1,0,1:2:0:0:
14,364,262725,1,0,0:2:0:0:
71,155,262889,5,0,1:0:0:0:
76,188,262969,1,0,1:0:0:0:
80,221,263050,1,0,1:0:0:0:
84,255,263130,1,0,1:0:0:0:
87,288,263211,1,0,1:0:0:0:
236,162,263365,1,0,1:0:0:0:
214,156,263441,1,0,1:0:0:0:
192,151,263518,1,0,1:0:0:0:
258,352,263684,5,0,1:0:0:0:
280,346,263767,1,0,1:0:0:0:
302,340,263850,2,0,L|369:324,1,45,0|0,1:0|1:0,0:0:0:0:
512,221,264006,2,0,L|442:206,1,45,0|0,1:0|1:0,0:0:0:0:
364,187,264165,1,0,1:0:0:0:
426,376,264335,5,0,1:0:0:0:
464,366,264420,1,0,1:0:0:0:
497,355,264510,2,0,L|512:285,1,45,0|0,1:0|1:0,0:0:0:0:
356,94,264679,1,0,1:0:0:0:
318,104,264764,1,0,1:0:0:0:
285,115,264850,2,0,L|270:185,1,45,0|0,1:0|1:0,0:0:0:0:
245,260,265016,2,0,L|318:247,1,45,0|0,1:0|1:0,0:0:0:0:
444,99,265184,6,0,L|432:157,1,45,0|0,1:0|2:0,0:0:0:0:
398,305,265337,2,0,L|410:247,1,45,0|0,1:0|1:0,0:0:0:0:
130,134,266021,5,0,0:0:0:0:
131,145,266099,1,0,0:0:0:0:
132,156,266178,1,0,0:0:0:0:
134,167,266256,1,0,0:0:0:0:
256,192,266335,12,0,272457,0:0:0:0:
