osu file format v14

[General]
AudioFilename: audio.mp3
AudioLeadIn: 0
PreviewTime: 61009
Countdown: 0
SampleSet: Soft
StackLeniency: 0.7
Mode: 0
LetterboxInBreaks: 0
WidescreenStoryboard: 0

[Editor]
DistanceSpacing: 1
BeatDivisor: 2
GridSize: 4
TimelineZoom: 1.7

[Metadata]
Title:W:Wonder tale
TitleUnicode:W:Wonder tale
Artist:Tamura Yukari
ArtistUnicode:田村ゆかり
Creator:-Nitrous
Version:Easy
Source:俺の彼女と幼なじみが修羅場すぎる
Tags:oreshura ending Akitoshi zeroallies Ore no Kanojo to Osananajimi ga Shuraba Sugiru tv size
BeatmapID:919877
BeatmapSetID:425935

[Difficulty]
HPDrainRate:2
CircleSize:3
OverallDifficulty:2
ApproachRate:3
SliderMultiplier:0.8
SliderTickRate:1

[Events]
//Background and Video events
0,0,"himeka.jpg",0,0
Video,1304,"ending.avi"
//Break Periods
//Storyboard Layer 0 (Background)
//Storyboard Layer 1 (Fail)
//Storyboard Layer 2 (Pass)
//Storyboard Layer 3 (Foreground)
//Storyboard Sound Samples

[TimingPoints]
2610,378.548895899054,4,2,1,20,1,0
7160,-100,4,2,1,20,0,0
8674,-100,4,2,1,5,0,0
8879,327.868852459016,4,2,1,60,1,0
14124,-100,4,2,1,70,0,0
15108,-100,4,2,1,80,0,0
15435,-100,4,2,2,70,0,0
17730,-100,4,2,2,80,0,0
19370,-100,4,2,1,30,0,0
28550,-100,4,2,1,30,0,0
28714,-100,4,2,1,20,0,0
29534,-100,4,2,1,70,0,0
29862,-100,4,2,2,70,0,0
39534,-100,4,2,1,70,0,0
40026,-100,4,2,1,70,0,0
40353,-100,4,2,2,50,0,0
50849,327.868852459016,4,2,1,60,1,0
54780,327.868852459016,4,2,1,60,1,0
55763,-100,4,2,2,70,0,0
58714,-100,4,2,2,80,0,0
58878,-100,4,2,2,70,0,0
60026,-100,4,2,2,80,0,0
60189,-100,4,2,2,70,0,0
61337,-100,4,2,2,70,0,1
71173,-100,4,2,2,60,0,0
71829,-100,4,2,2,70,0,1
81009,-100,4,2,2,80,0,1
82320,-100,4,2,2,70,0,0
84944,-100,4,2,2,70,0,0
87567,-100,4,2,1,40,0,0
90189,-100,4,2,1,5,0,0

[Colours]
Combo1 : 90,140,207
Combo2 : 220,224,227
Combo3 : 255,125,255
Combo4 : 255,133,74

[HitObjects]
330,113,2610,6,0,P|255:139|176:112,2,160,2|2|2,0:0|0:0|0:0,0:0:0:0:
331,273,4881,2,0,P|255:249|181:275,2,160,2|2|2,0:0|0:0|0:0,0:0:0:0:
256,192,7152,12,0,8666,0:0:0:0:
423,107,10190,6,0,B|373:128|344:107|314:84|259:108,1,160,4|2,0:0|0:0,0:0:0:0:
216,169,11174,1,8,0:0:0:0:
136,179,11501,2,0,P|144:216|180:244,1,80,2|8,0:0|0:0,0:0:0:0:
253,260,12157,1,2,0:0:0:0:
300,195,12485,1,8,0:0:0:0:
377,215,12813,6,0,P|414:281|376:353,1,160,2|0,0:0|0:0,0:0:0:0:
333,284,13797,1,8,0:0:0:0:
256,259,14124,2,0,P|217:250|180:264,1,80,2|8,0:0|0:0,0:0:0:0:
151,338,14780,2,0,P|108:352|60:331,1,80,2|8,0:0|0:0,0:0:0:0:
50,266,15436,6,0,P|15:196|56:130,1,160,4|2,0:0|0:0,0:0:0:0:
117,82,16419,1,8,0:0:0:0:
184,124,16747,2,0,P|256:156|328:121,1,160,2|2,0:0|0:0,0:0:0:0:
386,71,17731,1,4,0:0:0:0:
441,299,19370,6,0,P|406:268|410:214,1,80,4|0,0:0|0:0,0:0:0:0:
424,160,20026,2,0,P|395:132|349:131,1,80
292,175,20682,1,0,0:0:0:0:
228,223,21010,2,0,L|239:302,2,80
196,149,21993,6,0,P|124:121|65:170,1,160
46,246,22977,1,0,0:0:0:0:
114,288,23305,2,0,L|92:388,2,80
182,246,24288,1,0,0:0:0:0:
223,177,24616,6,0,P|249:152|310:142,1,80
356,184,25272,2,0,L|348:275,2,80
433,161,26256,1,0,0:0:0:0:
420,81,26583,2,0,P|382:60|331:68,1,80
302,128,27239,6,0,P|233:162|162:110,1,160
89,107,28223,1,0,0:0:0:0:
12,130,28551,2,0,B|25:180|65:183|95:200|95:200|82:222|61:278|121:319,1,240,4|8,0:0|0:3,0:0:0:0:
161,248,29862,6,0,P|176:187|159:149,1,80,2|8,0:0|0:0,0:0:0:0:
141,98,30518,2,0,P|152:59|180:32,1,80,2|8,0:0|0:0,0:0:0:0:
258,52,31174,1,2,0:0:0:0:
306,115,31501,2,0,L|320:210,2,80,8|2|8,0:0|0:0|0:0,0:0:0:0:
364,60,32485,6,0,P|418:80|439:119,1,80,2|8,0:0|0:0,0:0:0:0:
445,175,33141,1,2,0:0:0:0:
403,243,33469,1,8,0:0:0:0:
331,279,33797,2,0,L|313:381,2,80,2|8|2,0:0|0:0|0:0,0:0:0:0:
277,217,34780,1,8,0:0:0:0:
203,248,35108,5,2,0:0:0:0:
186,326,35436,2,0,P|139:295|143:196,1,160,8|8,0:0|0:0,0:0:0:0:
170,125,36419,1,2,0:0:0:0:
250,136,36747,2,0,P|316:175|385:140,1,160,8|8,0:0|0:0,0:0:0:0:
400,61,37731,6,0,P|370:32|320:32,1,80,2|8,0:0|0:0,0:0:0:0:
252,32,38387,2,0,L|166:43,1,80,2|0,0:0|1:0,0:0:0:0:
153,119,39042,2,0,L|34:136,2,120,8|8|8,0:0|0:0|0:0,0:0:0:0:
223,158,40354,6,0,L|208:251,2,80,4|2|8,0:0|0:0|0:0,0:0:0:0:
294,120,41338,1,2,0:0:0:0:
334,50,41665,2,0,P|374:109|316:197,1,160,8|8,0:0|0:0,0:0:0:0:
225,294,42977,6,8,B|174:273|146:293|112:315|63:293,1,160
151,157,44288,2,0,B|193:139|215:150|237:162|285:150,2,120,8|2|8,0:0|0:0|0:0,0:0:0:0:
114,85,45600,6,0,P|81:118|72:174,1,80,4|2,0:0|0:0,0:0:0:0:
77,229,46256,2,0,L|101:318,1,80,8|2,0:0|0:0,0:0:0:0:
177,295,46911,2,0,P|226:225|299:226,1,160,8|8,0:0|0:0,0:0:0:0:
353,278,47895,1,2,0:0:0:0:
374,355,48223,6,0,P|424:315|411:222,1,160,8|8,0:0|0:0,0:0:0:0:
353,175,49206,1,2,0:0:0:0:
277,202,49534,2,0,P|217:215|158:273,2,120,8|2|8,0:0|0:0|0:0,0:0:0:0:
356,198,50849,6,0,L|440:198,1,80,4|0,0:0|0:0,0:0:0:0:
453,276,51504,2,0,L|373:276,1,80,0|2,0:0|0:0,0:0:0:0:
303,315,52160,2,0,P|221:337|166:285,1,160
243,261,53144,1,0,0:0:0:0:
207,189,53471,6,0,L|252:107,1,80,2|0,0:0|0:0,0:0:0:0:
316,157,54127,2,0,L|361:75,1,80
419,39,54780,2,0,B|446:68|434:103|434:103|404:163,2,120,2|2|8,0:0|0:0|0:0,0:0:0:0:
345,8,56091,5,2,0:0:0:0:
294,69,56419,2,0,P|221:97|147:71,1,160,8|8,0:0|0:0,0:0:0:0:
117,146,57402,1,2,0:0:0:0:
152,217,57730,2,0,P|225:191|298:220,1,160,8|8,0:0|0:0,0:0:0:0:
366,177,58714,6,0,P|373:265|301:304,1,160,4|2,0:0|0:0,0:0:0:0:
240,304,59698,1,8,0:0:0:0:
180,252,60025,2,0,B|187:209|170:174|170:174|210:168|237:122,1,160,4|2,0:0|0:0,0:0:0:0:
334,252,61337,6,0,P|324:292|334:336,1,80,6|8,0:0|0:0,0:0:0:0:
397,375,61993,1,2,0:0:0:0:
461,328,62320,1,8,0:0:0:0:
433,252,62648,2,0,P|484:180|448:109,1,160,2|2,0:0|0:0,0:0:0:0:
403,175,63632,1,8,0:0:0:0:
339,223,63960,6,0,L|358:318,2,80,2|8|0,0:0|0:0|0:0,0:0:0:0:
262,199,64943,1,8,0:0:0:0:
232,274,65271,2,0,P|181:206|217:133,1,160,0|2,0:0|0:0,0:0:0:0:
267,92,66255,1,8,0:0:0:0:
321,150,66583,6,0,P|372:154|400:144,1,80,6|8,0:0|0:0,0:0:0:0:
468,183,67239,2,0,L|454:280,1,80,2|8,0:0|0:0,0:0:0:0:
403,322,67894,2,0,P|341:275|266:295,1,160,2|2,0:0|0:0,0:0:0:0:
203,250,68878,1,8,0:0:0:0:
184,173,69206,6,0,P|150:190|126:230,1,80,2|8,0:0|0:0,0:0:0:0:
87,294,69861,2,0,P|49:306|11:295,1,80,2|8,0:0|0:0,0:0:0:0:
26,216,70517,2,0,L|42:135,1,80,2|8,0:0|0:0,0:0:0:0:
111,95,71173,1,2,0:0:0:0:
177,49,71501,1,8,0:0:0:0:
256,64,71829,6,0,L|356:56,1,80,6|8,0:0|0:0,0:0:0:0:
320,136,72484,2,0,L|420:128,1,80,2|8,0:0|0:0,0:0:0:0:
384,208,73140,2,0,P|323:231|236:182,1,160,2|2,0:0|0:0,0:0:0:0:
182,139,74124,1,8,0:0:0:0:
217,67,74452,6,0,P|119:87|102:142,1,160,2|2,0:0|0:0,0:0:0:0:
38,184,75435,1,8,0:0:0:0:
99,234,75763,2,0,L|160:295,1,80,2|8,0:0|0:0,0:0:0:0:
144,372,76419,2,0,P|196:364|224:338,1,80,2|8,0:0|0:0,0:0:0:0:
252,276,77075,5,4,0:0:0:0:
326,245,77402,2,8,L|376:306,2,80,8|2|8,0:0|0:0|0:0,0:0:0:0:
344,166,78386,2,0,P|305:166|268:190,1,80,2|8,0:0|0:0,0:0:0:0:
195,215,79042,2,0,P|155:218|120:201,1,80,2|8,0:0|0:0,0:0:0:0:
39,203,79698,6,0,P|82:131|158:131,1,160,2|2,0:0|0:0,0:0:0:0:
212,75,80681,1,8,0:0:0:0:
285,105,81009,2,0,L|294:201,1,80,2|8,0:0|0:0,0:0:0:0:
362,223,81665,2,0,L|371:319,1,80,2|8,0:0|0:0,0:0:0:0:
302,347,82320,6,0,P|250:291|154:308,1,160,4|2,0:0|0:0,0:0:0:0:
135,224,83304,1,8,0:0:0:0:
59,250,83632,2,0,P|94:155|153:147,1,160,4|2,0:0|0:0,0:0:0:0:
213,107,84616,1,8,0:0:0:0:
282,146,84943,6,0,B|332:143|378:197|437:189,1,160,2|2,0:0|0:0,0:0:0:0:
281,237,86255,2,0,B|241:253|201:233|201:233|192:284|147:306,1,160,2|2,0:0|0:0,0:0:0:0:
256,192,87566,12,0,90189,0:0:0:0:
