osu file format v14

[General]
AudioFilename: audio.mp3
AudioLeadIn: 0
PreviewTime: 61188
Countdown: 0
SampleSet: Soft
StackLeniency: 0.4
Mode: 0
LetterboxInBreaks: 1
WidescreenStoryboard: 1

[Editor]
DistanceSpacing: 1
BeatDivisor: 4
GridSize: 4
TimelineZoom: 8

[Metadata]
Title:W:Wonder Tale (TV Size)
TitleUnicode:W:Wonder Tale (TV Size)
Artist:Tamura Yukari
ArtistUnicode:田村ゆかり
Creator:StaroaX
Version:Our Wonderful Story
Source:Ore no Kanojo to Osananajimi ga Shuraba Sugiru
Tags:oreshura ending ed 俺の彼女と幼なじみが修羅場すぎる 俺修羅 アニメ A-1 Pictures
BeatmapID:1634602
BeatmapSetID:778250

[Difficulty]
HPDrainRate:6.6
CircleSize:4.3
OverallDifficulty:8
ApproachRate:9.3
SliderMultiplier:1.66
SliderTickRate:2

[Events]
//Background and Video events
0,0,"umithanks.png",0,0
Video,1304,"video.avi"
//Break Periods
//Storyboard Layer 0 (Background)
//Storyboard Layer 1 (Fail)
//Storyboard Layer 2 (Pass)
//Storyboard Layer 3 (Foreground)
//Storyboard Sound Samples

[TimingPoints]
2620,379.746835443038,4,2,1,50,1,0
5278,-200,4,2,1,50,0,0
5657,-133.333333333333,4,2,1,50,0,0
6417,-200,4,2,1,50,0,0
7176,-100,4,2,1,50,0,0
9550,327.868852459016,4,2,1,55,1,0
10205,327.868852459016,4,2,1,55,1,0
10205,-117.647058823529,4,2,1,55,0,0
11188,-100,4,2,1,55,0,0
12827,-117.647058823529,4,2,1,55,0,0
13811,-100,4,2,1,55,0,0
15450,-117.647058823529,4,2,1,55,0,0
16434,-100,4,2,1,55,0,0
19221,-100,4,2,1,5,0,0
19385,-100,4,2,1,55,0,0
25286,-100,4,2,1,55,0,0
28565,-200,4,2,2,55,0,0
29877,-90.9090909090909,4,2,2,55,0,0
40368,-117.647058823529,4,2,1,55,0,0
47254,-111.111111111111,4,2,1,55,0,0
50860,-100,4,2,1,55,0,0
58729,-90.9090909090909,4,2,1,55,0,0
61352,-80,4,2,1,80,0,1
70532,-111.111111111111,4,2,1,85,0,0
71844,-80,4,2,1,80,0,1
81024,-111.111111111111,4,2,1,85,0,0
82336,-76.9230769230769,4,2,1,80,0,1
82991,-100,4,2,1,80,0,1
83647,-76.9230769230769,4,2,1,80,0,1
84303,-100,4,2,1,80,0,1
84959,-76.9230769230769,4,2,1,80,0,1
85614,-100,4,2,1,80,0,1
86270,-76.9230769230769,4,2,1,80,0,1
86926,-74.0740740740741,4,2,1,80,0,1
87582,-153.846153846154,4,2,1,50,0,0
90204,-153.846153846154,4,2,1,5,0,0

[Colours]
Combo1 : 255,166,77
Combo2 : 255,255,255
Combo3 : 166,166,255
Combo4 : 255,166,210

[HitObjects]
392,280,2620,6,0,L|473:301,1,83,0|0,0:0|0:0,0:0:0:0:
336,192,2999,2,0,L|254:170,1,83,0|0,0:0|0:0,0:0:0:0:
428,60,3379,2,0,P|452:96|456:136,1,83,0|0,0:0|0:0,0:0:0:0:
349,113,3759,2,0,P|351:156|335:192,1,83,0|0,0:0|0:0,0:0:0:0:
248,128,4138,6,0,P|228:166|196:190,1,83,2|0,0:0|0:0,0:0:0:0:
56,168,4518,2,0,P|75:129|107:105,1,83,2|0,0:0|0:0,0:0:0:0:
248,128,4898,2,0,P|228:166|196:190,1,83,2|0,0:0|0:0,0:0:0:0:
56,168,5278,2,0,P|60:152|80:124,1,41.5,2|0,0:0|0:0,0:0:0:0:
104,108,5657,6,0,L|256:128,1,124.500004749298,0|0,0:0|0:0,0:0:0:0:
344,140,6227,1,0,0:0:0:0:
412,256,6417,2,0,L|329:255,1,83,0|0,0:0|0:0,0:0:0:0:
180,256,7176,2,0,B|104:286|89:376|89:376|255:286|420:376|420:376|405:286|330:256,1,664
44,152,9550,6,0,L|27:106,3,41.5,0|0|0|0,0:0|0:0|0:0|0:0,0:0:0:0:
68,184,9877,1,0,0:0:0:0:
104,204,9959,1,0,0:0:0:0:
144,212,10041,1,0,0:0:0:0:
184,204,10123,1,0,0:0:0:0:
207,185,10205,6,0,L|182:43,2,141.100002691269,4|0|0,0:0|0:0|0:0,0:0:0:0:
232,326,11024,1,8,0:0:0:0:
384,232,11188,2,0,L|301:246,1,83,8|0,0:0|0:0,0:0:0:0:
60,280,11516,5,0,0:0:0:0:
60,280,11680,1,0,0:0:0:0:
60,280,11844,2,8,L|142:265,1,83,0|0,0:0|0:0,0:0:0:0:
424,216,12172,1,0,0:0:0:0:
207,185,12336,1,8,0:0:0:0:
328,368,12500,1,8,0:0:0:0:
371,64,12664,1,0,0:0:0:0:
371,64,12745,1,0,0:0:0:0:
371,64,12827,6,0,P|326:112|268:82,2,141.100002691269,4|0|0,0:0|0:0|0:0,0:0:0:0:
236,0,13647,1,8,0:0:0:0:
252,168,13811,2,0,B|292:192|340:184,1,83,8|0,0:0|0:0,0:0:0:0:
456,172,14139,5,0,0:0:0:0:
295,303,14303,1,0,0:0:0:0:
364,0,14467,1,0,0:0:0:0:
196,120,14631,1,8,0:0:0:0:
196,120,14713,1,8,0:0:0:0:
196,120,14795,2,0,B|176:132|152:128,1,41.5,8|0,0:0|0:0,0:0:0:0:
8,160,14959,2,0,B|28:172|52:168,1,41.5,8|0,0:0|0:0,0:0:0:0:
215,225,15123,2,0,B|195:237|171:233,1,41.5,8|0,0:0|0:0,0:0:0:0:
27,265,15287,2,0,B|47:277|71:273,1,41.5,8|0,0:0|0:0,0:0:0:0:
202,334,15450,6,0,L|345:346,2,141.100002691269,4|0|0,0:0|0:0|0:0,0:0:0:0:
27,265,16270,1,8,0:0:0:0:
360,260,16434,2,0,P|400:276|424:308,1,83,8|0,0:0|0:0,0:0:0:0:
215,225,16762,6,0,P|175:209|151:177,1,83,0|0,0:0|0:0,0:0:0:0:
36,344,17090,2,0,P|76:328|100:296,1,83,0|0,0:0|0:0,0:0:0:0:
237,86,17418,6,2,P|216:83|196:84,3,41.5
76,44,17745,2,2,P|96:46|117:46,3,41.5,2|2|2|2,0:0|0:0|0:0|0:0,0:0:0:0:
256,192,18073,12,0,19221,0:0:0:0:
416,240,19385,5,2,0:0:0:0:
416,240,19713,6,0,P|376:256|336:252,1,83
200,172,20041,2,0,P|240:156|280:160,1,83
416,240,20368,1,0,0:0:0:0:
196,348,20532,6,0,P|156:364|116:360,1,83
124,260,20860,2,0,P|81:253|48:230,1,83
92,140,21188,2,0,P|58:113|41:76,1,83
164,48,21516,2,0,P|197:74|214:111,1,83
232,236,21844,1,0,0:0:0:0:
460,136,22008,6,0,P|420:200|357:154,1,166,2|0,0:0|0:0,0:0:0:0:
344,47,22500,1,0,0:0:0:0:
421,201,22664,1,0,0:0:0:0:
321,107,22827,1,0,0:0:0:0:
421,201,22991,1,0,0:0:0:0:
326,160,23155,1,0,0:0:0:0:
436,136,23319,5,0,0:0:0:0:
396,232,23483,1,0,0:0:0:0:
436,136,23647,1,0,0:0:0:0:
431,271,23811,1,0,0:0:0:0:
436,136,23974,1,0,0:0:0:0:
488,298,24138,1,0,0:0:0:0:
331,221,24303,1,0,0:0:0:0:
318,56,24467,1,0,0:0:0:0:
318,56,24549,1,0,0:0:0:0:
318,56,24631,6,0,P|398:67|436:136,1,166,2|0,0:0|0:0,0:0:0:0:
432,328,25123,1,0,0:0:0:0:
236,248,25286,2,0,P|268:220|312:216,1,83
434,247,25614,1,0,0:0:0:0:
126,123,25778,2,0,P|86:128|56:156,1,83
112,376,26106,2,0,P|152:370|182:343,1,83
320,160,26434,1,0,0:0:0:0:
320,160,26598,1,0,0:0:0:0:
424,332,26762,5,0,0:0:0:0:
125,225,26926,1,0,0:0:0:0:
280,80,27090,1,0,0:0:0:0:
280,80,27172,1,0,0:0:0:0:
280,80,27254,6,0,B|324:92|360:68|360:68|396:96|392:144,1,166,2|0,0:0|0:0,0:0:0:0:
348,300,27745,1,0,0:0:0:0:
125,225,27909,2,0,P|157:197|201:193,1,83
484,252,28237,1,0,0:0:0:0:
240,360,28401,1,0,0:0:0:0:
240,360,28483,1,0,0:0:0:0:
240,360,28565,6,0,B|196:348|160:372|160:372|124:344|128:296,1,166,2|0,0:0|0:0,0:0:0:0:
148,168,29385,1,2,0:0:0:0:
468,284,29549,1,2,0:0:0:0:
240,12,29877,6,2,P|152:-4|76:48,1,182.60000557251
16,212,30368,1,0,0:0:0:0:
16,212,30532,2,0,L|8:308,1,91.300002786255
136,212,30860,1,0,0:0:0:0:
136,212,31024,2,2,L|144:116,1,91.300002786255,0|0,0:0|0:0,0:0:0:0:
264,220,31352,2,2,L|256:316,1,91.300002786255
380,208,31680,2,2,L|388:112,1,91.300002786255
489,242,32008,2,2,L|481:338,1,91.300002786255
472,160,32336,6,2,P|394:114|305:137,1,182.60000557251
132,300,32827,1,0,0:0:0:0:
220,216,32991,2,0,P|180:196|132:188,1,91.300002786255
248,332,33319,2,0,P|288:352|336:360,1,91.300002786255
288,164,33647,1,0,0:0:0:0:
288,164,33811,2,2,P|207:123|110:107,1,182.60000557251
20,116,34303,1,0,0:0:0:0:
96,312,34467,1,0,0:0:0:0:
0,228,34631,1,0,0:0:0:0:
320,103,34795,1,0,0:0:0:0:
262,294,34959,1,0,0:0:0:0:
262,294,35041,1,0,0:0:0:0:
262,294,35123,6,2,P|221:213|205:116,1,182.60000557251
224,28,35614,2,2,P|272:20|316:32,1,91.300002786255
412,180,35942,2,2,P|364:188|320:176,1,91.300002786255
372,100,36270,2,2,P|415:30|483:80,1,182.60000557251
448,276,36762,2,0,P|410:306|366:318,1,91.300002786255
200,280,37090,2,0,P|237:249|281:237,1,91.300002786255
448,276,37418,1,0,0:0:0:0:
288,344,37582,1,0,0:0:0:0:
288,344,37664,1,0,0:0:0:0:
288,344,37745,5,2,0:0:0:0:
116,216,37909,1,0,0:0:0:0:
248,164,38073,1,2,0:0:0:0:
120,336,38237,1,2,0:0:0:0:
88,96,38401,1,0,0:0:0:0:
152,24,38565,1,0,0:0:0:0:
192,116,38729,1,0,0:0:0:0:
128,188,38893,1,0,0:0:0:0:
120,336,39057,5,2,0:0:0:0:
260,268,39221,1,2,0:0:0:0:
292,268,39549,5,2,0:0:0:0:
400,176,39877,5,2,0:0:0:0:
400,340,40041,1,2,0:0:0:0:
172,184,40204,5,0,0:0:0:0:
172,184,40286,1,0,0:0:0:0:
172,184,40368,6,2,P|240:192|296:144,1,141.100002691269
212,100,40860,1,0,0:0:0:0:
116,124,41024,2,0,P|96:156|92:188,1,70.5500013456345,2|0,0:0|0:0,0:0:0:0:
184,336,41352,5,0,0:0:0:0:
184,336,41516,2,0,P|204:304|208:272,1,70.5500013456345,2|0,0:0|0:0,0:0:0:0:
204,236,41844,1,0,0:0:0:0:
204,236,42008,2,0,L|276:244,1,70.5500013456345,2|0,0:0|0:0,0:0:0:0:
428,180,42336,2,0,L|356:172,1,70.5500013456345,2|0,0:0|0:0,0:0:0:0:
228,68,42664,2,0,L|300:76,1,70.5500013456345,2|0,0:0|0:0,0:0:0:0:
236,160,42991,6,0,P|169:144|133:80,1,141.100002691269,2|0,0:0|0:0,0:0:0:0:
120,12,43483,1,0,0:0:0:0:
304,144,43647,2,0,L|232:160,1,70.5500013456345,2|0,0:0|0:0,0:0:0:0:
92,292,43975,5,0,0:0:0:0:
92,292,44139,2,2,L|164:276,2,70.5500013456345
0,312,44631,1,8,0:0:0:0:
40,184,44795,1,8,0:0:0:0:
196,268,44959,1,8,0:0:0:0:
0,312,45123,1,8,0:0:0:0:
207,128,45287,1,8,0:0:0:0:
152,344,45450,1,8,0:0:0:0:
152,344,45532,1,8,0:0:0:0:
152,344,45614,6,0,P|110:288|124:216,1,141.100002691269,4|0,0:0|0:0,0:0:0:0:
188,128,46106,1,0,0:0:0:0:
207,128,46270,2,0,L|283:128,1,70.5500013456345,2|0,0:0|0:0,0:0:0:0:
408,232,46598,1,0,0:0:0:0:
389,232,46762,2,0,L|313:232,1,70.5500013456345,2|0,0:0|0:0,0:0:0:0:
212,232,47090,1,0,0:0:0:0:
284,44,47254,6,0,P|324:52|352:76,1,74.699997720337,2|0,0:0|0:0,0:0:0:0:
284,128,47582,2,2,L|128:128,1,149.399995440674
36,128,48073,1,0,0:0:0:0:
35,274,48237,6,2,B|55:211|14:190|35:128,1,149.399995440674
112,44,48729,1,0,0:0:0:0:
212,232,48893,2,0,P|188:260|152:272,1,74.699997720337,2|0,0:0|0:0,0:0:0:0:
132,180,49221,2,0,P|156:152|192:140,1,74.699997720337,2|0,0:0|0:0,0:0:0:0:
252,36,49549,5,0,0:0:0:0:
252,36,49713,2,0,P|280:60|292:96,1,74.699997720337,2|0,0:0|0:0,0:0:0:0:
372,244,50041,2,0,P|344:220|332:184,1,74.699997720337,8|8,0:0|0:0,0:0:0:0:
368,40,50368,1,8,0:0:0:0:
512,0,50532,1,8,0:0:0:0:
464,284,50696,1,8,0:0:0:0:
464,284,50778,1,8,0:0:0:0:
464,284,50860,6,0,B|487:214|440:191|464:121,1,166,4|0,0:0|0:0,0:0:0:0:
496,52,51352,2,2,L|536:40,2,41.5
376,100,51680,2,2,L|336:88,2,41.5
112,144,52008,6,2,L|134:109,2,41.5
216,176,52336,2,2,L|253:157,2,41.5
304,240,52664,2,2,L|345:242,2,41.5
360,332,52991,5,0,0:0:0:0:
172,280,53155,1,0,0:0:0:0:
252,364,53319,1,0,0:0:0:0:
220,212,53483,2,0,P|180:200|140:204,1,83,2|0,0:0|0:0,0:0:0:0:
108,220,53729,1,0,0:0:0:0:
80,240,53811,2,0,P|55:273|45:312,1,83,2|0,0:0|0:0,0:0:0:0:
256,308,54139,2,0,P|290:285|313:251,1,83,2|0,0:0|0:0,0:0:0:0:
321,217,54385,1,0,0:0:0:0:
324,182,54467,2,0,P|314:141|290:108,1,83,2|0,0:0|0:0,0:0:0:0:
168,36,54795,5,8,0:0:0:0:
444,112,54959,1,8,0:0:0:0:
284,0,55123,1,8,0:0:0:0:
208,272,55286,6,4,L|220:228,1,41.5
88,232,55450,6,4,L|76:188,1,41.5
248,144,55614,6,4,L|260:100,1,41.5
48,104,55778,6,4,L|24:16,1,83
155,188,56106,6,0,P|127:216|87:232,1,83,4|0,0:0|0:0,0:0:0:0:
4,240,56434,1,0,0:0:0:0:
48,104,56598,2,0,P|76:76|116:60,1,83
248,144,56926,5,0,0:0:0:0:
247,143,57090,2,0,P|285:158|314:186,2,83
168,152,57582,1,0,0:0:0:0:
368,44,57745,1,0,0:0:0:0:
368,272,57909,1,0,0:0:0:0:
256,63,58073,1,0,0:0:0:0:
406,144,58237,1,0,0:0:0:0:
256,234,58400,1,0,0:0:0:0:
308,148,58565,1,0,0:0:0:0:
308,148,58647,1,0,0:0:0:0:
308,148,58729,6,0,P|260:160|216:156,1,91.300002786255,4|0,0:0|0:0,0:0:0:0:
16,216,59057,2,0,P|64:228|108:224,1,91.300002786255
308,284,59385,2,0,P|260:296|216:292,1,91.300002786255,4|0,0:0|0:0,0:0:0:0:
16,352,59713,2,0,P|64:364|108:360,1,91.300002786255
308,284,60041,5,4,0:0:0:0:
72,124,60204,2,4,L|51:80,2,45.6500013931275
72,260,60532,1,4,0:0:0:0:
176,48,60696,1,8,0:0:0:0:
213,37,60777,1,8,0:0:0:0:
252,37,60859,1,8,0:0:0:0:
290,45,60941,1,8,0:0:0:0:
328,55,61023,1,8,0:0:0:0:
366,64,61105,1,8,0:0:0:0:
405,67,61187,1,8,0:0:0:0:
443,58,61269,1,8,0:0:0:0:
476,36,61352,6,0,P|488:88|476:136,1,103.75,4|0,0:0|0:0,0:0:0:0:
284,300,61680,2,0,P|272:248|284:200,1,103.75
476,248,62008,2,0,P|424:260|376:248,1,103.75
212,56,62336,2,0,P|264:44|312:56,1,103.75
144,328,62664,6,0,P|120:228|144:126,1,207.5,4|0,0:0|0:0,0:0:0:0:
208,60,63155,1,0,0:0:0:0:
380,240,63319,2,0,L|276:256,1,103.75
40,143,63647,2,0,L|144:127,1,103.75
412,92,63975,5,12,0:0:0:0:
412,92,64139,1,0,0:0:0:0:
144,328,64303,1,8,0:0:0:0:
144,328,64467,1,0,0:0:0:0:
176,140,64631,1,8,0:0:0:0:
499,193,64795,1,0,0:0:0:0:
296,320,64959,1,8,0:0:0:0:
367,0,65123,1,0,0:0:0:0:
76,152,65286,6,0,P|84:100|116:60,1,103.75,12|0,0:0|0:0,0:0:0:0:
192,16,65614,1,0,0:0:0:0:
312,260,65778,6,4,P|290:275|265:278,1,51.875
56,216,65942,6,4,P|81:223|106:217,1,51.875
288,96,66106,6,4,P|268:112|241:114,1,51.875
28,64,66270,6,4,P|53:71|78:65,1,51.875
264,32,66434,2,4,P|289:25|314:31,1,51.875
452,248,66598,6,0,P|392:316|311:258,1,207.5,4|0,0:0|0:0,0:0:0:0:
288,96,67090,1,0,0:0:0:0:
452,248,67254,2,0,P|429:298|386:317,1,103.75
56,216,67582,2,0,P|79:166|122:147,1,103.75
291,203,67909,6,0,L|135:227,1,155.625,4|0,0:0|0:0,0:0:0:0:
180,296,68237,2,0,L|284:312,1,103.75
392,184,68565,2,0,P|348:120|272:104,1,155.625
212,92,68893,2,0,P|289:99|350:51,1,155.625
376,8,69221,5,12,0:0:0:0:
376,8,69385,1,0,0:0:0:0:
140,368,69549,1,8,0:0:0:0:
140,368,69713,1,0,0:0:0:0:
328,344,69877,1,8,0:0:0:0:
155,63,70041,1,0,0:0:0:0:
156,268,70204,1,8,0:0:0:0:
435,96,70368,1,0,0:0:0:0:
124,156,70532,6,12,P|84:152|56:132,1,74.699997720337
280,24,70860,2,0,L|272:60,1,37.3499988601685
208,352,71024,1,0,0:0:0:0:
388,228,71188,2,12,P|428:224|456:204,1,74.699997720337
60,128,71516,2,0,L|92:145,1,37.3499988601685
432,316,71680,2,0,L|468:303,2,24.8999992401123
384,332,71844,6,0,P|328:326|290:298,1,103.75,4|0,0:0|0:0,0:0:0:0:
212,72,72172,2,0,P|267:77|305:105,1,103.75
196,264,72500,2,0,P|201:208|229:170,1,103.75
456,92,72828,2,0,P|450:147|422:185,1,103.75
112,288,73155,6,0,P|122:178|177:101,1,207.5,4|0,0:0|0:0,0:0:0:0:
266,70,73647,1,0,0:0:0:0:
36,152,73811,2,0,L|24:48,1,103.75
252,236,74139,2,0,L|264:340,1,103.75
228,12,74467,5,12,0:0:0:0:
228,12,74631,1,0,0:0:0:0:
440,332,74795,1,8,0:0:0:0:
440,332,74959,1,0,0:0:0:0:
36,152,75123,1,8,0:0:0:0:
362,152,75286,1,0,0:0:0:0:
263,339,75450,1,8,0:0:0:0:
159,51,75614,1,0,0:0:0:0:
472,236,75778,6,0,P|464:288|439:332,1,103.75,12|0,0:0|0:0,0:0:0:0:
396,384,76106,1,0,0:0:0:0:
59,223,76270,6,4,P|55:197|60:172,1,51.875
300,160,76434,6,4,P|284:180|263:195,1,51.875
59,274,76598,6,4,P|55:248|59:222,1,51.875
262,195,76762,6,4,L|203:212,1,51.875
68,348,76926,2,4,L|127:331,1,51.875
376,256,77090,6,0,P|392:160|324:80,1,207.5,4|0,0:0|0:0,0:0:0:0:
128,24,77582,1,0,0:0:0:0:
273,298,77745,2,0,L|261:194,1,103.75
0,116,78073,2,0,L|12:220,1,103.75
120,360,78401,6,0,P|107:287|159:226,1,155.625,4|0,0:0|0:0,0:0:0:0:
157,227,78729,2,0,P|198:202|207:150,1,103.75
392,360,79057,2,0,P|404:287|352:226,1,155.625
355,227,79385,2,0,P|313:202|304:150,1,103.75
340,32,79713,5,12,0:0:0:0:
340,32,79877,1,0,0:0:0:0:
200,312,80041,1,8,0:0:0:0:
200,312,80204,1,0,0:0:0:0:
184,0,80368,1,8,0:0:0:0:
476,148,80532,1,0,0:0:0:0:
183,342,80696,1,8,0:0:0:0:
356,0,80860,1,0,0:0:0:0:
448,301,81024,6,12,P|408:297|380:277,1,74.699997720337
140,24,81352,2,0,L|132:60,1,37.3499988601685
68,352,81516,1,0,0:0:0:0:
64,83,81680,2,12,P|104:79|132:59,1,74.699997720337
240,0,82008,2,0,L|223:32,1,37.3499988601685
68,352,82172,2,0,L|55:388,2,24.8999992401123
84,316,82336,6,0,P|172:260|273:291,1,215.79999012146,4|0,0:0|0:0,0:0:0:0:
336,364,82827,1,0,0:0:0:0:
164,96,82991,2,0,L|80:80,1,83
188,368,83319,2,0,L|272:384,1,83
272,290,83647,6,0,P|184:234|83:265,1,215.79999012146,4|0,0:0|0:0,0:0:0:0:
32,348,84139,1,0,0:0:0:0:
80,112,84303,1,0,0:0:0:0:
288,216,84467,1,0,0:0:0:0:
84,256,84631,1,0,0:0:0:0:
188,48,84795,1,0,0:0:0:0:
188,48,84877,1,0,0:0:0:0:
188,48,84959,6,0,P|276:104|377:73,1,215.79999012146,4|0,0:0|0:0,0:0:0:0:
428,16,85450,1,0,0:0:0:0:
192,284,85614,1,0,0:0:0:0:
192,284,85778,1,0,0:0:0:0:
504,120,85942,1,0,0:0:0:0:
504,120,86106,1,0,0:0:0:0:
220,136,86270,6,4,P|224:160|240:184,1,53.9499975303651
372,244,86434,2,4,P|368:220|352:196,1,53.9499975303651
216,64,86598,2,4,P|192:68|168:84,1,53.9499975303651
140,132,86762,1,8,0:0:0:0:
152,180,86843,1,8,0:0:0:0:
152,232,86925,1,8,0:0:0:0:
136,284,87007,1,8,0:0:0:0:
111,339,87089,1,8,0:0:0:0:
64,376,87171,1,8,0:0:0:0:
4,384,87253,5,0,0:0:0:0:
4,344,87335,5,0,0:0:0:0:
13,305,87417,5,0,0:0:0:0:
30,268,87499,5,0,0:0:0:0:
50,233,87581,5,2,0:0:0:0:
256,192,87745,12,0,90204,0:0:0:0:
