osu file format v14

[General]
AudioFilename: audio.mp3
AudioLeadIn: 0
PreviewTime: 61173
Countdown: 0
SampleSet: Soft
StackLeniency: 0.7
Mode: 3
LetterboxInBreaks: 0
SpecialStyle: 0
WidescreenStoryboard: 1

[Editor]
DistanceSpacing: 1.2
BeatDivisor: 4
GridSize: 4
TimelineZoom: 1

[Metadata]
Title:W:Wonder Tale (TV Size)
TitleUnicode:W:Wonder Tale (TV Size)
Artist:Tamura Yukari
ArtistUnicode:田村ゆかり
Creator:Savageeeee
Version:Love Story
Source:俺の彼女と幼なじみが修羅場すぎる
Tags:japanese Ore no Kanojo to Osananajimi ga Shuraba Sugiru oreshura ending ed pop jpop j-pop anime natsukawa masuzu 夏川真涼 King Records KICM-1435
BeatmapID:3878805
BeatmapSetID:1883928

[Difficulty]
HPDrainRate:8
CircleSize:4
OverallDifficulty:8
ApproachRate:5
SliderMultiplier:1.4
SliderTickRate:1

[Events]
//Background and Video events
0,0,"wp5409688.jpg",0,0
Video,1994,"ending.mp4"
//Break Periods
//Storyboard Layer 0 (Background)
//Storyboard Layer 1 (Fail)
//Storyboard Layer 2 (Pass)
//Storyboard Layer 3 (Foreground)
//Storyboard Layer 4 (Overlay)
//Storyboard Sound Samples

[TimingPoints]
2604,379.746835443038,4,2,1,30,1,0
9535,327.868852459016,4,2,1,30,1,0
10190,327.868852459016,4,2,1,30,1,0
61337,-100,4,2,1,30,0,1
82321,-100,4,2,1,30,0,0

[HitObjects]
448,192,2509,5,0,0:0:0:0:
320,192,2556,1,0,0:0:0:0:
192,192,2604,1,0,0:0:0:0:
64,192,2793,1,0,0:0:0:0:
192,192,2983,1,0,0:0:0:0:
448,192,3173,1,0,0:0:0:0:
320,192,3553,1,0,0:0:0:0:
64,192,3933,1,0,0:0:0:0:
192,192,4122,1,0,0:0:0:0:
448,192,4122,128,0,4502:0:0:0:0:
64,192,4502,1,0,0:0:0:0:
320,192,4502,128,0,4882:0:0:0:0:
192,192,4882,128,0,5262:0:0:0:0:
448,192,4882,1,0,0:0:0:0:
64,192,5262,128,0,5641:0:0:0:0:
320,192,5262,1,0,0:0:0:0:
448,192,5547,1,0,0:0:0:0:
320,192,5594,1,0,0:0:0:0:
192,192,5641,1,0,0:0:0:0:
448,192,5831,1,0,0:0:0:0:
320,192,6021,1,0,0:0:0:0:
192,192,6211,1,0,0:0:0:0:
320,192,6401,1,0,0:0:0:0:
448,192,6401,1,0,0:0:0:0:
64,192,6591,1,0,0:0:0:0:
192,192,6781,1,0,0:0:0:0:
320,192,6971,1,0,0:0:0:0:
64,192,7160,1,0,0:0:0:0:
192,192,7160,1,0,0:0:0:0:
448,192,7350,1,0,0:0:0:0:
192,192,7540,1,0,0:0:0:0:
320,192,7730,1,0,0:0:0:0:
64,192,7920,1,0,0:0:0:0:
448,192,8110,1,0,0:0:0:0:
320,192,8300,1,0,0:0:0:0:
192,192,8490,1,0,0:0:0:0:
64,192,8679,1,0,0:0:0:0:
448,192,8679,1,0,0:0:0:0:
64,192,9535,1,0,0:0:0:0:
192,192,9535,1,0,0:0:0:0:
320,192,9616,1,8,0:0:0:0:
448,192,9616,1,0,0:0:0:0:
64,192,9698,1,8,0:0:0:0:
192,192,9698,1,0,0:0:0:0:
320,192,9780,1,8,0:0:0:0:
448,192,9780,1,0,0:0:0:0:
64,192,9862,1,8,0:0:0:0:
192,192,9862,1,0,0:0:0:0:
320,192,9944,1,8,0:0:0:0:
448,192,9944,1,0,0:0:0:0:
64,192,10026,1,8,0:0:0:0:
192,192,10026,1,0,0:0:0:0:
320,192,10108,1,8,0:0:0:0:
64,192,10190,128,2,11501:0:0:0:0:
192,192,10190,1,4,0:0:0:0:
448,192,10190,1,0,0:0:0:0:
192,192,10517,1,8,0:0:0:0:
320,192,10517,1,4,0:0:0:0:
448,192,10681,1,0,0:0:0:0:
192,192,10845,1,2,0:0:0:0:
320,192,10845,1,0,0:0:0:0:
320,192,11009,1,2,0:0:0:0:
448,192,11009,1,0,0:0:0:0:
192,192,11173,1,8,0:0:0:0:
448,192,11173,1,0,0:0:0:0:
320,192,11337,1,0,0:0:0:0:
192,192,11501,1,2,0:0:0:0:
448,192,11501,128,0,12812:0:0:0:0:
320,192,11665,1,0,0:0:0:0:
64,192,11829,1,8,0:0:0:0:
192,192,11829,1,0,0:0:0:0:
320,192,11993,1,0,0:0:0:0:
64,192,12157,1,2,0:0:0:0:
192,192,12157,1,0,0:0:0:0:
64,192,12321,1,2,0:0:0:0:
320,192,12321,1,0,0:0:0:0:
192,192,12485,1,8,0:0:0:0:
320,192,12485,1,0,0:0:0:0:
64,192,12649,1,0,0:0:0:0:
192,192,12812,128,2,14124:0:0:0:0:
320,192,12812,1,0,0:0:0:0:
448,192,12976,1,0,0:0:0:0:
64,192,13140,1,8,0:0:0:0:
320,192,13140,1,0,0:0:0:0:
448,192,13304,1,0,0:0:0:0:
64,192,13468,1,2,0:0:0:0:
320,192,13468,1,0,0:0:0:0:
320,192,13632,1,2,0:0:0:0:
448,192,13632,1,0,0:0:0:0:
64,192,13796,1,8,0:0:0:0:
448,192,13796,1,0,0:0:0:0:
320,192,13960,1,0,0:0:0:0:
64,192,14124,1,2,0:0:0:0:
448,192,14124,128,0,14288:0:0:0:0:
320,192,14288,128,0,14452:0:0:0:0:
64,192,14452,1,8,0:0:0:0:
192,192,14452,128,0,14616:0:0:0:0:
448,192,14616,128,0,14944:0:0:0:0:
64,192,14780,1,2,0:0:0:0:
192,192,14780,1,0,0:0:0:0:
64,192,14944,128,2,15108:0:0:0:0:
320,192,14944,1,0,0:0:0:0:
192,192,15108,1,8,0:0:0:0:
320,192,15108,128,4,15271:0:0:0:0:
448,192,15108,1,0,0:0:0:0:
192,192,15271,128,0,15435:0:0:0:0:
64,192,15435,1,2,0:0:0:0:
320,192,15435,1,4,0:0:0:0:
448,192,15435,128,0,16091:0:0:0:0:
64,192,15763,1,8,0:0:0:0:
192,192,15763,1,0,0:0:0:0:
320,192,15927,1,0,0:0:0:0:
64,192,16091,1,2,0:0:0:0:
192,192,16091,128,0,16747:0:0:0:0:
320,192,16255,1,2,0:0:0:0:
448,192,16255,1,0,0:0:0:0:
64,192,16419,1,8,0:0:0:0:
448,192,16419,1,0,0:0:0:0:
320,192,16583,1,0,0:0:0:0:
64,192,16747,128,2,17403:0:0:0:0:
448,192,16747,1,0,0:0:0:0:
192,192,16911,1,0,0:0:0:0:
320,192,17075,1,8,0:0:0:0:
448,192,17075,1,0,0:0:0:0:
192,192,17239,1,0,0:0:0:0:
320,192,17403,128,2,18058:0:0:0:0:
448,192,17403,1,0,0:0:0:0:
64,192,17567,1,2,0:0:0:0:
192,192,17567,1,0,0:0:0:0:
192,192,17730,1,8,0:0:0:0:
448,192,17730,1,0,0:0:0:0:
64,192,17894,1,0,0:0:0:0:
448,192,18058,1,0,0:0:0:0:
64,192,19370,1,2,0:0:0:0:
320,192,19370,1,4,0:0:0:0:
448,192,19370,1,0,0:0:0:0:
192,192,19698,1,2,0:0:0:0:
320,192,19698,1,0,0:0:0:0:
448,192,19862,1,0,0:0:0:0:
64,192,20026,1,2,0:0:0:0:
192,192,20026,128,0,20189:0:0:0:0:
320,192,20189,128,0,20353:0:0:0:0:
64,192,20353,1,2,0:0:0:0:
448,192,20353,128,0,20517:0:0:0:0:
192,192,20517,128,0,20845:0:0:0:0:
64,192,20681,1,2,0:0:0:0:
320,192,20681,1,0,0:0:0:0:
448,192,20845,128,0,21009:0:0:0:0:
64,192,21009,1,2,0:0:0:0:
192,192,21009,1,0,0:0:0:0:
320,192,21173,128,0,21337:0:0:0:0:
64,192,21337,1,2,0:0:0:0:
448,192,21337,1,0,0:0:0:0:
192,192,21501,128,0,21665:0:0:0:0:
64,192,21665,1,2,0:0:0:0:
320,192,21665,1,0,0:0:0:0:
448,192,21829,128,0,22649:0:0:0:0:
320,192,21911,1,0,0:0:0:0:
64,192,21993,1,2,0:0:0:0:
192,192,21993,1,0,0:0:0:0:
320,192,22157,1,0,0:0:0:0:
64,192,22321,1,2,0:0:0:0:
192,192,22321,1,0,0:0:0:0:
320,192,22485,1,0,0:0:0:0:
64,192,22649,1,2,0:0:0:0:
192,192,22649,1,0,0:0:0:0:
320,192,22812,128,0,22976:0:0:0:0:
192,192,22976,128,2,23140:0:0:0:0:
448,192,22976,1,0,0:0:0:0:
64,192,23140,128,0,23304:0:0:0:0:
320,192,23304,1,2,0:0:0:0:
448,192,23304,1,0,0:0:0:0:
192,192,23468,1,0,0:0:0:0:
64,192,23632,1,2,0:0:0:0:
320,192,23632,1,0,0:0:0:0:
448,192,23796,1,0,0:0:0:0:
64,192,23960,1,2,0:0:0:0:
192,192,23960,1,0,0:0:0:0:
320,192,24124,1,0,0:0:0:0:
192,192,24288,1,2,0:0:0:0:
448,192,24288,1,0,0:0:0:0:
64,192,24452,1,0,0:0:0:0:
192,192,24534,1,0,0:0:0:0:
320,192,24616,1,2,0:0:0:0:
448,192,24616,1,0,0:0:0:0:
64,192,24780,1,0,0:0:0:0:
192,192,24944,1,2,0:0:0:0:
320,192,24944,1,0,0:0:0:0:
448,192,25108,1,0,0:0:0:0:
64,192,25271,1,2,0:0:0:0:
320,192,25271,128,0,25435:0:0:0:0:
192,192,25435,128,0,25599:0:0:0:0:
64,192,25599,128,2,25763:0:0:0:0:
448,192,25599,1,0,0:0:0:0:
320,192,25763,128,0,26091:0:0:0:0:
192,192,25927,1,2,0:0:0:0:
448,192,25927,1,0,0:0:0:0:
64,192,26091,128,0,26255:0:0:0:0:
320,192,26255,1,2,0:0:0:0:
448,192,26255,1,0,0:0:0:0:
192,192,26419,1,0,0:0:0:0:
64,192,26583,1,2,0:0:0:0:
320,192,26583,1,0,0:0:0:0:
448,192,26747,128,0,26911:0:0:0:0:
192,192,26911,1,2,0:0:0:0:
320,192,26911,128,0,27075:0:0:0:0:
64,192,27075,128,0,27894:0:0:0:0:
192,192,27157,1,0,0:0:0:0:
320,192,27239,1,2,0:0:0:0:
448,192,27239,1,0,0:0:0:0:
192,192,27403,1,0,0:0:0:0:
320,192,27567,1,2,0:0:0:0:
448,192,27567,1,0,0:0:0:0:
192,192,27730,1,0,0:0:0:0:
320,192,27894,1,2,0:0:0:0:
448,192,27894,1,0,0:0:0:0:
192,192,28058,128,0,28222:0:0:0:0:
64,192,28222,128,2,28386:0:0:0:0:
448,192,28222,1,4,0:0:0:0:
320,192,28386,1,0,0:0:0:0:
192,192,28468,1,0,0:0:0:0:
64,192,28550,1,4,0:0:0:0:
320,192,28550,1,2,0:0:0:0:
448,192,28550,1,0,0:0:0:0:
192,192,29370,1,2,0:0:0:0:
448,192,29370,1,0,0:0:0:0:
64,192,29534,1,2,0:0:0:0:
320,192,29534,1,0,0:0:0:0:
64,192,29862,1,2,0:0:0:0:
192,192,29862,1,4,0:0:0:0:
448,192,29862,1,0,0:0:0:0:
192,192,30189,1,8,0:0:0:0:
320,192,30189,1,0,0:0:0:0:
64,192,30517,128,2,30681:0:0:0:0:
192,192,30517,1,0,0:0:0:0:
320,192,30681,128,2,30845:0:0:0:0:
448,192,30681,1,0,0:0:0:0:
64,192,30845,1,8,0:0:0:0:
192,192,30845,128,0,31009:0:0:0:0:
448,192,31009,128,0,31173:0:0:0:0:
64,192,31173,1,2,0:0:0:0:
192,192,31173,1,0,0:0:0:0:
320,192,31337,128,0,31665:0:0:0:0:
192,192,31501,1,8,0:0:0:0:
448,192,31501,1,0,0:0:0:0:
64,192,31665,128,0,31993:0:0:0:0:
192,192,31829,1,2,0:0:0:0:
320,192,31829,1,0,0:0:0:0:
192,192,31993,1,2,0:0:0:0:
448,192,31993,128,0,32321:0:0:0:0:
64,192,32157,1,8,0:0:0:0:
320,192,32157,1,0,0:0:0:0:
192,192,32321,128,0,32485:0:0:0:0:
320,192,32485,1,2,0:0:0:0:
448,192,32485,1,0,0:0:0:0:
64,192,32649,1,0,0:0:0:0:
192,192,32812,1,8,0:0:0:0:
320,192,32812,128,0,32976:0:0:0:0:
64,192,32976,128,0,33140:0:0:0:0:
320,192,33140,1,2,0:0:0:0:
448,192,33140,1,0,0:0:0:0:
64,192,33304,1,2,0:0:0:0:
192,192,33304,128,0,33468:0:0:0:0:
320,192,33468,1,8,0:0:0:0:
448,192,33468,1,0,0:0:0:0:
64,192,33632,128,0,33796:0:0:0:0:
192,192,33796,1,2,0:0:0:0:
448,192,33796,1,0,0:0:0:0:
320,192,33960,1,0,0:0:0:0:
64,192,34124,1,8,0:0:0:0:
192,192,34124,128,0,34288:0:0:0:0:
448,192,34288,128,0,34780:0:0:0:0:
64,192,34452,1,2,0:0:0:0:
320,192,34452,1,0,0:0:0:0:
192,192,34616,1,2,0:0:0:0:
320,192,34616,1,0,0:0:0:0:
64,192,34780,1,8,0:0:0:0:
192,192,34780,1,0,0:0:0:0:
320,192,34944,1,0,0:0:0:0:
192,192,35026,1,0,0:0:0:0:
64,192,35108,128,2,35435:0:0:0:0:
448,192,35108,1,0,0:0:0:0:
192,192,35271,1,0,0:0:0:0:
320,192,35435,128,8,35599:0:0:0:0:
448,192,35435,1,0,0:0:0:0:
192,192,35599,128,0,35927:0:0:0:0:
64,192,35763,1,2,0:0:0:0:
448,192,35763,1,0,0:0:0:0:
320,192,35927,1,2,0:0:0:0:
448,192,35927,128,0,36091:0:0:0:0:
64,192,36091,1,8,0:0:0:0:
192,192,36091,1,0,0:0:0:0:
320,192,36255,128,0,36419:0:0:0:0:
64,192,36419,128,2,36747:0:0:0:0:
448,192,36419,1,0,0:0:0:0:
192,192,36583,1,0,0:0:0:0:
320,192,36747,1,8,0:0:0:0:
448,192,36747,128,0,37075:0:0:0:0:
192,192,36911,1,0,0:0:0:0:
64,192,37075,1,2,0:0:0:0:
320,192,37075,128,0,37403:0:0:0:0:
64,192,37239,1,2,0:0:0:0:
192,192,37239,1,0,0:0:0:0:
192,192,37403,128,8,37730:0:0:0:0:
448,192,37403,1,0,0:0:0:0:
320,192,37567,1,0,0:0:0:0:
64,192,37730,1,2,0:0:0:0:
448,192,37730,128,0,38386:0:0:0:0:
320,192,37894,1,0,0:0:0:0:
64,192,38058,1,8,0:0:0:0:
192,192,38058,1,0,0:0:0:0:
320,192,38222,1,0,0:0:0:0:
64,192,38386,1,2,0:0:0:0:
192,192,38386,1,0,0:0:0:0:
192,192,38550,1,2,0:0:0:0:
320,192,38550,1,0,0:0:0:0:
64,192,38714,1,8,0:0:0:0:
320,192,38714,1,4,0:0:0:0:
448,192,38714,1,0,0:0:0:0:
64,192,38878,1,2,0:0:0:0:
192,192,38878,1,0,0:0:0:0:
192,192,39042,1,8,0:0:0:0:
448,192,39042,1,0,0:0:0:0:
320,192,39206,1,2,0:0:0:0:
448,192,39206,1,0,0:0:0:0:
192,192,39534,1,2,0:0:0:0:
320,192,39534,1,0,0:0:0:0:
64,192,39862,1,2,0:0:0:0:
192,192,39862,1,0,0:0:0:0:
320,192,40026,1,2,0:0:0:0:
448,192,40026,1,0,0:0:0:0:
192,192,40189,1,0,0:0:0:0:
320,192,40271,1,0,0:0:0:0:
64,192,40353,1,4,0:0:0:0:
192,192,40353,1,2,0:0:0:0:
448,192,40353,1,0,0:0:0:0:
192,192,40681,128,0,41009:0:0:0:0:
320,192,40845,1,2,0:0:0:0:
64,192,41009,1,8,0:0:0:0:
448,192,41009,128,0,41337:0:0:0:0:
320,192,41337,128,0,41501:0:0:0:0:
64,192,41501,128,0,41829:0:0:0:0:
192,192,41665,1,2,0:0:0:0:
448,192,41665,1,0,0:0:0:0:
192,192,41829,1,8,0:0:0:0:
320,192,41829,1,0,0:0:0:0:
448,192,41993,128,0,42321:0:0:0:0:
64,192,42157,1,2,0:0:0:0:
192,192,42157,1,0,0:0:0:0:
64,192,42321,1,8,0:0:0:0:
320,192,42321,128,0,42649:0:0:0:0:
192,192,42649,128,0,42976:0:0:0:0:
64,192,42976,128,2,44288:0:0:0:0:
448,192,42976,1,0,0:0:0:0:
192,192,43304,1,0,0:0:0:0:
320,192,43468,1,2,0:0:0:0:
448,192,43468,1,0,0:0:0:0:
192,192,43632,1,8,0:0:0:0:
448,192,43632,1,0,0:0:0:0:
320,192,43960,1,0,0:0:0:0:
320,192,44288,1,2,0:0:0:0:
448,192,44288,1,0,0:0:0:0:
64,192,44452,1,8,0:0:0:0:
192,192,44452,1,0,0:0:0:0:
448,192,44616,1,0,0:0:0:0:
192,192,44780,1,2,0:0:0:0:
320,192,44780,1,0,0:0:0:0:
64,192,44944,1,8,0:0:0:0:
448,192,44944,1,0,0:0:0:0:
320,192,45108,1,2,0:0:0:0:
448,192,45108,1,0,0:0:0:0:
64,192,45271,1,2,0:0:0:0:
192,192,45271,1,0,0:0:0:0:
320,192,45435,1,0,0:0:0:0:
192,192,45517,1,0,0:0:0:0:
64,192,45599,1,4,0:0:0:0:
320,192,45599,1,2,0:0:0:0:
448,192,45599,1,0,0:0:0:0:
320,192,45927,128,0,46255:0:0:0:0:
192,192,46091,1,2,0:0:0:0:
64,192,46255,128,8,46583:0:0:0:0:
448,192,46255,1,0,0:0:0:0:
192,192,46583,128,0,46747:0:0:0:0:
448,192,46747,128,0,47075:0:0:0:0:
64,192,46911,1,2,0:0:0:0:
320,192,46911,1,0,0:0:0:0:
192,192,47075,1,8,0:0:0:0:
320,192,47075,1,0,0:0:0:0:
64,192,47239,128,0,47403:0:0:0:0:
192,192,47403,1,2,0:0:0:0:
448,192,47403,1,0,0:0:0:0:
64,192,47567,128,8,47894:0:0:0:0:
448,192,47567,1,0,0:0:0:0:
192,192,47730,1,2,0:0:0:0:
320,192,47730,1,0,0:0:0:0:
448,192,47894,128,0,48058:0:0:0:0:
320,192,48058,128,2,48222:0:0:0:0:
64,192,48222,128,2,49534:0:0:0:0:
192,192,48222,1,0,0:0:0:0:
448,192,48550,1,0,0:0:0:0:
192,192,48714,1,2,0:0:0:0:
320,192,48714,1,0,0:0:0:0:
192,192,48878,1,8,0:0:0:0:
448,192,48878,1,0,0:0:0:0:
320,192,49206,1,0,0:0:0:0:
192,192,49534,1,2,0:0:0:0:
448,192,49534,1,0,0:0:0:0:
64,192,49698,1,8,0:0:0:0:
320,192,49698,1,0,0:0:0:0:
192,192,49862,1,0,0:0:0:0:
320,192,50026,1,2,0:0:0:0:
448,192,50026,1,0,0:0:0:0:
64,192,50189,1,8,0:0:0:0:
192,192,50189,1,0,0:0:0:0:
320,192,50353,1,2,0:0:0:0:
448,192,50353,1,0,0:0:0:0:
64,192,50517,1,8,0:0:0:0:
192,192,50517,1,0,0:0:0:0:
320,192,50681,1,0,0:0:0:0:
192,192,50763,1,0,0:0:0:0:
64,192,50845,1,4,0:0:0:0:
320,192,50845,1,2,0:0:0:0:
448,192,50845,1,0,0:0:0:0:
192,192,51173,1,2,0:0:0:0:
320,192,51173,128,0,51501:0:0:0:0:
448,192,51337,1,0,0:0:0:0:
64,192,51501,128,2,51829:0:0:0:0:
192,192,51501,1,0,0:0:0:0:
448,192,51665,1,0,0:0:0:0:
192,192,51829,128,2,51993:0:0:0:0:
320,192,51829,1,0,0:0:0:0:
448,192,51993,128,0,52812:0:0:0:0:
64,192,52157,1,2,0:0:0:0:
192,192,52157,1,0,0:0:0:0:
320,192,52321,1,0,0:0:0:0:
64,192,52485,1,2,0:0:0:0:
192,192,52485,1,0,0:0:0:0:
320,192,52649,1,0,0:0:0:0:
64,192,52812,1,2,0:0:0:0:
192,192,52812,1,0,0:0:0:0:
320,192,52976,128,0,53140:0:0:0:0:
64,192,53140,1,2,0:0:0:0:
192,192,53140,128,0,53304:0:0:0:0:
448,192,53304,128,0,53468:0:0:0:0:
64,192,53468,128,2,53796:0:0:0:0:
320,192,53468,1,0,0:0:0:0:
192,192,53632,1,0,0:0:0:0:
320,192,53796,1,2,0:0:0:0:
448,192,53796,128,0,54124:0:0:0:0:
64,192,53960,1,0,0:0:0:0:
192,192,54124,1,2,0:0:0:0:
320,192,54124,128,0,54452:0:0:0:0:
64,192,54288,1,0,0:0:0:0:
192,192,54452,128,2,54780:0:0:0:0:
448,192,54452,1,0,0:0:0:0:
320,192,54616,1,0,0:0:0:0:
64,192,54780,128,2,55108:0:0:0:0:
448,192,54780,1,0,0:0:0:0:
320,192,54944,1,0,0:0:0:0:
192,192,55108,1,2,0:0:0:0:
448,192,55108,128,0,55271:0:0:0:0:
320,192,55271,128,0,55435:0:0:0:0:
64,192,55435,1,2,0:0:0:0:
192,192,55435,1,0,0:0:0:0:
320,192,55599,1,2,0:0:0:0:
448,192,55599,1,0,0:0:0:0:
64,192,55763,1,8,0:0:0:0:
448,192,55763,1,0,0:0:0:0:
192,192,55927,1,0,0:0:0:0:
64,192,56091,128,4,56419:0:0:0:0:
320,192,56091,1,2,0:0:0:0:
448,192,56091,1,0,0:0:0:0:
192,192,56419,128,8,56583:0:0:0:0:
320,192,56419,1,4,0:0:0:0:
448,192,56583,128,0,56911:0:0:0:0:
64,192,56747,1,2,0:0:0:0:
320,192,56747,1,0,0:0:0:0:
192,192,56911,1,2,0:0:0:0:
320,192,56911,128,0,57075:0:0:0:0:
64,192,57075,128,8,58386:0:0:0:0:
448,192,57075,1,0,0:0:0:0:
192,192,57403,1,2,0:0:0:0:
320,192,57403,1,0,0:0:0:0:
320,192,57567,1,0,0:0:0:0:
192,192,57730,1,8,0:0:0:0:
448,192,57730,1,0,0:0:0:0:
320,192,57894,1,0,0:0:0:0:
320,192,58058,1,2,0:0:0:0:
448,192,58058,1,0,0:0:0:0:
192,192,58222,1,2,0:0:0:0:
448,192,58222,1,0,0:0:0:0:
192,192,58386,1,8,0:0:0:0:
320,192,58386,1,0,0:0:0:0:
64,192,58714,1,4,0:0:0:0:
320,192,58714,1,2,0:0:0:0:
448,192,58714,128,0,59370:0:0:0:0:
192,192,59042,1,8,0:0:0:0:
320,192,59042,1,0,0:0:0:0:
64,192,59370,128,2,59698:0:0:0:0:
192,192,59370,1,0,0:0:0:0:
320,192,59534,1,2,0:0:0:0:
448,192,59534,1,0,0:0:0:0:
192,192,59698,1,8,0:0:0:0:
448,192,59698,1,0,0:0:0:0:
64,192,60026,1,2,0:0:0:0:
320,192,60026,1,0,0:0:0:0:
192,192,60189,1,0,0:0:0:0:
320,192,60244,1,8,0:0:0:0:
448,192,60244,1,0,0:0:0:0:
64,192,60312,1,8,0:0:0:0:
192,192,60312,1,0,0:0:0:0:
192,192,60517,1,2,0:0:0:0:
320,192,60517,1,0,0:0:0:0:
64,192,60681,1,2,0:0:0:0:
448,192,60681,1,0,0:0:0:0:
320,192,60763,1,8,0:0:0:0:
192,192,60845,1,8,0:0:0:0:
320,192,60927,1,8,0:0:0:0:
448,192,60927,1,0,0:0:0:0:
64,192,61009,1,8,0:0:0:0:
192,192,61009,1,0,0:0:0:0:
320,192,61091,1,8,0:0:0:0:
448,192,61091,1,0,0:0:0:0:
64,192,61173,1,8,0:0:0:0:
192,192,61173,1,0,0:0:0:0:
320,192,61255,1,8,0:0:0:0:
64,192,61337,128,4,61665:0:0:0:0:
192,192,61337,1,2,0:0:0:0:
448,192,61337,1,0,0:0:0:0:
192,192,61665,1,8,0:0:0:0:
320,192,61665,128,4,61993:0:0:0:0:
448,192,61665,1,0,0:0:0:0:
448,192,61829,1,0,0:0:0:0:
64,192,61993,1,2,0:0:0:0:
192,192,61993,128,0,62321:0:0:0:0:
320,192,62157,1,2,0:0:0:0:
448,192,62157,1,0,0:0:0:0:
64,192,62321,1,8,0:0:0:0:
320,192,62321,1,0,0:0:0:0:
448,192,62321,128,0,62649:0:0:0:0:
192,192,62485,1,0,0:0:0:0:
64,192,62649,128,2,62976:0:0:0:0:
320,192,62649,1,0,0:0:0:0:
448,192,62812,1,0,0:0:0:0:
192,192,62976,1,8,0:0:0:0:
320,192,62976,1,0,0:0:0:0:
448,192,62976,1,0,0:0:0:0:
320,192,63140,1,0,0:0:0:0:
64,192,63304,1,2,0:0:0:0:
192,192,63304,128,0,63632:0:0:0:0:
320,192,63468,1,2,0:0:0:0:
448,192,63468,1,0,0:0:0:0:
64,192,63632,1,8,0:0:0:0:
320,192,63632,128,0,63960:0:0:0:0:
448,192,63632,1,0,0:0:0:0:
192,192,63796,1,0,0:0:0:0:
64,192,63960,1,2,0:0:0:0:
448,192,63960,128,0,64288:0:0:0:0:
192,192,64124,1,0,0:0:0:0:
64,192,64288,128,8,64616:0:0:0:0:
192,192,64288,1,0,0:0:0:0:
320,192,64288,1,0,0:0:0:0:
448,192,64452,1,0,0:0:0:0:
320,192,64616,128,2,64944:0:0:0:0:
448,192,64616,1,0,0:0:0:0:
64,192,64780,1,2,0:0:0:0:
192,192,64780,1,0,0:0:0:0:
64,192,64944,1,8,0:0:0:0:
192,192,64944,128,0,65271:0:0:0:0:
448,192,64944,1,0,0:0:0:0:
320,192,65108,1,0,0:0:0:0:
64,192,65271,128,2,65599:0:0:0:0:
448,192,65271,128,0,65435:0:0:0:0:
320,192,65435,128,0,65599:0:0:0:0:
192,192,65599,128,8,65763:0:0:0:0:
448,192,65599,1,0,0:0:0:0:
64,192,65763,128,0,66091:0:0:0:0:
448,192,65927,128,2,66255:0:0:0:0:
192,192,66091,1,2,0:0:0:0:
320,192,66091,128,0,66255:0:0:0:0:
64,192,66255,128,4,66419:0:0:0:0:
192,192,66255,128,8,66583:0:0:0:0:
320,192,66419,128,0,66583:0:0:0:0:
64,192,66583,1,2,0:0:0:0:
448,192,66583,128,4,66911:0:0:0:0:
320,192,66747,1,0,0:0:0:0:
64,192,66911,1,8,0:0:0:0:
192,192,66911,128,0,67239:0:0:0:0:
320,192,66911,1,0,0:0:0:0:
448,192,67075,1,0,0:0:0:0:
64,192,67239,1,2,0:0:0:0:
320,192,67239,128,0,67567:0:0:0:0:
192,192,67403,1,2,0:0:0:0:
448,192,67403,1,0,0:0:0:0:
64,192,67567,128,8,67894:0:0:0:0:
192,192,67567,1,0,0:0:0:0:
448,192,67567,1,0,0:0:0:0:
320,192,67730,1,0,0:0:0:0:
192,192,67894,1,2,0:0:0:0:
448,192,67894,128,0,68222:0:0:0:0:
64,192,68058,1,0,0:0:0:0:
64,192,68222,1,8,0:0:0:0:
192,192,68222,1,0,0:0:0:0:
320,192,68222,128,0,68550:0:0:0:0:
448,192,68386,1,0,0:0:0:0:
64,192,68550,1,2,0:0:0:0:
192,192,68550,128,0,68878:0:0:0:0:
320,192,68714,1,2,0:0:0:0:
448,192,68714,1,0,0:0:0:0:
64,192,68878,1,8,0:0:0:0:
320,192,68878,1,0,0:0:0:0:
448,192,68878,128,0,69206:0:0:0:0:
192,192,69042,1,0,0:0:0:0:
64,192,69206,128,2,69534:0:0:0:0:
320,192,69206,1,0,0:0:0:0:
192,192,69370,1,0,0:0:0:0:
192,192,69534,1,8,0:0:0:0:
320,192,69534,128,0,69862:0:0:0:0:
448,192,69534,1,0,0:0:0:0:
448,192,69698,1,0,0:0:0:0:
64,192,69862,1,2,0:0:0:0:
192,192,69862,128,0,70189:0:0:0:0:
320,192,70026,1,2,0:0:0:0:
448,192,70026,1,0,0:0:0:0:
64,192,70189,1,8,0:0:0:0:
320,192,70189,1,0,0:0:0:0:
448,192,70189,128,0,70517:0:0:0:0:
192,192,70353,1,0,0:0:0:0:
64,192,70517,1,2,0:0:0:0:
320,192,70517,1,0,0:0:0:0:
64,192,70681,1,2,0:0:0:0:
320,192,70681,1,0,0:0:0:0:
64,192,70845,1,4,0:0:0:0:
192,192,70845,1,8,0:0:0:0:
448,192,70845,1,0,0:0:0:0:
192,192,71173,1,2,0:0:0:0:
448,192,71173,1,0,0:0:0:0:
192,192,71337,1,2,0:0:0:0:
448,192,71337,1,0,0:0:0:0:
64,192,71501,1,4,0:0:0:0:
320,192,71501,1,8,0:0:0:0:
448,192,71501,1,0,0:0:0:0:
64,192,71829,1,2,0:0:0:0:
192,192,71829,1,4,0:0:0:0:
448,192,71829,128,0,72157:0:0:0:0:
64,192,72157,1,8,0:0:0:0:
192,192,72157,128,0,72485:0:0:0:0:
320,192,72157,1,0,0:0:0:0:
64,192,72321,1,0,0:0:0:0:
320,192,72485,128,2,72812:0:0:0:0:
448,192,72485,1,0,0:0:0:0:
64,192,72649,1,2,0:0:0:0:
192,192,72649,1,0,0:0:0:0:
64,192,72812,128,8,73140:0:0:0:0:
192,192,72812,1,0,0:0:0:0:
448,192,72812,1,0,0:0:0:0:
320,192,72976,1,0,0:0:0:0:
192,192,73140,1,2,0:0:0:0:
448,192,73140,128,0,73468:0:0:0:0:
320,192,73304,1,0,0:0:0:0:
64,192,73468,1,8,0:0:0:0:
192,192,73468,1,0,0:0:0:0:
320,192,73468,1,0,0:0:0:0:
64,192,73632,1,0,0:0:0:0:
320,192,73796,128,2,74124:0:0:0:0:
448,192,73796,1,0,0:0:0:0:
64,192,73960,1,2,0:0:0:0:
192,192,73960,1,0,0:0:0:0:
64,192,74124,1,8,0:0:0:0:
192,192,74124,128,0,74452:0:0:0:0:
448,192,74124,1,0,0:0:0:0:
320,192,74288,1,0,0:0:0:0:
64,192,74452,128,2,74780:0:0:0:0:
448,192,74452,1,0,0:0:0:0:
320,192,74616,1,0,0:0:0:0:
192,192,74780,1,8,0:0:0:0:
320,192,74780,1,0,0:0:0:0:
448,192,74780,128,0,75108:0:0:0:0:
64,192,74944,1,0,0:0:0:0:
64,192,75108,1,2,0:0:0:0:
192,192,75108,128,0,75435:0:0:0:0:
320,192,75271,1,2,0:0:0:0:
448,192,75271,1,0,0:0:0:0:
64,192,75435,1,8,0:0:0:0:
320,192,75435,128,0,75763:0:0:0:0:
448,192,75435,1,0,0:0:0:0:
192,192,75599,1,0,0:0:0:0:
64,192,75763,128,2,75927:0:0:0:0:
448,192,75763,128,0,76091:0:0:0:0:
192,192,75927,128,0,76091:0:0:0:0:
64,192,76091,1,8,0:0:0:0:
320,192,76091,128,0,76255:0:0:0:0:
448,192,76255,128,0,76583:0:0:0:0:
64,192,76419,128,2,76747:0:0:0:0:
192,192,76583,128,2,76747:0:0:0:0:
320,192,76583,1,0,0:0:0:0:
320,192,76747,128,4,77075:0:0:0:0:
448,192,76747,128,8,76911:0:0:0:0:
192,192,76911,128,0,77075:0:0:0:0:
64,192,77075,128,2,77403:0:0:0:0:
448,192,77075,1,4,0:0:0:0:
192,192,77239,1,0,0:0:0:0:
192,192,77403,1,8,0:0:0:0:
320,192,77403,128,0,77730:0:0:0:0:
448,192,77403,1,0,0:0:0:0:
64,192,77567,1,0,0:0:0:0:
192,192,77730,128,2,78058:0:0:0:0:
448,192,77730,1,0,0:0:0:0:
64,192,77894,1,2,0:0:0:0:
320,192,77894,1,0,0:0:0:0:
64,192,78058,1,8,0:0:0:0:
320,192,78058,1,0,0:0:0:0:
448,192,78058,128,0,78386:0:0:0:0:
192,192,78222,1,0,0:0:0:0:
64,192,78386,128,2,78714:0:0:0:0:
320,192,78386,1,0,0:0:0:0:
448,192,78550,1,0,0:0:0:0:
192,192,78714,128,8,79042:0:0:0:0:
320,192,78714,1,0,0:0:0:0:
448,192,78714,1,0,0:0:0:0:
64,192,78878,1,0,0:0:0:0:
320,192,79042,128,2,79370:0:0:0:0:
448,192,79042,1,0,0:0:0:0:
64,192,79206,1,2,0:0:0:0:
192,192,79206,1,0,0:0:0:0:
64,192,79370,128,8,79698:0:0:0:0:
192,192,79370,1,0,0:0:0:0:
448,192,79370,1,0,0:0:0:0:
320,192,79534,1,0,0:0:0:0:
192,192,79698,1,2,0:0:0:0:
320,192,79698,1,4,0:0:0:0:
448,192,79698,128,0,80026:0:0:0:0:
64,192,79862,1,0,0:0:0:0:
64,192,80026,1,8,0:0:0:0:
192,192,80026,1,0,0:0:0:0:
320,192,80026,128,0,80353:0:0:0:0:
448,192,80189,1,0,0:0:0:0:
64,192,80353,1,2,0:0:0:0:
192,192,80353,128,0,80681:0:0:0:0:
320,192,80517,1,2,0:0:0:0:
448,192,80517,1,0,0:0:0:0:
64,192,80681,1,8,0:0:0:0:
320,192,80681,1,0,0:0:0:0:
448,192,80681,128,0,81009:0:0:0:0:
192,192,80845,1,0,0:0:0:0:
64,192,81009,1,2,0:0:0:0:
320,192,81009,1,0,0:0:0:0:
64,192,81173,1,2,0:0:0:0:
320,192,81173,1,0,0:0:0:0:
64,192,81337,1,4,0:0:0:0:
192,192,81337,1,8,0:0:0:0:
448,192,81337,1,0,0:0:0:0:
192,192,81665,1,2,0:0:0:0:
448,192,81665,1,0,0:0:0:0:
192,192,81829,1,2,0:0:0:0:
448,192,81829,1,0,0:0:0:0:
64,192,81993,1,4,0:0:0:0:
320,192,81993,1,8,0:0:0:0:
448,192,81993,1,0,0:0:0:0:
64,192,82321,1,4,0:0:0:0:
192,192,82321,1,2,0:0:0:0:
448,192,82321,128,0,82976:0:0:0:0:
64,192,82649,1,8,0:0:0:0:
192,192,82649,1,0,0:0:0:0:
320,192,82649,1,0,0:0:0:0:
192,192,82812,1,0,0:0:0:0:
64,192,82976,128,2,83632:0:0:0:0:
320,192,82976,1,0,0:0:0:0:
192,192,83140,1,2,0:0:0:0:
448,192,83140,1,0,0:0:0:0:
192,192,83304,1,8,0:0:0:0:
320,192,83304,1,0,0:0:0:0:
448,192,83304,1,0,0:0:0:0:
320,192,83468,1,0,0:0:0:0:
192,192,83632,128,2,84288:0:0:0:0:
448,192,83632,1,0,0:0:0:0:
320,192,83796,1,0,0:0:0:0:
64,192,83960,1,8,0:0:0:0:
320,192,83960,1,0,0:0:0:0:
448,192,83960,1,0,0:0:0:0:
64,192,84124,1,0,0:0:0:0:
320,192,84288,1,2,0:0:0:0:
448,192,84288,128,0,84616:0:0:0:0:
64,192,84452,1,2,0:0:0:0:
192,192,84452,1,0,0:0:0:0:
64,192,84616,1,8,0:0:0:0:
192,192,84616,1,0,0:0:0:0:
320,192,84616,1,0,0:0:0:0:
64,192,84944,128,2,85599:0:0:0:0:
448,192,84944,1,0,0:0:0:0:
320,192,85108,1,0,0:0:0:0:
192,192,85271,1,8,0:0:0:0:
320,192,85271,1,0,0:0:0:0:
448,192,85271,1,0,0:0:0:0:
192,192,85435,1,0,0:0:0:0:
320,192,85599,1,2,0:0:0:0:
448,192,85599,1,0,0:0:0:0:
64,192,85763,1,2,0:0:0:0:
192,192,85804,1,0,0:0:0:0:
320,192,85845,1,0,0:0:0:0:
448,192,85886,1,0,0:0:0:0:
64,192,85927,1,8,0:0:0:0:
192,192,85968,1,0,0:0:0:0:
320,192,86009,1,0,0:0:0:0:
448,192,86050,1,0,0:0:0:0:
64,192,86091,1,0,0:0:0:0:
192,192,86132,1,0,0:0:0:0:
320,192,86173,1,0,0:0:0:0:
448,192,86214,1,0,0:0:0:0:
64,192,86255,1,8,0:0:0:0:
192,192,86255,1,2,0:0:0:0:
320,192,86337,1,8,0:0:0:0:
448,192,86337,1,0,0:0:0:0:
64,192,86419,1,8,0:0:0:0:
192,192,86419,1,2,0:0:0:0:
320,192,86501,1,8,0:0:0:0:
448,192,86501,1,0,0:0:0:0:
64,192,86583,1,8,0:0:0:0:
192,192,86583,1,2,0:0:0:0:
320,192,86665,1,8,0:0:0:0:
448,192,86665,1,0,0:0:0:0:
64,192,86747,1,8,0:0:0:0:
192,192,86747,1,2,0:0:0:0:
320,192,86829,1,8,0:0:0:0:
448,192,86829,1,0,0:0:0:0:
64,192,86911,1,2,0:0:0:0:
192,192,86911,1,8,0:0:0:0:
320,192,87075,1,2,0:0:0:0:
448,192,87075,1,0,0:0:0:0:
64,192,87157,1,0,0:0:0:0:
192,192,87157,1,0,0:0:0:0:
320,192,87239,1,2,0:0:0:0:
448,192,87239,1,0,0:0:0:0:
64,192,87321,1,0,0:0:0:0:
192,192,87321,1,0,0:0:0:0:
320,192,87403,1,2,0:0:0:0:
448,192,87403,1,0,0:0:0:0:
64,192,87485,1,0,0:0:0:0:
192,192,87485,1,0,0:0:0:0:
448,192,87567,1,0,0:0:0:0:
320,192,87730,1,0,0:0:0:0:
192,192,87894,1,0,0:0:0:0:
64,192,88058,1,0,0:0:0:0:
448,192,88222,1,0,0:0:0:0:
192,192,88386,1,0,0:0:0:0:
320,192,88591,1,0,0:0:0:0:
64,192,88755,128,0,90189:0:0:0:0:
448,192,88755,128,0,90189:0:0:0:0:
