osu file format v14

[General]
AudioFilename: audio.mp3
AudioLeadIn: 0
PreviewTime: 62673
Countdown: 0
SampleSet: Soft
StackLeniency: 0.7
Mode: 0
LetterboxInBreaks: 0
WidescreenStoryboard: 0

[Editor]
DistanceSpacing: 1
BeatDivisor: 2
GridSize: 16
TimelineZoom: 1.6

[Metadata]
Title:Sparkling * Traveler
TitleUnicode:スパークリング☆トラベラー
Artist:Tamura Yukari
ArtistUnicode:田村ゆかり
Creator:sahuang
Version:Normal
Source:変態王子と笑わない猫。
Tags:Hentai Ouji to Warawanai Neko. The "HENTAI" prince and the stony cat. PSP C-Territory game 螺旋の果実 rasen no kajitsu opening
BeatmapID:1431834
BeatmapSetID:676998

[Difficulty]
HPDrainRate:3.5
CircleSize:3.5
OverallDifficulty:5
ApproachRate:5
SliderMultiplier:1.1
SliderTickRate:1

[Events]
//Background and Video events
0,0,"05.jpg",0,0
//Break Periods
//Storyboard Layer 0 (Background)
//Storyboard Layer 1 (Fail)
//Storyboard Layer 2 (Pass)
//Storyboard Layer 3 (Foreground)
//Storyboard Sound Samples

[TimingPoints]
691,344.827586206897,4,2,1,70,1,0
13104,-100,4,2,5,70,0,0
13449,-100,4,2,1,70,0,0
25518,-100,4,2,1,60,0,0
26380,-100,4,2,1,50,0,0
31035,-100,4,2,1,60,0,0
31897,-100,4,2,1,50,0,0
33794,-100,4,2,1,70,0,0
36553,-100,4,2,1,60,0,0
37415,-100,4,2,1,50,0,0
45863,-100,4,2,5,50,0,0
46208,-125,4,2,1,50,0,0
46380,-100,4,2,1,20,0,0
46811,-100,4,2,1,5,0,0
46897,-100,4,2,5,70,0,0
47415,-100,4,2,1,70,0,0
47587,-100,4,2,1,60,0,0
52070,-100,4,2,1,65,0,0
53104,-100,4,2,1,60,0,0
60001,-100,4,2,1,70,0,0
62759,-100,4,2,1,80,0,1
72415,-100,4,2,5,80,0,1
73794,-100,4,2,1,70,0,0
85346,-100,4,2,1,20,0,0
86208,-100,4,2,1,5,0,0

[Colours]
Combo1 : 255,40,40
Combo2 : 11,204,244
Combo3 : 255,255,6
Combo4 : 255,23,255

[HitObjects]
305,23,691,6,0,L|190:10,1,110,6|8,0:0|0:0,0:0:0:0:
151,42,1208,2,0,L|138:151,1,110,6|8,0:0|0:0,0:0:0:0:
168,198,1725,2,0,P|222:179|283:185,1,110,6|8,0:0|0:0,0:0:0:0:
318,215,2242,2,0,P|337:269|331:330,1,110,6|8,0:0|0:0,0:0:0:0:
302,366,2759,2,0,L|240:373,1,55,6|6,0:0|0:0,0:0:0:0:
198,349,3104,1,12,0:0:0:0:
99,299,3449,6,0,L|103:209,1,55,6|0,0:0|0:0,0:0:0:0:
79,193,3794,1,8,0:0:0:0:
79,193,3966,2,0,P|141:203|191:185,1,110,6|0,0:0|0:0,0:0:0:0:
221,147,4484,1,8,0:0:0:0:
221,147,4656,2,0,L|222:272,1,110,6|0,0:0|0:0,0:0:0:0:
254,301,5173,1,8,0:0:0:0:
254,301,5346,2,0,P|307:282|362:290,1,110,6|2,0:0|0:0,0:0:0:0:
401,323,5863,1,8,0:0:0:0:
469,236,6208,6,0,L|471:172,1,55,6|0,0:0|0:0,0:0:0:0:
447,130,6553,1,8,0:0:0:0:
447,130,6725,2,0,L|304:119,1,110,6|0,0:0|0:0,0:0:0:0:
282,113,7242,1,8,0:0:0:0:
282,113,7415,2,0,P|263:167|196:182,1,110,6|0,0:0|0:0,0:0:0:0:
165,167,7932,2,0,L|105:159,1,55,8|2,0:0|0:0,0:0:0:0:
58,176,8277,1,8,0:0:0:0:
30,282,8622,1,8,0:0:0:0:
105,361,8966,6,0,L|169:347,1,55,6|0,0:0|0:0,0:0:0:0:
213,351,9311,1,8,0:0:0:0:
213,351,9484,2,0,L|345:356,1,110,6|0,0:0|0:0,0:0:0:0:
368,324,10001,1,8,0:0:0:0:
368,324,10173,2,0,P|343:267|345:216,1,110,6|0,0:0|0:0,0:0:0:0:
380,177,10691,2,0,P|381:152|375:116,1,55,8|2,0:0|0:0,0:0:0:0:
339,82,11035,2,0,P|334:54|335:27,2,55,0|0|8,0:0|0:0|0:0,0:0:0:0:
256,155,11725,5,6,0:0:0:0:
159,101,12070,2,0,P|127:100|96:108,1,55,8|2,0:0|0:0,0:0:0:0:
86,157,12415,2,0,P|69:184|60:215,1,55,8|2,0:0|0:0,0:0:0:0:
97,248,12759,2,0,P|112:276|134:299,1,55,8|2,0:0|0:0,0:0:0:0:
182,299,13104,1,8,0:0:0:0:
286,264,13449,1,6,0:0:0:0:
378,322,13794,2,0,P|439:315|482:280,1,110,2|8,0:0|0:0,0:0:0:0:
490,233,14311,1,0,0:0:0:0:
476,179,14484,5,6,0:0:0:0:
384,119,14828,1,8,0:0:0:0:
287,171,15173,2,0,L|200:159,2,55,8|2|8,0:0|0:0|0:0,0:0:0:0:
329,206,15691,1,6,0:0:0:0:
295,310,16035,1,6,0:0:0:0:
186,329,16380,2,0,P|109:320|70:258,1,110,6|2,0:0|0:0,0:0:0:0:
53,256,16897,2,0,P|46:230|53:187,1,55,8|8,0:0|0:0,0:0:0:0:
73,153,17242,5,6,0:0:0:0:
163,90,17587,1,8,0:0:0:0:
257,146,17932,2,0,L|322:136,2,55,8|2|8,0:0|0:0|0:0,0:0:0:0:
256,201,18449,1,6,0:0:0:0:
166,264,18794,1,6,0:0:0:0:
266,308,19139,2,0,B|322:319|322:319|389:297,1,110,6|8,0:0|0:0,0:0:0:0:
420,275,19656,2,0,L|413:199,1,55,8|8,0:0|0:0,0:0:0:0:
443,172,20001,5,6,0:0:0:0:
390,75,20346,1,8,0:0:0:0:
290,122,20691,2,0,L|297:179,2,55,8|2|8,0:0|0:0|0:0,0:0:0:0:
248,85,21208,1,6,0:0:0:0:
151,138,21553,1,6,0:0:0:0:
201,235,21897,2,0,P|213:295|196:347,1,110,6|8,0:0|0:0,0:0:0:0:
146,356,22415,2,0,L|80:345,1,55,8|4,0:0|3:0,0:0:0:0:
40,326,22759,6,0,L|38:204,1,110,6|8,0:0|0:0,0:0:0:0:
84,185,23277,2,0,L|82:63,1,110,6|8,0:0|0:0,0:0:0:0:
50,30,23794,2,0,L|178:46,1,110,6|8,0:0|0:0,0:0:0:0:
197,82,24311,2,0,L|325:98,1,110,6|8,0:0|0:0,0:0:0:0:
355,120,24828,2,0,P|359:145|355:184,1,55,6|6,0:0|0:0,0:0:0:0:
352,229,25173,1,6,0:0:0:0:
266,298,25518,6,0,P|259:325|260:362,2,55,6|0|8,0:0|0:0|0:0,0:0:0:0:
268,242,26035,2,0,L|127:256,1,110,2|0,0:0|0:0,0:0:0:0:
110,281,26553,1,8,0:0:0:0:
110,281,26725,2,0,P|115:216|96:167,1,110,2|0,0:0|0:0,0:0:0:0:
58,138,27242,1,8,0:0:0:0:
58,138,27415,2,0,L|175:125,1,110,2|2,0:0|0:0,0:0:0:0:
221,113,27932,1,8,0:0:0:0:
323,153,28277,6,0,P|349:160|380:155,1,55,6|2,0:0|0:0,0:0:0:0:
423,128,28622,1,8,0:0:0:0:
423,128,28794,2,0,L|429:254,1,110,2|2,0:0|0:0,0:0:0:0:
402,286,29311,1,8,0:0:0:0:
402,286,29484,2,0,L|264:298,1,110,2|0,0:0|0:0,0:0:0:0:
253,338,30001,1,8,0:0:0:0:
253,338,30173,2,0,L|115:350,1,110,2|2,0:0|0:0,0:0:0:0:
91,328,30691,1,8,0:0:0:0:
34,233,31035,6,0,L|40:144,2,55,6|0|8,0:0|0:0|0:0,0:0:0:0:
88,245,31553,2,0,P|130:226|206:244,1,110,2|0,0:0|0:0,0:0:0:0:
236,267,32070,1,8,0:0:0:0:
236,267,32242,2,0,L|225:138,1,110,2|2,0:0|0:0,0:0:0:0:
254,109,32759,1,8,0:0:0:0:
254,109,32932,2,0,P|296:128|372:110,1,110,2|2,0:0|0:0,0:0:0:0:
402,87,33449,1,8,0:0:0:0:
314,19,33794,5,6,0:0:0:0:
205,34,34139,1,6,0:0:0:0:
120,104,34484,2,0,L|37:88,2,55,8|2|8,0:0|0:0|0:0,0:0:0:0:
141,154,35001,2,0,P|145:187|145:222,1,55,6|0,0:0|0:0,0:0:0:0:
103,244,35346,2,0,P|99:277|99:312,1,55,6|8,0:0|0:0,0:0:0:0:
69,345,35691,2,0,L|196:334,1,110,6|0,0:0|0:0,0:0:0:0:
232,348,36208,1,8,0:0:0:0:
332,302,36553,6,0,P|359:295|396:296,2,55,6|0|8,0:0|0:0|0:0,0:0:0:0:
306,253,37070,2,0,L|320:112,1,110,2|0,0:0|0:0,0:0:0:0:
335,91,37587,1,8,0:0:0:0:
335,91,37759,2,0,P|270:96|221:77,1,110,2|2,0:0|0:0,0:0:0:0:
193,38,38277,1,8,0:0:0:0:
193,38,38449,2,0,L|180:155,1,110,2|2,0:0|0:0,0:0:0:0:
148,191,38966,1,8,0:0:0:0:
229,265,39311,6,0,P|236:291|231:322,1,55,6|2,0:0|0:0,0:0:0:0:
190,354,39656,1,8,0:0:0:0:
190,354,39828,2,0,L|316:360,1,110,2|2,0:0|0:0,0:0:0:0:
354,353,40346,1,8,0:0:0:0:
354,353,40518,2,0,L|366:215,1,110,2|2,0:0|0:0,0:0:0:0:
409,212,41035,1,8,0:0:0:0:
409,212,41208,2,0,B|418:157|418:157|398:84,1,110,2|2,0:0|0:0,0:0:0:0:
385,52,41725,1,8,0:0:0:0:
275,53,42070,6,0,L|186:59,2,55,6|0|8,0:0|0:0|0:0,0:0:0:0:
291,106,42587,2,0,P|272:148|290:224,1,110,2|2,0:0|0:0,0:0:0:0:
309,256,43104,1,8,0:0:0:0:
309,256,43277,2,0,L|180:245,1,110,2|2,0:0|0:0,0:0:0:0:
152,274,43794,1,8,0:0:0:0:
152,274,43966,2,0,L|23:263,1,110,2|2,0:0|0:0,0:0:0:0:
23,212,44484,1,8,0:0:0:0:
74,114,44828,6,0,L|150:120,1,55,2|2,0:0|0:0,0:0:0:0:
177,91,45173,2,0,P|239:77|293:90,1,110,8|8,0:0|0:0,0:0:0:0:
373,153,45863,2,0,P|382:183|380:217,1,55,8|4,0:0|3:0,0:0:0:0:
343,244,46208,6,0,B|280:229|280:229|207:249,1,132,6|0,0:0|0:0,0:0:0:0:
166,272,46897,1,8,0:0:0:0:
166,272,47070,2,0,L|180:141,1,110,6|8,0:0|0:0,0:0:0:0:
148,115,47587,6,0,P|78:136|36:124,2,110,6|8|0,0:0|0:0|0:0,0:0:0:0:
239,52,48622,2,0,L|309:61,1,55,8|0,0:0|0:0,0:0:0:0:
333,96,48966,2,0,P|356:146|348:213,1,110,2|8,0:0|0:0,0:0:0:0:
332,251,49484,1,8,0:0:0:0:
332,251,49656,2,0,P|329:305|351:354,1,110,0|8,0:0|0:0,0:0:0:0:
461,338,50346,6,0,P|463:283|441:234,1,110,6|8,0:0|0:0,0:0:0:0:
400,196,50863,2,0,L|409:70,1,110,2|0,0:0|0:0,0:0:0:0:
383,36,51380,1,8,0:0:0:0:
279,72,51725,2,0,P|253:81|222:83,1,55,6|0,0:0|0:0,0:0:0:0:
173,65,52070,1,8,0:0:0:0:
108,154,52415,2,0,P|87:135|69:110,1,55,6|0,0:0|0:0,0:0:0:0:
61,59,52759,1,8,0:0:0:0:
173,65,53104,6,0,B|228:55|228:55|322:87,2,110,6|8|0,0:0|0:0|0:0,0:0:0:0:
207,169,54139,2,0,L|275:191,1,55,8|0,0:0|0:0,0:0:0:0:
303,218,54484,2,0,L|309:329,1,110,2|8,0:0|0:0,0:0:0:0:
275,371,55001,1,2,0:0:0:0:
275,371,55173,2,0,P|212:348|162:355,1,110,0|8,0:0|0:0,0:0:0:0:
116,364,55691,1,8,0:0:0:0:
116,364,55863,6,0,L|136:181,2,165,6|6|8,0:0|0:0|0:0,0:0:0:0:
14,321,57242,2,0,L|34:138,2,165,6|6|8,0:0|0:0|0:0,0:0:0:0:
112,270,58622,6,0,P|203:233|290:273,1,165,4|4,3:0|3:0,0:0:0:0:
307,283,59311,2,0,P|277:231|367:215,1,165,4|4,3:0|3:0,0:0:0:0:
394,237,60001,6,0,L|532:224,1,110,6|8,0:0|0:0,0:0:0:0:
509,171,60518,2,0,P|493:102|442:68,1,110,6|8,0:0|0:0,0:0:0:0:
422,42,61035,2,0,L|312:52,1,110,6|8,0:0|0:0,0:0:0:0:
261,74,61553,2,0,P|230:117|230:184,1,110,6|8,0:0|0:0,0:0:0:0:
200,220,62070,2,0,L|125:211,1,55,6|6,0:0|0:0,0:0:0:0:
103,178,62415,2,0,L|28:187,1,55,6|8,0:0|0:0,0:0:0:0:
16,139,62759,6,0,L|12:73,2,55,6|0|8,0:0|0:0|0:0,0:0:0:0:
48,184,63277,2,0,P|18:237|39:303,1,110,6|2,0:0|0:0,0:0:0:0:
66,319,63794,1,8,0:0:0:0:
66,319,63966,2,0,L|191:318,1,110,6|2,0:0|0:0,0:0:0:0:
229,302,64484,1,8,0:0:0:0:
229,302,64656,2,0,P|282:321|337:313,1,110,6|2,0:0|0:0,0:0:0:0:
379,282,65173,1,8,0:0:0:0:
331,185,65518,6,0,L|250:170,1,55,6|0,0:0|0:0,0:0:0:0:
230,204,65863,1,8,0:0:0:0:
230,204,66035,2,0,L|219:61,1,110,6|2,0:0|0:0,0:0:0:0:
173,65,66553,1,8,0:0:0:0:
173,65,66725,2,0,P|118:74|76:123,1,110,6|2,0:0|0:0,0:0:0:0:
76,166,67242,2,0,L|68:226,1,55,8|2,0:0|0:0,0:0:0:0:
85,273,67587,1,8,0:0:0:0:
162,351,67932,1,8,0:0:0:0:
241,275,68277,6,0,L|305:261,1,55,6|2,0:0|0:0,0:0:0:0:
349,265,68622,1,8,0:0:0:0:
349,265,68794,2,0,L|481:270,1,110,6|2,0:0|0:0,0:0:0:0:
494,226,69311,1,8,0:0:0:0:
494,226,69484,2,0,P|469:169|471:118,1,110,6|2,0:0|0:0,0:0:0:0:
425,90,70001,2,0,P|400:89|364:95,1,55,8|6,0:0|0:0,0:0:0:0:
318,113,70346,2,0,P|290:118|263:117,2,55,0|2|8,0:0|0:0|0:0,0:0:0:0:
285,7,71035,5,6,0:0:0:0:
181,44,71380,2,0,L|107:53,1,55,8|2,0:0|0:0,0:0:0:0:
85,87,71725,2,0,L|91:141,1,55,8|2,0:0|0:0,0:0:0:0:
129,181,72070,2,0,L|183:174,1,55,8|2,0:0|0:0,0:0:0:0:
227,140,72415,1,8,0:0:0:0:
313,207,72759,1,6,0:0:0:0:
405,147,73104,2,0,P|419:209|402:270,1,110,2|8,0:0|0:0,0:0:0:0:
374,296,73622,1,8,0:0:0:0:
322,315,73794,5,6,0:0:0:0:
220,271,74139,1,8,0:0:0:0:
119,316,74484,2,0,L|107:403,2,55,8|2|8,0:0|0:0|0:0,0:0:0:0:
83,273,75001,1,6,0:0:0:0:
105,165,75346,1,6,0:0:0:0:
188,93,75691,2,0,B|242:72|250:115|305:82,1,110,6|2,0:0|0:0,0:0:0:0:
344,62,76208,2,0,L|422:70,1,55,8|8,0:0|0:0,0:0:0:0:
440,103,76553,5,6,0:0:0:0:
492,199,76897,1,8,0:0:0:0:
436,294,77242,2,0,L|444:348,2,55,8|2|8,0:0|0:0|0:0,0:0:0:0:
399,252,77759,1,6,0:0:0:0:
293,284,78104,1,6,0:0:0:0:
195,232,78449,2,0,B|206:109,1,110,6|8,0:0|0:0,0:0:0:0:
193,68,78966,2,0,L|117:75,1,55,8|8,0:0|0:0,0:0:0:0:
83,75,79311,5,6,0:0:0:0:
20,165,79656,1,8,0:0:0:0:
76,259,80001,2,0,L|133:252,2,55,8|2|8,0:0|0:0|0:0,0:0:0:0:
37,298,80518,1,6,0:0:0:0:
123,365,80863,1,6,0:0:0:0:
213,302,81208,2,0,P|273:290|325:307,1,110,6|8,0:0|0:0,0:0:0:0:
371,287,81725,2,0,L|380:232,1,55,8|8,0:0|0:0,0:0:0:0:
393,179,82070,6,0,P|339:174|271:181,1,110,6|8,0:0|0:0,0:0:0:0:
247,136,82587,2,0,P|193:141|125:134,1,110,6|8,0:0|0:0,0:0:0:0:
89,109,83104,2,0,L|75:218,1,110,6|8,0:0|0:0,0:0:0:0:
19,220,83622,2,0,L|32:329,1,110,6|8,0:0|0:0,0:0:0:0:
72,367,84139,2,0,L|150:346,1,55,6|6,0:0|0:0,0:0:0:0:
179,362,84484,1,6,0:0:0:0:
233,353,84656,1,6,0:0:0:0:
316,210,85173,6,0,P|313:140|224:242,1,330,6|0,0:0|0:0,0:0:0:0:
