osu file format v14

[General]
AudioFilename: audio.mp3
AudioLeadIn: 0
PreviewTime: 62673
Countdown: 0
SampleSet: Soft
StackLeniency: 0.7
Mode: 0
LetterboxInBreaks: 0
WidescreenStoryboard: 0

[Editor]
DistanceSpacing: 1.3
BeatDivisor: 4
GridSize: 16
TimelineZoom: 1.8

[Metadata]
Title:Sparkling * Traveler
TitleUnicode:スパークリング☆トラベラー
Artist:Tamura Yukari
ArtistUnicode:田村ゆかり
Creator:sahuang
Version:Hard
Source:変態王子と笑わない猫。
Tags:Hentai Ouji to Warawanai Neko. The "HENTAI" prince and the stony cat. PSP C-Territory game 螺旋の果実 rasen no kajitsu opening
BeatmapID:1431833
BeatmapSetID:676998

[Difficulty]
HPDrainRate:5
CircleSize:4
OverallDifficulty:7
ApproachRate:7.5
SliderMultiplier:1.4
SliderTickRate:1

[Events]
//Background and Video events
0,0,"05.jpg",0,0
//Break Periods
//Storyboard Layer 0 (Background)
//Storyboard Layer 1 (Fail)
//Storyboard Layer 2 (Pass)
//Storyboard Layer 3 (Foreground)
//Storyboard Sound Samples

[TimingPoints]
691,344.827586206897,4,2,1,70,1,0
13104,-100,4,2,5,70,0,0
13449,-100,4,2,1,70,0,0
25518,-111.111111111111,4,2,1,60,0,0
33794,-100,4,2,1,70,0,0
36553,-111.111111111111,4,2,1,60,0,0
45863,-111.111111111111,4,2,5,50,0,0
46208,-100,4,2,1,50,0,0
46897,-100,4,2,5,70,0,0
47070,-83.3333333333333,4,2,1,50,0,0
47587,-100,4,2,1,60,0,0
52070,-100,4,2,1,65,0,0
52328,-100,4,2,1,5,0,0
52415,-100,4,2,1,65,0,0
53104,-100,4,2,1,60,0,0
55863,-100,4,2,1,65,0,0
60001,-100,4,2,1,70,0,0
62759,-90.9090909090909,4,2,1,80,0,1
72415,-90.9090909090909,4,2,5,80,0,1
72759,-90.9090909090909,4,2,1,80,0,1
73018,-90.9090909090909,4,2,1,5,0,1
73104,-90.9090909090909,4,2,1,80,0,1
73794,-100,4,2,1,70,0,0
85173,-83.3333333333333,4,2,1,50,0,0
85346,-83.3333333333333,4,2,1,20,0,0
86208,-83.3333333333333,4,2,1,5,0,0

[Colours]
Combo1 : 255,40,40
Combo2 : 11,204,244
Combo3 : 255,255,6
Combo4 : 255,23,255

[HitObjects]
6,189,691,5,6,0:0:0:0:
68,244,863,2,0,L|76:290,2,35,0|8|8,0:0|0:0|0:0,0:0:0:0:
132,190,1208,1,6,0:0:0:0:
194,135,1380,2,0,L|202:89,2,35,0|8|8,0:0|0:0|0:0,0:0:0:0:
256,191,1725,5,6,0:0:0:0:
318,136,1897,2,0,L|326:90,2,35,0|8|8,0:0|0:0|0:0,0:0:0:0:
382,190,2242,1,6,0:0:0:0:
444,245,2414,2,0,L|452:291,2,35,0|8|8,0:0|0:0|0:0,0:0:0:0:
364,272,2759,5,6,0:0:0:0:
402,347,2932,1,6,0:0:0:0:
318,342,3104,2,0,L|276:352,3,35,12|8|12|8,0:0|0:0|0:0|0:0,0:0:0:0:
245,331,3449,6,0,P|235:285|244:248,1,70,6|0,0:0|0:0,0:0:0:0:
286,193,3794,1,8,0:0:0:0:
255,115,3966,2,0,P|202:101|105:111,1,140,6|0,0:0|0:0,0:0:0:0:
49,157,4484,1,8,0:0:0:0:
90,229,4656,6,0,B|105:281|86:324|86:324|125:358,1,140,6|0,0:0|0:0,0:0:0:0:
197,323,5173,1,8,0:0:0:0:
272,360,5346,2,0,P|318:339|333:255,1,140,6|2,0:0|0:0,0:0:0:0:
281,191,5863,1,8,0:0:0:0:
197,194,6035,1,2,0:0:0:0:
197,194,6122,1,2,0:0:0:0:
197,194,6208,6,0,P|194:143|198:104,1,70,6|0,0:0|0:0,0:0:0:0:
238,52,6553,1,8,0:0:0:0:
319,71,6725,2,0,B|365:86|365:86|473:63,1,140,6|0,0:0|0:0,0:0:0:0:
509,130,7242,1,8,0:0:0:0:
454,194,7415,6,0,B|364:174|364:174|318:189,1,140,6|0,0:0|0:0,0:0:0:0:
280,265,7932,1,8,0:0:0:0:
197,279,8104,1,2,0:0:0:0:
120,243,8277,2,0,L|38:239,2,70,8|2|8,0:0|0:0|0:0,0:0:0:0:
191,199,8794,1,2,0:0:0:0:
191,199,8880,1,8,0:0:0:0:
191,199,8966,6,0,P|197:145|191:116,1,70,6|0,0:0|0:0,0:0:0:0:
144,62,9311,1,8,0:0:0:0:
209,9,9484,2,0,P|262:21|373:10,1,140,6|0,0:0|0:0,0:0:0:0:
425,48,10001,1,8,0:0:0:0:
483,107,10173,6,0,L|477:188,1,70,6|0,0:0|0:0,0:0:0:0:
422,240,10518,1,0,0:0:0:0:
422,240,10691,2,0,L|428:321,1,70,8|2,0:0|0:0,0:0:0:0:
332,354,11035,2,0,L|338:273,1,70,0|0,0:0|0:0,0:0:0:0:
245,232,11380,2,0,L|251:313,1,70,8|8,0:0|0:0,0:0:0:0:
223,334,11639,1,8,0:0:0:0:
223,334,11725,6,0,L|133:330,1,70,6|0,0:0|0:0,0:0:0:0:
78,291,12070,2,0,P|72:253|82:215,1,70,8|2,0:0|0:0,0:0:0:0:
124,151,12415,1,8,0:0:0:0:
205,171,12587,1,2,0:0:0:0:
275,125,12759,2,0,L|369:133,1,70,8|2,0:0|0:0,0:0:0:0:
378,156,13018,1,0,0:0:0:0:
378,156,13104,5,8,0:0:0:0:
489,246,13449,2,0,L|481:106,1,140,6|2,0:0|0:0,0:0:0:0:
423,44,13966,2,0,L|418:3,2,35,8|8|8,0:0|0:0|0:0,0:0:0:0:
343,71,14311,1,0,0:0:0:0:
266,35,14484,6,0,L|174:32,1,70,6|0,0:0|0:0,0:0:0:0:
125,78,14828,2,0,L|33:75,1,70,8|0,0:0|0:0,0:0:0:0:
15,150,15173,1,8,0:0:0:0:
75,208,15346,2,0,P|84:246|77:290,1,70,2|8,0:0|0:0,0:0:0:0:
19,333,15691,6,0,P|45:357|85:360,1,70,6|8,0:0|0:0,0:0:0:0:
162,361,16035,2,0,P|196:356|221:332,1,70,6|0,0:0|0:0,0:0:0:0:
236,249,16380,2,0,P|245:295|329:282,1,140,6|2,0:0|0:0,0:0:0:0:
386,235,16897,2,0,L|436:241,3,35,8|8|8|8,0:0|0:0|0:0|0:0,0:0:0:0:
452,210,17242,6,0,L|448:123,1,70,6|0,0:0|0:0,0:0:0:0:
379,91,17587,2,0,L|375:4,1,70,8|0,0:0|0:0,0:0:0:0:
291,21,17932,1,8,0:0:0:0:
239,86,18104,2,0,L|242:155,1,70,2|8,0:0|0:0,0:0:0:0:
180,212,18449,6,0,P|144:228|109:224,1,70,6|0,0:0|0:0,0:0:0:0:
39,187,18794,2,0,P|23:151|27:116,1,70,6|0,0:0|0:0,0:0:0:0:
55,42,19139,2,0,P|91:26|126:30,1,70,6|0,0:0|0:0,0:0:0:0:
189,76,19484,2,0,L|223:68,2,35,8|8|8,0:0|0:0|0:0,0:0:0:0:
163,155,19828,1,8,0:0:0:0:
163,155,19915,1,8,0:0:0:0:
163,155,20001,6,0,L|159:238,1,70,6|0,0:0|0:0,0:0:0:0:
213,289,20346,2,0,L|209:372,1,70,8|0,0:0|0:0,0:0:0:0:
292,374,20691,1,8,0:0:0:0:
361,327,20863,1,2,0:0:0:0:
383,246,21035,1,8,0:0:0:0:
349,168,21208,6,0,L|356:94,1,70,6|8,0:0|0:0,0:0:0:0:
274,75,21553,2,0,L|267:144,1,70,6|8,0:0|0:0,0:0:0:0:
190,179,21897,2,0,P|210:238|135:259,1,140,6|8,0:0|0:0,0:0:0:0:
74,230,22415,2,0,L|21:220,2,35,8|8|4,0:0|0:0|3:0,0:0:0:0:
72,145,22759,6,0,L|60:61,1,70,6|0,0:0|0:0,0:0:0:0:
80,37,23018,2,0,L|122:25,1,35,8|8,0:0|0:0,0:0:0:0:
175,84,23277,2,0,L|259:72,1,70,6|0,0:0|0:0,0:0:0:0:
275,46,23535,2,0,L|317:58,1,35,8|8,0:0|0:0,0:0:0:0:
361,121,23794,6,0,L|373:205,1,70,6|0,0:0|0:0,0:0:0:0:
397,223,24053,2,0,L|385:265,1,35,8|8,0:0|0:0,0:0:0:0:
307,282,24311,2,0,L|223:294,1,70,6|0,0:0|0:0,0:0:0:0:
195,286,24570,2,0,L|147:284,1,35,8|8,0:0|0:0,0:0:0:0:
83,318,24828,5,6,0:0:0:0:
18,264,25001,1,6,0:0:0:0:
67,196,25173,1,6,0:0:0:0:
62,118,25346,1,8,0:0:0:0:
62,118,25432,1,8,0:0:0:0:
62,118,25518,6,0,L|149:101,1,62.9999980773926,6|0,0:0|0:0,0:0:0:0:
196,126,25863,1,8,0:0:0:0:
258,84,26035,2,0,L|391:90,1,125.999996154785,2|0,0:0|0:0,0:0:0:0:
442,138,26553,1,8,0:0:0:0:
477,204,26725,6,0,P|479:271|471:339,1,125.999996154785,2|0,0:0|0:0,0:0:0:0:
403,361,27242,1,8,0:0:0:0:
338,321,27415,2,0,P|276:310|193:328,1,125.999996154785,2|2,0:0|0:0,0:0:0:0:
154,366,27932,1,8,0:0:0:0:
91,323,28104,1,8,0:0:0:0:
91,323,28191,1,8,0:0:0:0:
91,323,28277,6,0,L|17:330,2,62.9999980773926,6|2|8,0:0|0:0|0:0,0:0:0:0:
124,254,28794,2,0,L|264:241,1,125.999996154785,2|2,0:0|0:0,0:0:0:0:
312,199,29311,1,8,0:0:0:0:
313,123,29484,6,0,P|287:75|201:49,1,125.999996154785,2|0,0:0|0:0,0:0:0:0:
149,68,30001,1,8,0:0:0:0:
104,129,30173,2,0,B|81:168|81:168|101:264,1,125.999996154785,2|2,0:0|0:0,0:0:0:0:
122,318,30691,1,8,0:0:0:0:
207,329,30863,1,8,0:0:0:0:
207,329,30949,1,8,0:0:0:0:
207,329,31035,6,0,L|294:315,1,62.9999980773926,6|0,0:0|0:0,0:0:0:0:
341,340,31380,1,8,0:0:0:0:
409,307,31553,2,0,P|423:249|413:172,1,125.999996154785,2|0,0:0|0:0,0:0:0:0:
374,120,32070,1,8,0:0:0:0:
339,187,32242,6,0,B|282:210|281:163|212:195,1,125.999996154785,2|2,0:0|0:0,0:0:0:0:
160,244,32759,1,8,0:0:0:0:
84,240,32932,2,0,P|51:205|76:116,1,125.999996154785,2|2,0:0|0:0,0:0:0:0:
119,86,33449,1,8,0:0:0:0:
201,108,33622,1,8,0:0:0:0:
201,108,33708,1,8,0:0:0:0:
201,108,33794,6,0,L|295:98,1,70,6|0,0:0|0:0,0:0:0:0:
342,144,34139,2,0,P|351:181|347:214,1,70,6|0,0:0|0:0,0:0:0:0:
287,271,34484,1,8,0:0:0:0:
343,333,34656,1,2,0:0:0:0:
268,371,34828,1,8,0:0:0:0:
209,310,35001,6,0,L|132:318,1,70,6|0,0:0|0:0,0:0:0:0:
101,234,35346,2,0,L|170:226,1,70,6|8,0:0|0:0,0:0:0:0:
213,145,35691,2,0,P|194:180|273:226,1,140,6|0,0:0|0:0,0:0:0:0:
339,188,36208,2,0,L|383:193,3,35,8|0|8|8,0:0|3:0|0:0|0:0,0:0:0:0:
411,174,36553,5,6,0:0:0:0:
457,107,36725,1,0,0:0:0:0:
423,32,36897,1,8,0:0:0:0:
338,33,37070,2,0,P|268:44|197:40,1,125.999996154785,2|0,0:0|0:0,0:0:0:0:
133,23,37587,1,8,0:0:0:0:
68,72,37759,6,0,L|78:200,1,125.999996154785,2|2,0:0|0:0,0:0:0:0:
45,266,38277,1,8,0:0:0:0:
94,322,38449,2,0,P|125:326|155:320,1,62.9999980773926,2|0,0:0|0:0,0:0:0:0:
202,260,38794,1,2,0:0:0:0:
268,225,38966,2,0,P|298:219|329:223,1,62.9999980773926,8|8,0:0|0:0,0:0:0:0:
362,247,39225,1,8,0:0:0:0:
362,247,39311,6,0,L|360:322,2,62.9999980773926,6|2|8,0:0|0:0|0:0,0:0:0:0:
439,310,39828,2,0,L|440:173,1,125.999996154785,2|2,0:0|0:0,0:0:0:0:
455,102,40346,1,8,0:0:0:0:
378,131,40518,6,0,P|328:126|241:134,1,125.999996154785,2|2,0:0|0:0,0:0:0:0:
175,160,41035,1,8,0:0:0:0:
240,209,41208,2,0,B|270:241|270:241|253:329,1,125.999996154785,2|2,0:0|0:0,0:0:0:0:
181,360,41725,1,8,0:0:0:0:
100,345,41897,1,8,0:0:0:0:
100,345,41984,1,8,0:0:0:0:
100,345,42070,6,0,P|91:309|91:273,1,62.9999980773926,6|0,0:0|0:0,0:0:0:0:
41,216,42415,1,8,0:0:0:0:
66,138,42587,2,0,P|109:117|201:114,1,125.999996154785,2|2,0:0|0:0,0:0:0:0:
252,158,43104,1,8,0:0:0:0:
314,101,43277,6,0,L|453:108,1,125.999996154785,2|2,0:0|0:0,0:0:0:0:
487,174,43794,1,8,0:0:0:0:
482,255,43966,2,0,B|475:298|458:319|458:319|436:313|399:288,1,125.999996154785,2|2,0:0|0:0,0:0:0:0:
333,255,44484,1,8,0:0:0:0:
256,279,44656,6,0,L|249:230,2,31.4999990386963,8|8|2,0:0|0:0|0:0,0:0:0:0:
212,349,45001,1,2,0:0:0:0:
132,368,45173,2,0,L|61:364,1,62.9999980773926,8|8,0:0|0:0,0:0:0:0:
35,339,45432,1,8,0:0:0:0:
35,339,45518,2,0,L|38:256,1,62.9999980773926,8|8,0:0|0:0,0:0:0:0:
83,208,45863,2,0,L|73:165,3,31.4999990386963,8|8|4|4,0:0|0:0|3:0|3:0,0:0:0:0:
95,140,46208,5,6,0:0:0:0:
95,140,46897,1,8,0:0:0:0:
184,76,47070,2,0,B|238:60|256:98|256:98|296:66|296:66|322:99|392:96,1,209.999993591309,6|8,0:0|0:0,0:0:0:0:
408,89,47587,6,0,L|410:184,1,70,6|0,0:0|0:0,0:0:0:0:
449,241,47932,1,8,0:0:0:0:
449,241,48104,1,8,0:0:0:0:
378,299,48277,1,0,0:0:0:0:
378,299,48449,1,2,0:0:0:0:
297,256,48622,2,0,P|266:248|224:256,1,70,8|0,0:0|0:0,0:0:0:0:
182,332,48966,6,0,P|131:344|97:332,1,70,2|0,0:0|0:0,0:0:0:0:
93,258,49311,1,8,0:0:0:0:
93,258,49484,1,8,0:0:0:0:
13,220,49656,2,0,P|1:182|14:138,1,70,0|2,0:0|0:0,0:0:0:0:
79,98,50001,1,8,0:0:0:0:
116,180,50173,1,0,0:0:0:0:
189,234,50346,6,0,B|234:243|234:243|346:220,1,140,6|8,0:0|0:0,0:0:0:0:
394,163,50863,2,0,P|362:211|438:249,1,140,2|0,0:0|0:0,0:0:0:0:
484,197,51380,1,8,0:0:0:0:
474,106,51553,1,0,0:0:0:0:
390,70,51725,6,0,B|355:61|355:61|316:72,1,70,6|0,0:0|0:0,0:0:0:0:
236,101,52070,2,0,L|118:100,1,105,8|0,0:0|0:0,0:0:0:0:
94,127,52415,1,6,0:0:0:0:
62,212,52587,1,0,0:0:0:0:
120,281,52759,2,0,L|124:319,3,35,8|0|8|8,0:0|0:0|0:0|0:0,0:0:0:0:
160,343,53104,6,0,L|255:345,1,70,6|0,0:0|0:0,0:0:0:0:
320,352,53449,1,8,0:0:0:0:
320,352,53621,1,8,0:0:0:0:
411,352,53794,1,0,0:0:0:0:
411,352,53966,1,2,0:0:0:0:
447,268,54139,2,0,P|447:232|427:182,1,70,8|0,0:0|0:0,0:0:0:0:
363,148,54484,6,0,P|367:105|356:72,1,70,2|0,0:0|0:0,0:0:0:0:
269,87,54828,2,0,P|264:121|272:155,1,70,8|2,0:0|0:0,0:0:0:0:
327,232,55173,1,0,0:0:0:0:
269,302,55346,1,0,3:0:0:0:
269,302,55432,1,0,3:0:0:0:
269,302,55518,2,0,L|225:311,3,35,8|8|8|8,0:0|0:0|0:0|0:0,0:0:0:0:
197,335,55863,6,0,B|149:354|149:354|40:321,1,140,6|8,0:0|0:0,0:0:0:0:
64,237,56380,2,0,B|112:218|112:218|221:251,1,140,6|0,0:0|0:0,0:0:0:0:
279,281,56897,1,8,0:0:0:0:
360,239,57070,1,8,0:0:0:0:
360,239,57156,1,8,0:0:0:0:
360,239,57242,6,0,B|362:165,1,70,6|0,0:0|0:0,0:0:0:0:
332,82,57587,1,8,0:0:0:0:
243,100,57759,2,0,P|204:108|91:87,1,140,6|0,0:0|0:0,0:0:0:0:
27,142,58277,1,8,0:0:0:0:
28,232,58449,1,0,0:0:0:0:
92,297,58622,6,0,L|203:288,2,105,4|4|4,3:0|3:0|3:0,0:0:0:0:
115,209,59311,2,0,L|226:200,2,105,4|4|4,3:0|3:0|3:0,0:0:0:0:
34,166,60001,6,0,P|18:135|22:100,1,70,6|0,0:0|0:0,0:0:0:0:
49,69,60259,2,0,L|37:27,1,35,8|8,0:0|0:0,0:0:0:0:
123,34,60518,2,0,L|204:38,1,70,6|0,0:0|0:0,0:0:0:0:
230,56,60777,2,0,L|279:52,1,35,8|8,0:0|0:0,0:0:0:0:
340,90,61035,6,0,P|355:120|351:155,1,70,6|0,0:0|0:0,0:0:0:0:
317,181,61294,2,0,P|309:194|305:223,1,35,8|8,0:0|0:0,0:0:0:0:
341,289,61553,2,0,L|424:280,1,70,6|0,0:0|0:0,0:0:0:0:
445,258,61811,2,0,L|499:249,1,35,8|8,0:0|0:0,0:0:0:0:
508,172,62070,5,6,0:0:0:0:
483,91,62242,1,6,0:0:0:0:
395,81,62415,2,0,L|347:76,3,35,6|8|8|8,0:0|0:0|0:0|0:0,0:0:0:0:
315,98,62759,6,0,L|229:88,1,77.0000023498536,6|0,0:0|0:0,0:0:0:0:
157,44,63104,1,8,0:0:0:0:
75,87,63277,2,0,P|25:145|32:227,1,154.000004699707,6|2,0:0|0:0,0:0:0:0:
106,268,63794,1,8,0:0:0:0:
188,229,63966,6,0,P|253:211|335:259,1,154.000004699707,6|2,0:0|0:0,0:0:0:0:
382,323,64484,1,8,0:0:0:0:
299,363,64656,2,0,P|234:381|152:333,1,154.000004699707,6|2,0:0|0:0,0:0:0:0:
106,268,65173,1,8,0:0:0:0:
143,183,65346,1,0,0:0:0:0:
143,183,65432,1,0,0:0:0:0:
143,183,65518,6,0,L|128:92,1,77.0000023498536,6|0,0:0|0:0,0:0:0:0:
119,15,65863,1,8,0:0:0:0:
202,53,66035,2,0,P|253:76|361:54,1,154.000004699707,6|2,0:0|0:0,0:0:0:0:
430,19,66553,1,8,0:0:0:0:
424,110,66725,6,0,B|406:151|406:151|432:277,1,154.000004699707,6|2,0:0|0:0,0:0:0:0:
364,325,67242,2,0,L|269:319,1,77.0000023498536,8|2,0:0|0:0,0:0:0:0:
196,341,67587,2,0,L|101:347,1,77.0000023498536,8|2,0:0|0:0,0:0:0:0:
26,326,67932,1,8,0:0:0:0:
92,262,68104,1,8,0:0:0:0:
92,262,68191,1,8,0:0:0:0:
92,262,68277,6,0,L|81:175,2,77.0000023498536,6|2|8,0:0|0:0|0:0,0:0:0:0:
181,239,68794,2,0,L|170:152,1,77.0000023498536,6|0,0:0|0:0,0:0:0:0:
225,87,69139,1,2,0:0:0:0:
317,84,69311,1,8,0:0:0:0:
389,142,69484,6,0,B|409:182|400:245|400:245|349:232,1,154.000004699707,6|2,0:0|0:0,0:0:0:0:
260,220,70001,1,8,0:0:0:0:
199,289,70173,1,6,0:0:0:0:
240,371,70346,2,0,P|288:357|329:363,1,77.0000023498536,0|2,0:0|0:0,0:0:0:0:
405,378,70691,2,0,P|391:330|397:289,1,77.0000023498536,8|8,0:0|0:0,0:0:0:0:
415,263,70949,1,8,0:0:0:0:
415,263,71035,5,6,0:0:0:0:
469,188,71208,1,0,0:0:0:0:
427,105,71380,2,0,P|390:96|348:107,1,77.0000023498536,8|2,0:0|0:0,0:0:0:0:
302,26,71725,2,0,P|275:53|264:95,1,77.0000023498536,8|2,0:0|0:0,0:0:0:0:
171,94,72070,2,0,P|181:130|212:161,1,77.0000023498536,8|2,0:0|0:0,0:0:0:0:
310,211,72415,5,8,0:0:0:0:
310,211,72759,2,0,P|316:268|299:347,1,115.50000352478,6|0,0:0|0:0,0:0:0:0:
270,354,73104,2,0,P|238:363|189:350,1,77.0000023498536,2|8,0:0|0:0,0:0:0:0:
161,322,73363,1,8,0:0:0:0:
161,322,73449,1,8,0:0:0:0:
122,237,73622,1,8,0:0:0:0:
122,237,73708,1,8,0:0:0:0:
122,237,73794,6,0,L|131:158,1,70,6|0,0:0|0:0,0:0:0:0:
220,113,74139,2,0,L|229:192,1,70,8|0,0:0|0:0,0:0:0:0:
292,237,74484,1,8,0:0:0:0:
370,206,74656,1,2,0:0:0:0:
400,128,74828,1,8,0:0:0:0:
366,50,75001,6,0,L|294:58,1,70,6|0,0:0|0:0,0:0:0:0:
215,33,75346,2,0,L|143:41,1,70,6|8,0:0|0:0,0:0:0:0:
70,79,75691,2,0,B|42:134|94:151|62:214,1,140,6|2,0:0|0:0,0:0:0:0:
34,294,76208,2,0,L|86:286,3,35,8|8|8|8,0:0|0:0|0:0|0:0,0:0:0:0:
97,319,76553,6,0,L|181:325,1,70,6|0,0:0|0:0,0:0:0:0:
243,251,76897,2,0,L|173:246,1,70,8|0,0:0|0:0,0:0:0:0:
213,171,77242,1,8,0:0:0:0:
296,181,77415,1,2,0:0:0:0:
325,259,77587,1,8,0:0:0:0:
384,199,77759,6,0,P|384:161|366:124,1,70,6|0,0:0|0:0,0:0:0:0:
315,69,78104,2,0,P|277:69|240:87,1,70,6|8,0:0|0:0,0:0:0:0:
213,171,78449,2,0,L|63:172,1,140,6|8,0:0|0:0,0:0:0:0:
20,237,78966,2,0,L|29:293,3,35,8|0|8|8,0:0|0:0|0:0|0:0,0:0:0:0:
67,279,79311,6,0,L|58:363,1,70,6|0,0:0|0:0,0:0:0:0:
164,347,79656,2,0,L|171:277,1,70,8|0,0:0|0:0,0:0:0:0:
235,222,80001,1,8,0:0:0:0:
288,286,80173,1,2,0:0:0:0:
372,291,80346,1,8,0:0:0:0:
436,237,80518,6,0,L|446:159,1,70,6|8,0:0|0:0,0:0:0:0:
411,90,80863,2,0,L|341:81,1,70,6|8,0:0|0:0,0:0:0:0:
274,131,81208,2,0,P|290:174|236:254,1,140,6|8,0:0|0:0,0:0:0:0:
161,240,81725,1,8,0:0:0:0:
161,240,81811,1,8,0:0:0:0:
161,240,81897,1,8,0:0:0:0:
96,294,82070,5,6,0:0:0:0:
41,232,82242,2,0,L|-5:224,2,35,0|8|8,0:0|0:0|0:0,0:0:0:0:
95,167,82587,1,6,0:0:0:0:
40,105,82759,2,0,L|-6:97,2,35,0|8|8,0:0|0:0|0:0,0:0:0:0:
122,88,83104,5,6,0:0:0:0:
177,26,83276,2,0,L|223:18,2,35,0|8|8,0:0|0:0|0:0,0:0:0:0:
205,106,83622,1,6,0:0:0:0:
267,161,83794,2,0,L|275:207,2,35,0|8|8,0:0|0:0|0:0,0:0:0:0:
320,95,84139,5,6,0:0:0:0:
379,26,84311,1,6,0:0:0:0:
448,85,84484,1,6,0:0:0:0:
389,154,84656,2,0,L|394:199,2,35,6|8|4,0:0|0:0|3:0,0:0:0:0:
234,310,85173,6,0,B|254:274|239:210|239:210|173:228|152:300|152:300|136:318|120:300|120:300|98:228|32:212|32:212|14:281|39:310,1,503.999984619141,6|0,0:0|0:0,0:0:0:0:
